
//----- song ID: eaty -----//
#TITLE:EAT YOU UP;
#ARTIST:ANGIE GOLD;
#BANNER:EAT YOU UP.png;
#BACKGROUND:EAT YOU UP-bg.png;
#CDTITLE:./CDTITLES/DANCEMANIA SUPER CLASSICS 1.PNG;
#MUSIC:EAT YOU UP.ogg;
#SAMPLESTART:42.32;
#SAMPLELENGTH:15;
#DISPLAYBPM:130;
#BPMS:0=130.435;

//---------------dance-single - ----------------
#NOTES:
     dance-single:
     :
     Easy:
     2:
     :
0000
0000
0000
0000
,
0000
0000
0000
0000
,
0000
0000
0000
0000
,
0000
0000
0000
0000
,
0000
0000
0000
0000
,
0000
0000
0000
0000
,
1000
0100
0010
0000
,
0001
0100
0010
0000
,
1000
1000
1000
0000
,
0001
0001
0001
0000
,
0010
0100
1000
0000
,
0010
0100
0001
0000
,
1000
1000
0000
0100
,
0010
0001
0100
0000
,
0010
1000
0001
0000
,
0010
0100
1000
0000
,
0001
0001
0001
0000
,
1000
1000
1000
0000
,
0010
0100
0001
0000
,
1000
0100
0010
0000
,
0001
0001
0000
1000
,
0010
0100
0001
0000
,
0100
0100
0100
0100
,
0010
0010
0000
0000
,
1000
1000
0000
0000
,
0100
0000
0010
0000
,
0001
0000
0000
0000
,
1000
1000
0000
0000
,
0010
0010
0000
0000
,
0100
0000
0001
0000
,
0010
0000
0000
0000
,
0100
0000
1000
0000
,
0001
0000
0100
0000
,
0010
0000
1000
0000
,
0100
0000
0010
0000
,
0001
0001
0100
0000
,
0010
0010
1000
0000
,
0100
0000
0010
0000
,
0001
0000
0000
0000
,
1000
1000
0000
0000
,
0100
0100
0000
0000
,
0010
0000
0001
0000
,
1000
0000
0000
0000
,
0100
0100
0000
0000
,
0010
0010
0000
0000
,
0001
0000
1000
0000
,
0010
0000
0100
0000
;

//---------------dance-single - ----------------
#NOTES:
     dance-single:
     :
     Medium:
     5:
     :
0000
0000
0000
0000
,
0000
0000
0000
0000
,
0000
0000
0000
0000
,
0000
0000
0000
0000
,
0000
0000
0000
0000
,
0000
0000
0000
0000
,
1000
0000
0100
0000
0010
0001
0010
0000
,
0100
0000
1000
0000
0010
0100
0010
0000
,
1000
0000
0001
0000
0100
0010
0100
0000
,
0001
0001
0010
0010
,
0100
0000
1000
0000
0001
0100
0001
0000
,
1000
0000
0100
0000
0010
0001
0010
0000
,
0100
1000
0001
0100
,
0010
1000
0010
0000
0100
0000
0001
0000
,
0010
0000
0100
0000
1000
0010
1000
0000
,
0001
0000
0010
0000
0100
1000
0100
0000
,
0010
0000
0001
0000
0100
0010
0100
0000
,
0001
0001
1000
1000
,
0100
0000
0010
0000
0001
0100
0001
0000
,
1000
0000
0100
0000
0010
0001
0010
0000
,
0100
1000
0010
0100
,
0001
1000
0001
0000
0010
0000
0100
0000
,
1000
0010
1000
0000
0001
0000
0010
0000
,
0100
1000
0010
0000
,
0100
0001
0100
0000
0010
0000
0000
0000
,
1000
1000
0100
0100
,
0010
0000
0000
0000
,
0001
0100
0001
0000
1000
0000
0000
0000
,
0100
0010
0100
0000
1000
0000
0000
0000
,
0001
0001
0100
0100
,
0010
0000
0000
0000
0000
0000
1000
1000
,
0000
0000
0001
0000
0000
0000
0010
0010
,
0000
0000
0100
0000
0000
0000
1000
1000
,
0000
0000
0001
0000
0000
0000
0100
0100
,
0000
0010
0000
1000
,
0001
0100
0010
0000
,
1000
0100
1000
0000
0001
0000
0000
0000
,
0010
0010
0100
0100
,
1000
0000
0000
0000
,
0001
0100
0001
0000
1000
0000
0000
0000
,
0100
0010
0100
0000
1000
0000
0000
0000
,
0001
0100
1000
0100
,
0010
0000
0000
0000
,
0001
0100
0001
0000
1000
0000
0000
0000
,
0100
0010
0100
0000
1000
0000
0000
0000
,
0001
0001
0100
0100
,
0010
0010
0010
0010
;

//---------------dance-single - ----------------
#NOTES:
     dance-single:
     :
     Hard:
     6:
     :
0000
0000
0000
0000
,
0000
0000
0000
0000
,
0000
0000
0000
0000
,
0000
0000
0000
0000
,
0000
0000
0000
0000
,
0000
0000
0000
0000
,
1000
0100
0010
0000
0001
0100
0010
0000
,
1000
0100
0010
0100
1000
0100
0010
0000
,
0001
1000
0010
0000
0100
0001
1000
0000
,
0100
0010
0001
0010
0100
0010
0001
0000
,
1000
0010
0100
0000
0001
0010
0100
0000
,
1000
0001
1000
0100
1000
0001
1000
0000
,
0010
0100
0001
0000
1000
0100
0010
0000
,
0001
0000
1000
0100
1000
0000
0001
0000
,
0100
0010
1000
0000
0100
0010
0001
0000
,
1000
0010
1000
0001
1000
0010
1000
0000
,
0100
0010
0001
0000
1000
0010
0100
0000
,
0001
1000
0001
0100
0001
1000
0001
0000
,
0010
0100
1000
0000
0001
0100
0010
0000
,
1000
0001
1000
0010
1000
0001
1000
0000
,
0100
0010
0001
0000
0100
0010
1000
0000
,
0001
0000
0010
0100
0010
0000
0001
0000
,
1000
0010
0100
0001
0010
0100
1000
0001
,
0100
0010
0100
0001
0000
1000
1000
0000
,
0100
0010
0100
1000
0000
0001
0001
0000
,
0100
0010
1000
0100
0010
0001
0100
0010
,
0000
0000
0000
0000
,
1000
0100
1000
0001
0000
0100
0100
0000
,
0010
1000
0010
0100
0000
0001
0001
0000
,
1000
0100
0010
0001
0100
0010
1000
0100
,
0000
0000
0000
0000
0000
0010
0001
0010
,
0000
0100
1000
0100
0000
0010
0001
0100
,
0000
0010
1000
0100
0000
0010
0001
1000
,
0000
0010
0100
0001
0000
1000
0100
0010
,
0000
0001
0001
0001
,
1000
0010
0100
0001
0000
1000
1000
0000
,
0100
0010
0001
0100
0000
0010
0010
0000
,
1000
0100
0010
0001
0100
0010
1000
0001
,
0000
0000
0000
0000
0000
0010
0100
1000
,
0001
0100
0010
1000
0000
0001
0001
0000
,
0010
0100
1000
0001
0000
0100
0100
0000
,
0010
1000
0001
0010
0100
1000
0001
0100
,
0000
0000
0000
0000
0001
0000
0001
0001
,
1000
0100
0010
0001
0000
1000
1000
0000
,
0010
0100
0001
0010
0000
0100
0100
0000
,
1000
0001
0100
0010
1000
0100
0010
0010
,
0000
0000
1001
0110
;

//---------------dance-double - ----------------
#NOTES:
     dance-double:
     :
     Easy:
     3:
     :
00000000
00000000
00000000
00000000
,
00000000
00000000
00000000
00000000
,
00000000
00000000
00000000
00000000
,
00000000
00000000
00000000
00000000
,
00000000
00000000
00000000
00000000
,
00000000
00000000
00000000
00000000
,
10000000
10000000
10000000
00000000
,
01000000
01000000
01000000
00000000
,
00001000
00001000
00001000
00000000
,
00000100
00000100
00000100
00000000
,
00000010
00000010
00000010
00000000
,
00000001
00000001
00000001
00000000
,
00000100
00000100
00000100
00000000
,
00000010
00010000
00001000
01000000
,
00010000
10000000
01000000
00000000
,
00010000
00000100
00000010
00000000
,
00000001
00000100
00010000
00000000
,
10000000
01000000
00001000
00000000
,
00000001
00000100
00000010
00000000
,
00001000
00000100
00010000
00000000
,
00001000
00100000
01000000
00000000
,
10000000
00010000
01000000
00001000
,
00010000
00010000
00000100
00000100
,
00000010
00000001
00000100
00000000
,
00000010
00001000
00000100
00000000
,
00010000
00010000
00001000
00001000
,
00010000
00000000
00000000
00000000
,
00100000
01000000
10000000
00000000
,
00100000
01000000
00001000
00000000
,
00010000
00010000
00000100
00000100
,
00000010
00000000
00000000
00000000
,
00000001
00000000
00001000
00000000
,
00000100
00000000
00010000
00000000
,
00001000
00000000
00100000
00000000
,
01000000
00000000
10000000
00000000
,
00010000
01000000
00001000
00000000
,
00010000
00000100
00001000
00000000
,
00000001
00000001
00000100
00000100
,
00000010
00000000
00000000
00000000
,
00010000
00010000
00001000
00000000
,
00100000
00100000
01000000
00000000
,
10000000
00010000
01000000
00001000
,
00010000
00000000
00000000
00000000
,
00000100
00000100
00000100
00000000
,
00000010
00000010
00000010
00000000
,
00000001
00000100
00000010
00010000
,
00001000
00100000
00100000
00100000
;

//---------------dance-double - ----------------
#NOTES:
     dance-double:
     :
     Medium:
     5:
     :
00000000
00000000
00000000
00000000
,
00000000
00000000
00000000
00000000
,
00000000
00000000
00000000
00000000
,
00000000
00000000
00000000
00000000
,
00000000
00000000
00000000
00000000
,
00000000
00000000
00000000
00000000
,
00000000
00000000
10000000
00000000
00010000
01000000
00001000
00000000
,
00000000
00000000
00010000
00000000
00000100
00001000
00000001
00000000
,
00000000
00000000
00000010
00000000
00000100
00010000
00001000
00000000
,
00000000
00000000
00100000
00000000
00010000
10000000
01000000
00000000
,
00000000
00000000
00100000
00000000
00001000
00010000
00000100
00000000
,
00000000
00000000
00001000
00000000
00000001
00000100
00000010
00000000
,
00000000
00000000
00001000
00000000
00000100
00010000
00001000
00000000
,
00100000
00010000
10000000
00000000
01000000
00000000
00100000
00000000
,
00000000
00000000
00001000
00000000
00010000
00000100
00000010
00000000
,
00000000
00000000
00000001
00000000
00000100
00000010
00001000
00000000
,
00000000
00000000
00000100
00000000
00010000
00001000
00100000
00000000
,
00000000
00000000
00010000
00000000
10000000
00100000
01000000
00000000
,
00000000
00000000
00001000
00000000
00010000
00000010
00001000
00000000
,
00000000
00000000
00000001
00000000
00000010
00000100
00010000
00000000
,
00000000
00000000
00001000
00000000
00100000
01000000
10000000
00000000
,
00010000
00000000
01000000
00001000
00010000
00000000
00000000
00000000
,
00000100
00000100
00000010
00000010
,
00000001
00000100
00000010
00000000
00010000
00000000
00000000
00000000
,
00001000
00100000
00010000
00000000
10000000
00000000
00000000
00000000
,
00100000
00000000
00100000
00000000
01000000
00000000
01000000
00010000
,
00000000
00000000
00000000
00000000
,
00100000
00001000
00010000
00000000
00000100
00000000
00000000
00000000
,
00000010
00000001
00000100
00000000
00000010
00000000
00000000
00000000
,
00010000
00000000
00010000
00000000
00001000
00000000
00001000
00100000
,
00000000
00000000
00000000
00000000
00000000
00000000
00010000
00010000
,
00000000
00000000
10000000
00000000
00000000
00000000
01000000
01000000
,
00000000
00000000
00100000
00000000
00000000
00000000
00001000
00001000
,
00000000
00000000
00010000
00000000
00000000
00000000
00000100
00000100
,
00000000
00000010
00000010
00000010
,
00000001
00000000
00000001
00000100
00000000
00000000
00000000
00000000
,
00000010
00000000
00000010
00001000
00000000
00000000
00000000
00000000
,
00000100
00000100
00010000
00010000
,
00001000
00000000
00000000
00000000
,
00100000
00010000
10000000
00000000
01000000
00000000
00000000
00000000
,
00100000
00001000
00010000
00000000
00000100
00000000
00000000
00000000
,
00001000
00000000
00001000
00000000
00000001
00000000
00000001
00000100
,
00000000
00000000
00000000
00000000
,
00000010
00000000
00000010
00001000
00000000
00000000
00000000
00000000
,
00000100
00000000
00000100
00010000
00000000
00000000
00000000
00000000
,
00001000
00100000
00010000
00000000
10000000
00100000
01000000
00001000
,
00000000
00000000
00011000
00011000
;

//---------------dance-double - ----------------
#NOTES:
     dance-double:
     :
     Hard:
     6:
     :
00000000
00000000
00000000
00000000
,
00000000
00000000
00000000
00000000
,
00000000
00000000
00000000
00000000
,
00000000
00000000
00000000
00000000
,
00000000
00000000
00000000
00000000
,
00000000
00000000
00000000
00000000
,
00100000
00010000
01000000
00001000
00010000
00000010
00001000
00000000
,
00000001
00000010
00000100
00010000
00001000
00100000
00010000
00000000
,
10000000
00100000
01000000
00000000
00010000
00100000
01000000
00000000
,
10000000
00010000
01000000
00001000
00010000
00000010
00001000
00000000
,
00000001
00000010
00000100
00010000
00001000
00100000
00010000
00000000
,
10000000
00100000
01000000
00001000
00010000
00000010
00001000
00000000
,
00000001
00000010
00000100
00000000
00001000
00000010
00000100
00000000
,
00000001
00000001
00000001
00000001
,
00001000
00000100
00010000
00001000
00100000
00010000
10000000
00000000
,
00100000
01000000
00001000
00010000
00000100
00001000
00000001
00000000
,
00000100
00000010
00001000
00000000
00000100
00000010
00000001
00000000
,
00001000
00000100
00010000
00001000
00100000
00010000
10000000
00000000
,
00100000
01000000
00010000
00100000
00001000
00010000
00000100
00000000
,
00000010
00000001
00000100
00000010
00001000
00000100
00010000
00000000
,
00001000
01000000
00010000
00000000
00100000
01000000
10000000
00000000
,
00010000
00010000
00010000
00010000
,
01000000
00001000
00010000
00000000
00000100
00000010
00000001
00000100
,
00000010
00001000
00000100
00010000
00000000
00000000
00000000
00000000
,
00001000
00100000
00010000
10000000
00000000
00000000
00000000
00000000
,
00100000
01000000
00001000
00000000
00010000
00000100
00000010
00000001
,
00000000
00000000
00000000
00000000
,
00001000
00000010
00000100
00000001
00000000
00000000
00000000
00000000
,
00001000
00000100
00010000
00001000
00000000
00000000
00000000
00000000
,
00100000
00010000
10000000
00000000
00100000
01000000
00001000
00010000
,
00000000
00000000
00000000
00000000
00000000
00000100
00001000
00000001
,
00000000
00000100
00000010
00001000
00000000
00000100
00010000
00001000
,
00000000
00100000
00010000
10000000
00000000
00100000
01000000
00001000
,
00000000
00010000
00000100
00001000
00000000
00000001
00000100
00000010
,
00000000
00000000
00010000
00000000
00001000
00010000
00001000
00010000
,
00001000
00100000
00010000
10000000
00000000
01000000
00000000
00000000
,
00100000
00010000
01000000
00001000
00000000
00010000
00000000
00000000
,
00000100
00001000
00000001
00000000
00000100
00000010
00001000
00000100
,
00000000
00000000
00000000
00000000
00000000
00010000
00001000
00100000
,
00010000
10000000
00100000
01000000
00000000
00000000
00000000
00000000
,
00001000
00010000
00000100
00001000
00000000
00000000
00000000
00000000
,
00000001
00000100
00000010
00000000
00001000
00000100
00010000
00001000
,
00000000
00100000
00100000
00100000
,
00010000
10000000
01000000
00100000
00000000
00010000
00000000
00000000
,
01000000
00001000
00010000
00000010
00000000
00001000
00000000
00000000
,
00000001
00000010
00000100
00000000
00010000
00001000
00100000
00010000
,
00000000
10000000
00100000
01000000
;

//---------------dance-couple - ----------------
#NOTES:
     dance-couple:
     :
     Challenge:
     2:
     :
00000000
00000000
00000000
00000000
,
00000000
00000000
00000000
00000000
,
00000000
00000000
00000000
00000000
,
00000000
00000000
00000000
00000000
,
00000000
00000000
00000000
00000000
,
00000000
00000000
00000000
00000000
,
10000000
00000000
01000001
00000000
00100000
00010000
00100001
00000000
,
01000000
00000000
10000001
00000000
00100000
01000000
00100001
00000000
,
10000000
00000000
00010001
00000000
01000000
00100000
01000001
00000000
,
00010000
00010001
00100000
00100001
,
01000000
00000000
10000001
00000000
00010000
01000000
00010001
00000000
,
10000000
00000000
01000001
00000000
00100000
00010000
00100001
00000000
,
01000000
10000001
00010000
01000001
,
00100000
10000000
00100001
00000000
01000000
00000000
00010001
00000000
,
00001000
00000000
10000100
00000000
00000010
00000001
10000010
00000000
,
00000100
00000000
10001000
00000000
00000010
00000100
10000010
00000000
,
00001000
00000000
10000001
00000000
00000100
00000010
10000100
00000000
,
00000001
10000001
00000010
10000010
,
00000100
00000000
10001000
00000000
00000001
00000100
10000001
00000000
,
00001000
00000000
10000100
00000000
00000010
00000001
10000010
00000000
,
00000100
10001000
00000001
10000100
,
00000010
00001000
10000010
00000000
00000100
00000000
10000001
00000000
,
00011000
00100010
01000100
10000001
00100010
01000100
00011000
00000000
,
00100000
00100001
00000000
00000000
,
00010000
00010001
00000000
00000000
,
01000000
00000001
00100000
00000000
,
10000001
00000000
00000000
00000000
,
00000010
10000010
00000000
00000000
,
00001000
10001000
00000000
00000000
,
00000100
10000000
00000010
00000000
,
10000001
00000000
00000000
00000000
00000000
00000000
00010000
00010000
,
00000000
00000000
10000000
00000000
00000000
00000000
00001000
00001000
,
00000000
00000000
00000001
00000000
00000000
00000000
00100000
00100000
,
00000000
00000000
01000000
00000000
00000000
00000000
00000010
00000010
,
00000000
00000100
00000000
00011000
,
00000001
10000100
00000010
10000000
,
00001000
00000100
10001000
00000000
00000001
00000000
10000000
00000000
,
00000010
10000010
00000100
10000100
,
00001000
00000000
00000000
00000000
,
00010000
01000001
00100000
00000001
,
10000000
01000000
10000001
00000000
00010000
00000000
00000001
00000000
,
00100000
00100001
01000000
01000001
,
10000000
00000000
00000000
00000000
,
00010000
01000000
00100000
10000000
00000000
00010000
00010000
00000000
,
00001000
00000100
00000010
00000001
00000000
00001000
00001000
00000000
,
10000001
00011000
01000100
00100010
10000001
01000100
00100010
00100010
,
00000000
00000000
10010110
01101001
;

//---------------dance-solo - ----------------
#NOTES:
     dance-solo:
     :
     Easy:
     3:
     :
000000
000000
000000
000000
,
000000
000000
000000
000000
,
000000
000000
000000
000000
,
000000
000000
000000
000000
,
000000
000000
000000
000000
,
000000
000000
000000
000000
,
010000
000001
001000
000000
,
000010
100000
001000
000000
,
010000
000000
010000
000000
,
000001
000000
000001
000000
,
100000
000100
001000
000000
,
000010
100000
000001
000000
,
010000
000000
010000
000000
,
000010
000010
000010
000000
,
000100
000001
001000
000000
,
000100
100000
000010
000000
,
010000
000000
010000
000000
,
000001
000000
000001
000000
,
000100
001000
100000
000000
,
000001
001000
000100
000000
,
100000
000000
000010
000000
,
010000
000000
000100
000000
,
001000
001000
001000
001000
,
000010
100000
000000
000000
,
000001
010000
000000
000000
,
001000
001000
000100
000100
,
000001
000000
000000
000000
,
010000
000010
000000
000000
,
100000
000001
000000
000000
,
001000
001000
000100
000100
,
100000
000000
000000
000000
,
000010
000000
010000
000000
,
000001
000000
100000
000000
,
001000
000000
000100
000000
,
000001
000000
010000
010000
,
000100
100000
000010
000000
,
010000
000001
000100
000000
,
001000
001000
010000
010000
,
000001
000000
000000
000000
,
100000
000010
000000
000000
,
010000
000001
000000
000000
,
000100
000000
001000
000000
,
100000
000000
000000
000000
,
000001
001000
000010
000000
,
100000
001000
010000
000000
,
000001
000001
100000
100000
,
000100
010000
000010
000100
;

//---------------dance-solo - ----------------
#NOTES:
     dance-solo:
     :
     Medium:
     5:
     :
000000
000000
000000
000000
,
000000
000000
000000
000000
,
000000
000000
000000
000000
,
000000
000000
000000
000000
,
000000
000000
000000
000000
,
000000
000000
000000
000000
,
100000
000000
000010
000100
000010
000000
100000
000000
,
000100
001000
000010
100000
,
000001
000000
010000
001000
010000
000000
000001
000000
,
100000
000100
001000
000010
,
100000
000000
000100
010000
000100
000000
100000
000000
,
000010
010000
000001
000100
,
001000
000000
001000
000000
100000
000001
001000
000000
,
000010
000000
000010
000000
,
100000
000000
001000
000100
001000
000000
100000
000000
,
000001
001000
000100
100000
,
000010
000000
010000
000100
010000
000000
000010
000000
,
001000
000001
000100
001000
,
010000
000000
000001
100000
000001
000000
010000
000000
,
001000
000100
000001
100000
,
000010
010000
000010
000000
000100
000000
001000
000000
,
010000
000000
000001
000000
,
001000
000100
100000
000010
,
010000
000100
010000
000000
000001
000000
000000
000000
,
100000
000010
100000
000000
000100
000000
000000
000000
,
001000
000000
001000
000000
000010
000000
000010
100000
,
000000
000000
000000
000000
,
000001
010000
000001
000000
000100
000000
000000
000000
,
001000
010000
001000
000000
100000
000000
000000
000000
,
000001
000000
000001
000000
001000
000000
001000
000010
,
000000
000000
000000
000000
000000
000000
100000
000001
,
000000
000000
010000
000000
000000
000000
000010
000100
,
000000
000000
000001
000000
000000
000000
010000
001000
,
000000
000000
000100
000000
000000
000000
000001
100000
,
000000
000010
000010
000010
,
010000
000100
100000
000000
001000
000000
000000
000000
,
000100
000001
010000
000000
000010
000000
000000
000000
,
100000
100000
000001
000001
,
001000
000000
000000
000000
,
000100
100000
001000
000000
010000
000000
000000
000000
,
000001
000100
000010
000000
010000
000000
000000
000000
,
000100
000000
000100
000000
001000
000000
001000
000010
,
000000
000000
000000
000000
,
100000
000001
010000
000000
001000
000000
000000
000000
,
000100
000001
010000
000000
000010
000000
000000
000000
,
100000
000000
100000
000000
000100
000000
000100
001000
,
000000
000010
100000
000001
;

//---------------dance-solo - ----------------
#NOTES:
     dance-solo:
     :
     Hard:
     7:
     :
000000
000000
000000
000000
,
000000
000000
000000
000000
,
000000
000000
000000
000000
,
000000
000000
000000
000000
,
000000
000000
000000
000000
,
000000
000000
000000
000000
,
010000
001000
000100
001000
000010
001000
001000
000000
,
010000
000001
100000
000010
001000
000100
000100
000000
,
100000
000010
010000
000001
000100
001000
001000
000000
,
010000
000001
000100
000010
001000
000001
000001
000000
,
100000
000010
001000
000100
100000
000010
000010
000000
,
010000
000001
000100
001000
010000
000001
000001
000000
,
100000
000100
001000
000001
100000
000010
000010
000000
,
010000
000100
100000
001000
010000
000000
000001
000000
,
000100
000010
001000
000001
100000
001000
001000
000000
,
010000
000001
100000
000010
001000
000100
000100
000000
,
100000
000010
001000
000100
100000
000010
000010
000000
,
000100
000001
010000
001000
100000
000100
000100
000000
,
001000
000010
100000
000001
010000
001000
001000
000000
,
000100
000001
010000
000010
100000
000100
000100
000000
,
001000
000001
100000
001000
010000
000001
000001
000000
,
000100
000010
100000
000001
001000
000000
000000
000000
,
000100
100000
000010
010000
000001
000100
001000
010000
,
000001
100000
000100
001000
000000
000010
000010
000000
,
100000
000001
000100
001000
000000
010000
010000
000000
,
000001
000100
000010
010000
000100
100000
001000
000100
,
000000
000000
000000
000000
000000
000001
100000
000100
,
001000
000010
100000
000100
000000
010000
010000
000000
,
000001
000100
001000
100000
000000
000001
000001
000000
,
001000
000100
100000
000010
010000
000001
000100
001000
,
000000
000000
000000
000000
000000
010000
000100
010000
,
000000
000010
000100
000010
000000
001000
000001
001000
,
000000
100000
001000
100000
000000
000001
000100
000001
,
000000
010000
000010
010000
000000
000100
100000
000100
,
000000
001000
001000
001000
,
000010
100000
000001
010000
000000
001000
001000
000000
,
000100
000001
010000
000010
000000
100000
100000
000000
,
000001
000100
001000
010000
000001
100000
000010
001000
,
000000
000000
000000
000000
000000
000100
100000
001000
,
010000
000001
000100
000010
000000
010000
010000
000000
,
000100
100000
001000
010000
000000
000001
000001
000000
,
100000
000100
001000
000010
100000
000001
010000
001000
,
000000
000000
000100
000000
000001
100000
000001
100000
,
000100
001000
000010
100000
000000
000001
000001
000000
,
010000
001000
000100
000001
000000
010000
010000
000000
,
000010
100000
000100
001000
000001
100000
001000
010000
,
000000
000000
000001
000000
100000
000010
010000
000000
;
