#TITLE:GIMME GIMME;
#ARTIST:컨츄리꼬꼬;
#ARTISTTRANSLIT:country kko kko;
#BANNER:GIMME GIMME.png;
#BACKGROUND:GIMME GIMME-bg.png;
#CDTITLE:./CDTITLES/KOREAN DANCE MUSIC.png;
#MUSIC:GIMME GIMME.mp3;
#OFFSET:1.625;
#SAMPLESTART:58.345;
#SAMPLELENGTH:15;
#BPMS:0=144.03;

//---------------dance-single - ----------------
#NOTES:
     dance-single:
     :
     Easy:
     4:
     :
0000
0000
0000
0000
,
0000
0000
0000
0000
,
0000
0000
0000
0000
,
0000
0000
0000
0000
,
0010
0000
0010
0001
,
1000
0100
1000
0100
,
0010
0001
0010
0001
,
1000
0100
1000
0100
,
0010
0001
0010
0001
,
0010
0010
0010
0100
,
0010
0010
0010
0100
,
1001
0001
0001
1001
,
0010
0010
1000
0100
,
0010
0010
0001
0100
,
0001
0001
1000
0100
,
1000
1000
0001
0100
,
0010
0010
0100
0010
,
0100
0100
0010
0100
,
1001
0110
1001
0110
,
1001
0000
0001
0001
,
0100
0100
0001
0010
,
0100
0100
1000
0010
,
1000
1000
0001
0010
,
0001
0001
1000
0010
,
0100
0100
0010
0010
,
1000
1000
0001
0001
,
0010
0001
1000
0100
,
0010
0100
0100
0001
,
1000
1000
0001
0100
,
0001
0001
1000
0100
,
1000
1000
0001
0100
,
0001
0001
1000
0100
,
0001
0001
1000
0100
,
1000
1000
0001
0100
,
1000
1000
0001
0100
,
0010
0010
0010
1001
,
0110
0110
0110
0010
,
1001
1001
1001
1000
,
0110
0110
0110
0100
,
1001
1001
1001
0001
,
0010
0010
0100
0100
,
0010
0100
0010
0010
,
0100
0001
0100
1000
,
1000
0100
0001
0001
,
1010
1010
1010
0110
,
0011
0011
0011
0110
,
1100
1100
1100
0110
,
0101
0101
0101
0110
,
0010
0010
0100
0100
,
0010
0100
0010
0010
,
1000
0100
0001
0001
,
0100
1000
1000
0000
;

//---------------dance-single - ----------------
#NOTES:
     dance-single:
     :
     Medium:
     5:
     :
0000
0000
0000
0000
,
0000
0000
0000
0000
,
0000
0000
0000
0000
,
0000
0000
0000
0000
,
0000
0000
0000
0000
,
0010
0010
0010
0010
,
0001
1000
0001
1000
,
0001
0001
0100
0100
,
1000
1000
0100
0100
,
0001
0100
0001
0100
,
1000
0100
1000
0100
,
1001
0000
0000
0000
,
1001
0000
0100
0000
0001
0100
0001
0000
,
1001
0000
0100
0000
1000
0100
1000
0000
,
1001
0000
0100
0000
0010
0001
0100
0000
,
1001
0000
0100
0000
0010
1000
0100
0000
,
1001
0100
1001
0010
,
1001
0100
1001
0010
,
0100
0100
0100
0100
,
1001
0000
0000
0000
,
0010
0000
0010
0000
1000
0100
1000
0000
,
0010
0000
0010
0000
0001
0100
0001
0000
,
0010
0000
0010
0000
1000
0100
1000
0000
,
0010
0000
0010
0000
0001
0100
0001
0000
,
0010
0010
0100
0100
,
0010
0010
0010
0010
,
0001
0100
1000
0100
,
0001
0100
1000
0100
,
0001
0000
0001
0000
0100
0001
0100
0000
,
1000
0000
1000
0000
0100
1000
0100
0000
,
0001
0000
0001
0000
0100
0001
0100
0000
,
1000
0000
1000
0000
0100
1000
0100
0000
,
0001
0001
0100
0000
,
1000
1000
0010
0010
,
1001
0000
0000
1001
0000
0000
1001
0000
,
0101
0000
1000
0000
0100
0100
0100
0000
,
1001
1001
1001
1001
,
0101
0000
1100
0000
0000
0001
0100
0000
,
1001
1001
1001
1001
,
1100
0000
0101
0000
0000
1000
0100
0000
,
0001
0101
1000
1100
,
0001
0000
0101
0000
0000
1000
0100
0000
,
0001
0001
0100
0100
,
1000
0100
1001
1001
,
0101
0101
1010
1010
,
1001
0000
1010
0000
0000
0100
0100
0000
,
1001
0101
1001
0101
,
1001
0000
0101
0000
0000
1000
1000
0000
,
0001
0001
1000
0001
,
0100
0000
0100
0100
,
0010
0010
0001
1000
,
1001
0000
0000
0000
0000
0000
0000
0000
0000
0000
0000
0000
0000
0000
0000
0000
0100
0000
0000
0000
0000
0000
0000
0000
0000
0000
0000
0000
0000
0000
0000
0000
0100
0000
0000
0000
0000
1000
0000
0000
0000
0000
0000
0100
0000
0000
0000
0000
1000
0000
0000
0000
0000
0000
0000
0000
0000
0000
0000
0000
0000
0000
0000
0000
;

//---------------dance-single - ----------------
#NOTES:
     dance-single:
     :
     Hard:
     7:
     :
0000
0000
0000
0000
,
0000
0000
0000
0000
,
0000
0000
0000
0000
,
0000
0000
0000
0000
,
0000
0000
0000
0000
,
1001
0101
1100
0101
,
0010
1000
0100
0001
0100
1000
0100
0000
,
1001
0101
1100
0101
,
0010
0010
1000
0000
0001
0001
0100
0000
,
1001
0110
0101
0011
,
1000
0001
0100
0010
0100
1000
0010
0000
,
1001
0000
0000
0000
,
1001
0000
1100
0000
0010
1000
0001
0100
,
0010
1000
0001
0100
0010
1000
0001
0000
,
1001
0000
0101
0000
0010
0001
1000
0100
,
0010
0001
1000
0100
0010
0001
1000
0000
,
0101
0000
1010
0000
0010
1000
0100
1000
,
0001
1000
0010
1000
0100
1000
0001
0000
,
1001
1001
0110
0011
,
1001
0000
0011
1001
,
0010
1000
0100
1000
0010
1000
0100
1000
,
0010
1000
0100
1000
0010
1000
0001
0000
,
0010
0001
0100
0001
0010
0001
0100
0001
,
0010
0001
0100
0001
0010
0001
1000
0000
,
0001
1000
0100
1000
0001
1000
0100
1000
,
0001
1000
0100
1000
0001
1000
0001
0000
,
1000
0001
0100
0001
1000
0001
0100
0001
,
1000
0001
0100
0001
1000
0001
1000
0000
,
1001
0000
0010
1000
0010
1000
0100
0000
,
1001
0000
0010
0001
0010
0001
0100
0000
,
1010
0000
0001
0100
0001
1000
0100
0000
,
0011
0000
1000
0100
1000
0001
0100
0000
,
0110
0000
0001
1000
0100
0010
0001
0000
,
0110
0000
1000
0001
0100
0010
1000
0000
,
0101
0000
0000
0011
0000
0000
1001
0000
,
1010
1000
0001
0100
0010
1000
0100
0000
,
1000
0010
0001
0010
1000
0010
0001
0010
,
1000
0010
0001
0010
0000
1000
0100
0010
,
0001
0100
1000
0100
0001
0100
1000
0100
,
0001
0100
1000
0100
0000
0001
0010
0100
,
0010
0010
0001
0001
1000
1000
0100
0100
,
0010
0010
0001
0001
0000
1000
0001
0100
,
0101
0000
0000
1001
0000
0010
1001
0000
,
0010
1000
0100
0000
1001
0000
0101
0000
,
0010
1000
0100
1000
0010
0100
0001
0010
,
0001
0100
0001
0010
0000
0001
1000
0100
,
0010
0001
0100
0001
0010
0100
1000
0010
,
1000
0100
1000
0010
0000
1000
0001
0100
,
0001
1000
0100
1000
0000
0001
0100
0001
,
0100
0000
0100
0000
0001
1000
0100
0010
,
0001
0000
0001
0000
0001
1000
0001
0100
,
0000
0000
0000
0000
0000
0000
0000
0000
0000
0000
0000
0000
0000
0000
0000
0000
0100
0000
0000
0000
0000
0000
0000
0000
0000
0000
0000
0000
0000
0000
0000
0000
0001
0000
0000
0000
0000
1000
0000
0000
0000
0000
0000
0001
0000
0000
0000
0000
0100
0000
0000
0000
0000
0000
0000
0000
0000
0000
0000
0000
0000
0000
0000
0000
;

//---------------dance-double - ----------------
#NOTES:
     dance-double:
     :
     Easy:
     3:
     :
00000000
00000000
00000000
00000000
,
00000000
00000000
00000000
00000000
,
00000000
00000000
00000000
00000000
,
00000000
00000000
00000000
00000000
,
00000000
00000000
00000000
00000000
,
10000000
00000000
00000000
00000000
,
00001000
00000000
00000000
00000000
,
00000001
00000000
00000000
00000000
,
00010000
00000000
00000000
00000000
,
01000000
01000000
01000000
01000000
,
00100000
00100000
00100000
00100000
,
10010000
00000000
01000000
10010000
,
10000000
01000000
00100000
00010000
,
00001000
00000100
00000010
00000001
,
00000001
00000010
00000100
00001000
,
00010000
00100000
01000000
10000000
,
01000000
01000000
10000000
00010000
,
00100000
00100000
10000000
00010000
,
01000000
00000000
00010000
00001000
,
00000100
00000000
00000000
00001001
,
00000001
00000010
00000100
00001000
,
00010000
00100000
01000000
10000000
,
10000000
01000000
00100000
00010000
,
00001000
00000100
00000010
00000001
,
00001000
00001000
00000001
00000001
,
00000010
00000010
00000100
00000100
,
00001000
00000000
00010000
00000000
,
00100000
00000000
10000000
10010000
,
00010000
00010000
01000000
01000000
,
00001000
00011000
00000100
00001001
,
00000010
00000010
00001000
00001000
,
00000100
00000110
00010000
00011000
,
01000000
01000000
10000000
10000000
,
00010000
00000000
00010000
10010000
,
01000000
01100000
00100000
01100000
,
10010000
10010000
10010000
10000000
,
10000000
00100000
00010000
00001000
,
00000100
00000010
00000001
00000001
,
00000001
00000100
00001000
00010000
,
00100000
01000000
10000000
10000000
,
00100000
00100000
00100000
00100000
,
00100000
00100000
00100000
00100000
,
10000000
00000000
00010000
00000000
,
00001000
00000000
00000001
00001001
,
00000001
00000100
00001000
00010000
,
00100000
01000000
10000000
10000000
,
10000000
00100000
00010000
00001000
,
00000100
00000010
00000001
00000001
,
00001000
00001001
00000001
00001001
,
00000100
00000100
00000100
00000110
,
00001000
00011000
00010000
10010000
,
01000000
01000000
01100000
00000000
;

//---------------dance-double - ----------------
#NOTES:
     dance-double:
     :
     Medium:
     5:
     :
00000000
00000000
00000000
00000000
,
00000000
00000000
00000000
00000000
,
00000000
00000000
00000000
00000000
,
00000000
00000000
00000000
00000000
,
00000000
00000000
00000000
00000000
,
00001000
00000100
00000001
00001000
,
00010000
01000000
10000000
00010000
,
00001000
00000100
00000001
00001000
,
00010000
01000000
10000000
00010000
,
00001000
00001000
00000100
00000100
,
00010000
00010000
01000000
01000000
,
00001000
00001000
01000000
10000000
,
00100000
10010000
00100000
10010000
,
00100000
10000000
01000000
00010000
,
00110000
00101000
00011000
00010010
,
00001000
00000100
00000001
00000010
,
00000010
00001000
00000010
00000001
,
00000001
00000100
00000010
00000010
,
00001000
00001000
00010000
00010000
,
01100000
10000000
01000000
00010000
,
10010000
01000000
00100000
00100000
,
01010000
01001000
00011000
00101000
,
00010000
00001000
00000100
00000010
,
00000110
00000001
00000100
00001000
,
00000010
00000001
00000010
00000001
,
00000100
00001000
00010000
01100000
,
00100000
10010000
10000000
10000000
,
00010000
00010000
00100000
01000000
,
10000000
00100000
01000000
00010000
,
01001000
00010000
00010010
00001000
,
00000001
00000010
00000100
00000010
,
00000001
00000100
00001001
00001000
,
00001000
00000100
00000100
00000010
,
00010010
00001000
00101000
00010000
,
10000000
01000000
00100000
01000000
,
00100000
10000000
00100000
10010000
,
00010000
00010000
00010000
00010000
,
00100000
00100000
00100000
00100000
,
10000000
10000000
10000000
10000000
,
01000000
01000000
01000000
01000000
,
00010000
00010000
00001000
00001000
,
00000010
00000010
00000001
00001000
,
00000001
00001100
00000010
00010010
,
00001000
00000100
00000001
00000001
,
00000100
00001000
00010000
00100000
,
10000000
00010000
01000000
00000000
00010000
10000000
01000000
00000000
,
01000000
00010000
00001000
00000010
,
00000001
00001000
00000100
00000000
00001000
00000001
00000100
00000000
,
00000100
00001000
00010000
00000000
01100000
00000000
10000000
00000000
,
00100000
01000000
00010000
00000000
00100000
01000000
10000000
00000000
,
00110000
00000000
10000000
00000000
01000000
00010000
00001000
00000000
,
00000100
00000001
00001000
00001000
;

//---------------dance-double - ----------------
#NOTES:
     dance-double:
     :
     Hard:
     7:
     :
00000000
00000000
00000000
00000000
,
00000000
00000000
00000000
00000000
,
00000000
00000000
00000000
00000000
,
00000000
00000000
00000000
00000000
,
00000000
00000000
00000000
00000000
,
10000000
01000000
10000000
01000000
10000000
01000000
10000000
00010000
,
01000000
00010000
01000000
00010000
01000000
00010000
01000000
00000000
,
01001000
00011000
01001000
00011000
,
00010100
00011000
00010100
00001100
,
00000001
00000100
00000001
00000100
00000001
00000100
00000001
00001000
,
00000100
00001000
00000100
00001000
00000100
00001000
00000100
00000000
,
00000001
00001000
00000100
00000000
00001000
00000001
00000100
00000000
,
00000010
00000001
00000010
00000000
00000100
00001000
00000100
00000000
,
00010100
00000000
00011000
00000000
01000000
00001000
00010000
00000000
,
00010000
01000000
10000000
00000000
00010000
01000000
10000000
00000000
,
01100000
00000000
10010000
00000000
00100000
01000000
00010000
00000000
,
10000000
00100000
00010000
00000000
00100000
00010000
00001000
00000000
,
00010010
00000000
00001010
00000000
00000100
00001000
00000010
00000000
,
00000010
00001000
00000001
00000000
00001000
00000001
00000100
00000000
,
00001001
00000000
00000110
00000000
00001000
00010000
01000000
00000000
,
00100000
00010000
01000000
00000000
00010000
01000000
00100000
00000000
,
10000000
00000000
01000000
00000000
00010000
10000000
01000000
00000000
,
00100000
00010000
00001000
00000000
00000010
00010000
00001000
00000000
,
00000100
00000000
00000110
00000000
00001000
00000010
00000001
00000000
,
00001000
00000100
00000010
00000000
00000100
00000010
00000001
00000000
,
00000110
00000000
00001000
00000000
00010000
01000000
10000000
00000000
,
00100000
00010000
10000000
00000000
00100000
00010000
01000000
00000000
,
10000000
10000000
01000000
00010000
,
10000000
01000000
00100000
00000000
01000000
00100000
00010000
00000000
,
00100000
00001000
00010000
00000000
01000000
00010000
00001000
00000000
,
00000100
00001000
00010000
00000000
00000010
00010000
00001000
00000000
,
00001000
00000100
00000010
00000000
00000100
00000010
00000001
00000000
,
00000001
00000010
00001000
00000000
00000001
00000010
00001000
00000000
,
00000001
00000100
00001000
00000000
00000100
00001000
00010000
00000000
,
00001000
00010000
01000000
00000000
00010000
01000000
10000000
00000000
,
10000000
00100000
00010000
00000000
10000000
00100000
00010000
00000000
,
10000000
01000000
10000000
01000000
00010000
01000000
00010000
00000000
,
01100000
00010000
00001000
00000100
,
00000001
00000100
00000001
00000100
00001000
00000100
00001000
00000000
,
00000110
00001000
00010000
01000000
,
00100000
00010000
10000000
00100000
01000000
00010000
10000000
00000000
,
00100000
00100000
01000000
00010000
,
01010000
10000000
11000000
00010000
,
00100000
00100000
00100000
00100000
,
00100000
00010000
01000000
00010000
00100000
00010000
01000000
00000000
,
00100000
00010000
00001000
00000000
00001000
00000100
00000001
00000000
,
00000010
00001000
00000100
00001000
00000010
00001000
00000100
00000000
,
00000010
00001000
00010000
00000000
00010000
01000000
10000000
00000000
,
00110000
10000000
10100000
00010000
,
00100000
00010000
01000000
00000000
00100000
10000000
01000000
00000000
,
10000000
01000000
00010000
00000000
10000000
01000000
00010000
00000000
,
00001000
00000100
00000001
00000101
;
