
//----- song ID: oper -----//
#TITLE:OPERATOR;
#ARTIST:PAPAYA;
#BANNER:OPERATOR.png;
#BACKGROUND:OPERATOR-bg.png;
#CDTITLE:./CDTITLES/DANCEMANIA 13.PNG;
#MUSIC:OPERATOR.ogg;
#SAMPLESTART:58.678;
#SAMPLELENGTH:15;
#DISPLAYBPM:135;
#BPMS:0=134.975;

//---------------dance-single - ----------------
#NOTES:
     dance-single:
     :
     Easy:
     3:
     :
0000
0000
0000
0000
,
0000
0000
0000
0000
,
0000
0000
0000
0000
,
0000
0000
0000
0000
,
0000
0000
0000
0000
,
1000
0001
0001
0001
,
1000
0000
0000
1001
,
0010
0100
0010
0100
,
1000
0100
1000
0000
,
0001
1000
1000
1000
,
1000
0001
0000
0110
,
0001
1000
0001
1000
,
0001
0010
0001
0000
,
0010
0010
0010
0010
,
0001
1000
0000
1001
,
0010
0100
0001
1000
,
0010
0010
0100
0000
,
0000
0001
0001
0001
,
1000
1000
1000
0000
,
1000
0100
1000
0100
,
1000
0001
0000
0000
,
0000
1000
1000
1000
,
0001
0001
0001
0000
,
0001
0010
0001
0010
,
0001
0010
1000
0000
,
0010
0100
0001
0001
,
1000
0000
0001
0000
,
1000
0100
0010
0001
,
0001
0000
0000
0000
,
0010
0100
1000
1000
,
0001
0000
1000
0000
,
0001
0010
0100
1000
,
1000
0010
0110
0100
,
1000
0001
0001
0001
,
0100
1000
0000
1001
,
0010
0010
0001
0001
,
0010
0001
0100
0000
,
0010
1000
1000
1000
,
0010
0001
0000
0110
,
1000
0001
0010
0100
,
0010
1000
0100
0000
,
0100
0010
0010
0010
,
0001
0100
0000
1001
,
0010
0010
0100
0100
,
1001
0000
1001
0000
,
0010
0100
0100
0100
,
1000
0100
0000
0110
,
1000
0100
0010
0001
,
0010
0000
1000
0000
,
0010
0000
0000
0000
;

//---------------dance-single - ----------------
#NOTES:
     dance-single:
     :
     Medium:
     5:
     :
0000
0000
0000
0000
,
0000
0000
0000
0000
,
0000
0000
0000
0000
,
0000
0000
0000
0000
,
0000
0000
0000
0000
,
1000
0001
0100
0001
,
1100
0000
0010
0010
,
1000
1000
0001
0001
,
0010
1000
0001
0100
0010
0000
0000
0000
,
0001
1000
0100
1000
,
0101
0000
0010
0010
,
0001
0010
0100
1000
,
0010
1000
0001
0100
0010
0000
0000
0000
,
1000
0001
0100
0001
,
1100
0000
0010
0010
,
1000
0100
0010
0001
,
0001
0001
1000
1000
0000
0000
0110
0000
,
1000
0010
1000
0001
,
0001
0000
0010
0000
1000
0001
1000
0000
,
1000
0010
1000
0001
,
0001
0000
0010
0000
0001
1000
0001
0000
,
1000
0010
1000
0001
,
0001
0000
0010
0000
1000
0001
1000
0000
,
0101
1100
0011
1010
,
0110
0000
1001
0000
,
0001
0010
0001
0010
0001
0000
0110
0000
,
1010
0000
0101
0000
,
0010
0100
0001
0001
,
0010
0000
0100
0000
,
1000
0100
1000
0100
1000
0000
0110
0000
,
0011
0000
1100
0000
,
1000
1000
0001
0001
0010
0000
0100
0000
,
1000
0001
1000
0001
1000
0001
1000
0000
,
1000
0001
0100
0001
,
1100
0000
0010
0010
,
1000
0100
0001
0100
,
1000
0100
0010
0001
,
1000
0001
0100
0001
,
1100
0000
0010
0010
,
1000
0100
0001
0100
,
0001
0000
1000
0100
1000
0000
0001
0000
,
0010
0100
0010
0000
1000
0000
0001
0000
,
0110
0000
0100
0100
,
1000
0100
0001
0100
,
0001
0000
0100
0000
1000
0010
0100
0000
,
0001
0000
1000
0100
1000
0000
0001
0000
,
0010
0100
0010
0000
1000
0000
0001
0000
,
0010
0000
0100
0000
0010
0100
0001
0000
,
1100
0000
0110
0000
,
0011
0000
0000
0000
;

//---------------dance-single - ----------------
#NOTES:
     dance-single:
     :
     Hard:
     7:
     :
0000
0000
0000
0000
,
0000
0000
0000
0000
,
0000
0000
0000
0000
,
0000
0000
0000
0000
,
0000
0000
0000
0000
,
0010
0100
0010
1000
0001
1000
0001
0000
,
0010
0100
0010
0000
1100
0000
0011
0000
,
1000
0100
0010
0100
0010
0001
0010
0000
,
0100
0000
0011
0000
1010
0000
0101
0100
,
0010
0100
0010
0100
1000
0001
1000
0001
,
0010
0100
0010
0000
0011
0000
1100
0000
,
0001
0010
0100
0010
0100
1000
0100
0000
,
0100
0011
1010
0101
,
1100
0000
0110
0000
0011
0000
0100
0110
,
0100
0000
0110
0000
0010
0010
0100
0000
,
1000
1000
0001
0001
0110
1000
0001
0000
,
0010
0100
0010
1001
0010
0100
0010
0000
,
1000
0000
0100
1000
0100
1000
0100
0000
,
0001
0000
0100
0001
0100
0001
0100
0000
,
0011
1100
0110
0110
,
1000
1000
0001
0001
0100
1000
0100
0000
,
1000
1000
0100
0010
0001
0001
0100
0000
,
0001
1000
0001
0100
1000
0001
1000
1000
,
0001
1000
0010
0100
0001
1000
0100
0000
,
1100
0000
0110
0000
0101
0000
0110
0100
,
1000
0100
0010
0100
0001
0100
0010
0100
,
1000
0000
1001
0000
0110
0000
1000
0100
,
1000
0001
0100
0010
1000
0001
0100
0000
,
0010
0000
0100
0000
0010
0000
0100
1000
,
0100
0010
0100
0001
0100
1000
0100
0010
,
0100
0000
0110
0000
0011
0000
1000
0100
,
1000
0100
0010
0001
1000
0100
0010
0000
,
0001
0010
0100
1000
0001
0010
0100
0000
,
0001
1000
0001
0010
0100
0010
0100
0001
,
0010
0100
0010
0000
0100
0010
0100
0000
,
0010
0001
0010
0001
1000
0001
1100
0000
,
0100
0010
0100
0001
1100
0100
0100
0000
,
1000
0100
1000
0100
0001
0100
0001
0010
,
0100
0010
0100
0000
1100
0110
0011
0000
,
0010
0100
0001
1000
0100
0010
0100
0000
,
0010
0000
0100
0000
1010
0001
1010
0000
,
0001
0100
1000
0100
0110
0000
1001
0000
,
0110
1000
0001
1000
,
1000
0100
0010
0001
0100
0010
1000
0000
,
0011
0001
1000
0001
1010
1000
0001
0000
,
0001
0100
1000
0100
0110
0000
1001
0000
,
0110
0001
1000
0001
,
1000
0010
1000
0010
0100
1100
0011
0000
,
1100
0000
0110
0000
,
0011
0000
0000
0000
;

//---------------dance-single - ----------------
#NOTES:
     dance-single:
     :
     Challenge:
     8:
     :
0000
0000
0000
0000
,
0000
0000
0000
0000
,
0000
0000
0000
0000
,
0000
0000
0000
0000
,
0000
0000
0000
0000
,
1000
0010
0100
0010
1000
0000
0001
0101
,
0000
1001
0000
0000
0000
0001
0010
0100
,
1000
0000
0010
0100
0010
1000
0100
0010
,
0001
0010
0100
1000
0010
0000
0011
0000
,
0010
0100
1000
0001
0100
0000
0010
1010
,
0000
0110
0100
0001
0000
0010
1000
0010
,
1001
0000
0100
0001
1000
0010
0001
1000
,
0100
0010
1000
0001
0010
0000
1100
0000
,
0001
0100
0010
0100
0001
0000
0010
0100
,
0000
1001
0110
1001
0000
1000
0100
0010
,
0001
0000
1000
0100
0010
0100
0010
0001
,
0010
0100
0010
0100
1000
0000
1000
1000
,
0000
1000
0001
0010
0001
0000
0010
0100
,
0001
0100
0010
0100
0000
0000
0000
0010
,
0011
0000
0100
1100
0000
0010
0001
0100
,
0010
1000
0100
0000
1010
0000
0011
0000
,
0000
1000
0100
0010
0001
0000
0100
0010
,
1000
0100
0010
0001
0000
0000
0000
0110
,
0000
0000
1000
0001
0010
0000
0010
0000
1000
0000
0010
0000
0001
0000
0000
0000
,
1000
0100
1000
0000
0010
0000
0100
0000
0000
0000
0000
0000
0000
0000
1000
0001
,
0000
0000
0100
0000
0000
0000
1100
0000
0000
0000
0100
0000
1000
0000
0010
1000
,
0001
0110
1100
0101
,
1000
0100
0100
0000
0010
0001
0010
0100
,
1000
0000
0100
0000
0010
0000
0000
0000
1001
0000
0110
0000
0000
0000
1000
0010
,
0000
0000
1000
0000
0000
0000
0011
0000
0000
0000
0001
0000
0010
0000
0100
1000
,
0100
0001
0010
1000
,
0010
0001
0010
1000
0010
0000
1001
0100
,
0000
1000
0100
0010
0001
0100
0010
0000
,
1001
0010
0011
0000
1100
0000
0010
0100
,
1001
0000
0000
0000
1000
0000
0000
0000
0010
1000
0100
0000
0001
0000
1000
0000
,
1100
0000
0001
0010
0001
0000
1000
0000
0001
0100
0001
0000
1000
0000
0001
0000
,
1000
0100
0010
0001
0110
0000
0000
0000
,
1100
0000
0001
0000
0010
0000
0100
0000
1000
0100
1000
0100
1000
0000
0001
0000
,
0011
0000
1010
0000
0101
0001
0010
0100
,
1001
0000
0001
1000
0010
0000
0100
0000
0001
1000
0001
1000
0010
0000
0100
0000
,
0001
0100
0010
1000
0100
0000
0000
0000
,
1000
0100
0001
0100
1000
0000
0001
0100
,
1000
0100
0001
0000
0000
1000
0010
0010
,
0001
0000
0100
0010
1000
0001
0000
0000
,
0001
0011
0000
0000
1000
1100
0000
0000
,
1001
0010
0100
0010
1000
0000
0110
1000
,
0001
1000
0010
0000
0000
1000
0100
1000
,
0001
0000
1000
0010
0100
0101
0000
0000
,
0100
1100
0000
0000
0110
1001
0000
0000
,
0100
0000
0000
0000
;

//---------------dance-double - ----------------
#NOTES:
     dance-double:
     :
     Easy:
     4:
     :
00000000
00000000
00000000
00000000
,
00000000
00000000
00000000
00000000
,
00000000
00000000
00000000
00000000
,
00000000
00000000
00000000
00000000
,
00000000
00000000
00000000
00000000
,
00100000
00010000
10000000
00010000
,
00011000
00000000
00000000
00000100
,
00001000
00000001
00001000
00000001
,
00001000
00000100
00000010
00000000
,
00000010
00001000
00000001
00001000
,
00011000
00000000
00000000
01000000
,
00010000
10000000
00010000
10000000
,
00010000
00100000
01000000
00000000
,
00010000
00001000
00010000
00001000
,
00010000
00011000
00000000
00011000
,
00100000
01000000
00010000
00001000
,
00000010
00000100
00011000
00000000
,
00000000
10000000
01000000
00100000
,
10000000
01000000
00100000
00000000
,
00100000
00001000
00100000
00001000
,
01000000
00001000
00000000
00000000
,
00000000
00000001
00000010
00000100
,
00000001
00000010
00000100
00000000
,
00000010
00010000
00000010
00010000
,
00000100
00010000
00001000
00010000
,
00000010
00000100
00001000
00001000
,
00010000
00000000
01000000
00000000
,
10000000
01000000
00100000
00010000
,
00011000
00000000
00010000
00010000
,
00100000
01000000
00010000
00010000
,
00001000
00000000
00000100
00000000
,
00000001
00000010
00000100
00001000
,
00011000
00000000
00001000
00001000
,
00100000
00010000
10000000
00010000
,
00011000
00000000
00000000
00000100
,
00001000
00000001
00001000
00000001
,
00001000
00000100
00000010
00000000
,
00000010
00001000
00000001
00001000
,
00011000
00000000
00000000
01000000
,
00010000
10000000
00010000
10000000
,
00010000
00100000
01000000
00000000
,
10000000
01000000
00100000
00010000
,
00010000
01100000
00000000
01000000
,
10000000
00010000
10000000
00010000
,
00001000
00000000
00000000
00000000
,
00000001
00000010
00000100
00001000
,
00001000
00000110
00000000
00000100
,
00000001
00001000
00000001
00001000
,
00010000
00000000
10000000
00000000
,
00100000
00000000
00000000
00000000
;

//---------------dance-double - ----------------
#NOTES:
     dance-double:
     :
     Medium:
     5:
     :
00000000
00000000
00000000
00000000
,
00000000
00000000
00000000
00000000
,
00000000
00000000
00000000
00000000
,
00000000
00000000
00000000
00000000
,
00000000
00000000
00000000
00000000
,
10000000
00100000
01000000
00000000
00010000
00000000
00001000
00000000
,
00000010
00001000
00000001
00001001
,
00000001
00001000
00000010
00001000
,
00011000
00011000
00011000
10010000
,
10000000
00100000
01000000
00000000
00010000
00000000
00001000
00000000
,
00000010
00001000
00000001
00001001
,
00010000
00001000
00010000
00001000
00010000
00001000
00010000
00000000
,
00001000
00000100
00000010
00001000
,
00000010
00001000
00000100
00000000
00001000
00000000
00010000
00000000
,
00100000
01000000
00100000
00000000
00010000
00000000
10000000
00000000
,
00010000
00001000
00010000
00001000
00010000
00000000
00011000
00000000
,
00001000
00010000
00001000
00000000
00011000
00000000
00011000
00000000
,
00010000
00001000
00000001
00001000
,
00010000
00000000
10000000
00000000
00010000
10000000
00010000
00000000
,
00001000
00000001
00001000
00010000
,
10000000
00000000
00010000
00000000
00001000
00010000
00001000
00000000
,
00000001
00001000
00010000
10000000
,
00010000
00000000
00001000
00000000
00000001
00001000
00000001
00000000
,
00000010
00001000
00000100
00010000
00001000
00000000
00100000
00000000
,
00010000
00010000
00001000
00011000
,
00010000
00100000
01000000
00100000
10000000
00000000
01000000
00000000
,
10000000
00000000
00010000
00000000
,
00010000
00001000
00010000
00000000
00001000
00000000
00000010
00000000
,
00000100
00000000
00000010
00000000
00000100
00000010
00000100
00000000
,
00000010
00000100
00000001
00000100
00000001
00000000
00000100
00000000
,
00000010
00000000
00000100
00000000
,
00000010
00000001
00000001
00000100
,
00010000
00001000
00010000
00001000
00010000
00000000
00000000
00000000
,
10000000
00100000
01000000
00000000
00010000
00000000
00001000
00000000
,
00000010
00001000
00000001
00001001
,
00000001
00001000
00000001
00001000
00000100
00000000
00001000
00000000
,
00010000
10000000
00010000
10000000
,
10000000
00100000
01000000
00000000
00010000
00000000
00001000
00000000
,
00000010
00001000
00000001
00001001
,
00000010
00000001
00001000
00000100
00010000
00000000
00001000
00000000
,
00010000
01000000
00010000
00001000
,
00000010
00000100
00000010
00000000
00000001
00000000
00001000
00000000
,
00010000
10000000
10000000
00100000
,
10000000
00010000
10000000
00010000
10000000
00010000
10000000
00000000
,
10000000
01000000
10000000
01000000
,
00010000
10000000
01000000
10000000
,
00010000
00010000
00100000
00010000
,
00001000
00010000
00001000
00010000
00001000
00010000
00001000
00000000
,
00010000
00001000
00000010
00000100
,
00001001
00000000
00000000
00000000
;

//---------------dance-double - ----------------
#NOTES:
     dance-double:
     :
     Hard:
     8:
     :
00000000
00000000
00000000
00000000
,
00000000
00000000
00000000
00000000
,
00000000
00000000
00000000
00000000
,
00000000
00000000
00000000
00000000
,
00000000
00000000
00000000
00000000
,
00011000
00000000
00000000
00000000
,
00000000
00000000
00000000
00000000
,
00000000
00000000
00000000
00000000
,
00000001
00001000
00000001
00001000
00010000
10000000
00100000
01000000
,
00100000
10000000
01000000
00010000
00001000
00000010
00000100
00000000
,
00000001
00000000
00001000
00000000
00000010
00000100
00000010
00000000
,
00000001
00001000
00010000
10000000
00100000
01000000
00100000
00000000
,
10000000
00000000
00010000
00000000
00001000
00000000
00000001
00000100
,
00000010
00001000
00000100
00010000
00001000
00010000
00001000
00000000
,
01000000
00000000
00100000
00000000
01000000
00100000
01000000
00000000
,
00001000
00000000
00010000
00000000
,
00001000
00000000
00010000
00000000
00100000
01000000
00010000
00000000
,
00100000
01000000
00100000
00000000
00001000
00010000
00001000
00000000
,
00000010
00000100
00000010
00000000
00010000
00001000
00010000
00000000
,
00100000
01000000
00100000
00000000
00001000
00010000
00001000
00000000
,
00000010
00000100
00000010
00000000
00010000
00001000
00010000
00000000
,
10000000
00010000
10000000
00000000
00010000
00001000
00010000
00000000
,
00001000
00000001
00001000
00000000
00010000
00001000
00010000
00000000
,
10000000
00010000
00100000
01000000
10000000
00010000
01000000
00000000
,
00100000
01000000
00010000
00001000
00000001
00001000
00010000
00100000
,
01000000
10000000
01000000
00010000
00001000
00000001
00001000
00000000
,
00001001
00000000
00011000
00000000
,
00000010
00000000
00001000
00000100
00010000
00000000
00011000
00000000
,
10000000
00000000
00010000
00000000
10000000
00000000
00010000
00100000
,
00010000
10000000
01000000
00010000
00001000
00000010
00000001
00000000
,
00001001
00000000
00011000
00000000
,
10000000
00100000
01000000
00010000
00001000
00000010
00000100
00000001
,
00000100
00000010
00001000
00010000
01000000
00000000
00000000
00000000
,
00100000
10000000
00010000
00001000
00000010
00000100
00000001
00000010
,
00000100
00001000
00000100
00010000
00001000
01000000
00010000
00000000
,
10000000
10000000
00010000
00100000
01000000
00010000
00001000
00000000
,
00000010
00000100
00001000
00000001
00000100
00001000
00010000
00000000
,
00001000
00000010
00000100
00001000
00000100
00010000
00001000
00000000
,
00010000
00100000
01000000
10000000
,
00100000
00100000
10000000
10000000
01000000
01000000
00010000
00000000
,
00001000
00001000
00000100
00000100
00000100
00000000
00011000
00000000
,
00100000
01000000
00100000
01000000
00010000
00001000
00000100
00000000
,
00000010
00000100
00001000
00000000
,
00100000
01000000
00001000
01000000
00100000
01000000
00010000
01000000
,
00001000
01000000
00100000
01000000
00010000
01000000
00001000
00000000
,
00000100
00001000
00000100
00001000
,
00000110
00000000
00000000
00000000
,
00001000
00000100
00010000
00000100
00000010
00000100
00001000
00000100
,
00010000
00000100
00000010
00000100
00001000
00000100
00010000
00000000
,
00000110
00000000
00000000
00000000
;

//---------------dance-couple - ----------------
#NOTES:
     dance-couple:
     :
     Challenge:
     7:
     :
00000000
00000000
00000000
00000000
,
00000000
00000000
00000000
00000000
,
00000000
00000000
00000000
00000000
,
00000000
00000000
00000000
00000000
,
00000000
00000000
00000000
00000000
,
10011001
00000000
00000000
00000000
,
10011001
00000000
00000000
00000000
,
10011001
00000000
10011001
00000000
,
10011001
10011001
10011001
10011001
,
00000001
10001000
00000100
10001000
,
00000101
10000000
00000010
10000010
,
00000001
10000010
00000100
10001000
,
00000010
00001000
10000001
00000100
00000010
00000000
10000000
00000000
,
00010000
10000001
01000000
10000001
,
01010000
00000001
00100000
00100001
,
00010000
00100001
01000000
10000001
,
00100000
10000000
00010001
01000000
00100000
00000000
00000001
00000000
,
00001000
00000000
00000100
00001000
00000100
00001000
10000100
00000000
,
00000001
00000000
00000100
00000001
00000100
00000001
10000100
00000000
,
00000011
00000000
00001100
00000000
00001000
00000001
10000100
00000000
,
00001010
00000000
00000101
00000000
00000001
00001000
10000100
00000000
,
10000000
00000000
01000000
10000000
01000000
10000000
01000001
00000000
,
00010000
00000000
01000000
00010000
01000000
00010000
01000001
00000000
,
00110000
00000000
11000000
00000000
10000000
00010000
01000001
00000000
,
10100000
00000000
01010000
00000000
00010000
10000000
01000001
00000000
,
10000001
00000010
01000001
00000010
00010001
00000000
01000110
00000000
,
10001010
01000000
00010101
01000000
,
10000010
01000100
00010001
01000001
,
10000010
01000000
00010100
01000000
,
00011000
00100000
00010100
00100000
00010001
00000000
01100100
00000000
,
10101000
00000100
01010001
00000100
,
00101000
01000100
00010001
00010100
,
00101000
00000100
01000001
00000100
,
00010000
10000000
00010001
00100000
01000000
00100000
01000001
00000000
,
00100000
01000000
00100001
00000000
01000000
00100000
01000001
00000000
,
00100000
00010000
00100001
00010000
10000000
00010000
01000001
00000000
,
01000000
00100000
01000001
00010000
10000000
01000000
01000001
00000000
,
00000001
00001000
10000001
00000010
00000100
00000010
10000100
00000000
,
00000010
00000100
10000010
00000000
00000100
00000010
10000100
00000000
,
00000010
00000001
10000010
00000001
00001000
00000001
10000100
00000000
,
00000100
00000010
10000100
00000001
00001000
00000100
10000100
00000000
,
00100010
01000100
00100010
00000000
10001000
00000000
01000100
00000000
,
00010001
01000100
10001000
01000100
,
10000000
01000000
00100000
00010000
01000000
00100000
10000000
00000000
,
00001000
00000100
00000010
00000001
00000100
00000010
00001000
00000000
,
00100010
01000100
00100010
00000000
10001000
00000000
01000100
00000000
,
00010001
01000100
10001000
01000100
,
00001000
00000010
00001000
00000010
00000100
00000001
00000001
00000000
,
10000000
00100000
10000000
00100000
01000000
00010000
00010000
00000000
,
01000100
00000000
00000000
00000000
;

//---------------dance-solo - ----------------
#NOTES:
     dance-solo:
     :
     Easy:
     3:
     :
000000
000000
000000
000000
,
000000
000000
000000
000000
,
000000
000000
000000
000000
,
000000
000000
000000
000000
,
000000
000000
000000
000000
,
010000
000001
000001
000001
,
100000
000000
000000
000010
,
001000
000100
001000
000100
,
100000
000001
100000
000001
,
100000
000010
000010
000010
,
100000
000000
000000
000001
,
001000
000010
001000
000010
,
010000
001000
010000
000000
,
000001
000001
000001
000001
,
001000
000100
000000
100001
,
001000
000010
000010
100000
,
000100
000100
001000
000000
,
000000
000010
000000
000010
,
000000
010000
000000
010000
,
000100
001000
000100
001000
,
000001
100000
000000
000000
,
000000
000010
000010
000010
,
100000
100000
100000
000000
,
000100
000001
000100
000001
,
010000
010000
000001
000000
,
100000
000100
001000
000001
,
100000
000000
000010
000000
,
100000
001000
000100
000001
,
010000
000000
000000
000000
,
000100
100000
000001
000001
,
001000
000000
000100
000000
,
010000
010000
000001
100000
,
000100
001000
000010
100000
,
000001
001000
001000
001000
,
000010
100000
000000
000001
,
001000
001000
000100
000100
,
100000
000010
001000
000000
,
000000
100000
100000
100000
,
001000
000010
000000
010000
,
000001
000001
001000
000100
,
100000
001000
000001
000000
,
010000
000001
100000
000010
,
001000
000001
000000
010000
,
000100
000100
001000
001000
,
000010
000000
100000
000000
,
000100
001000
000001
000001
,
100000
001000
000000
000001
,
100000
001000
000100
000001
,
000100
000000
100000
000000
,
001000
000000
000000
000000
;

//---------------dance-solo - ----------------
#NOTES:
     dance-solo:
     :
     Medium:
     5:
     :
000000
000000
000000
000000
,
000000
000000
000000
000000
,
000000
000000
000000
000000
,
000000
000000
000000
000000
,
000000
000000
000000
000000
,
001000
000001
010000
000100
,
100100
000000
000010
000010
,
100000
100000
000001
000001
,
000100
100000
000010
001000
000010
000000
000000
000000
,
000001
100000
000100
001000
,
001010
000000
100000
100000
,
000001
000100
001000
100000
,
000100
010000
000001
010000
001000
000000
000000
000000
,
100000
000001
100000
000001
,
001100
000000
000001
000001
,
100000
001000
000100
000001
,
001000
001000
000000
000000
000000
000000
100001
000000
,
001000
000100
001000
000100
,
010000
000000
000001
000000
100000
000010
100000
000000
,
000100
001000
000100
100000
,
000001
000000
000100
000000
000001
010000
000001
000000
,
100000
000100
100000
000001
,
001000
000000
000001
000000
100000
000010
100000
000000
,
000110
010100
000110
010100
,
100001
000000
001100
000000
,
100000
010000
100000
010000
100000
000000
000001
000000
,
001100
000000
100001
000000
,
001000
000100
100000
100000
,
000010
000000
001000
000000
,
000001
000010
000001
000010
000001
000000
100000
000000
,
000100
000000
001010
000000
,
100000
100000
000001
000001
001000
000000
000100
000000
,
010000
000001
010000
000001
010000
000001
010000
000000
,
010000
000000
000001
001000
,
001010
000000
100000
100000
,
000001
001000
000100
100000
,
000100
100000
000001
001000
,
000001
000100
001000
100000
,
100010
000000
000001
000001
,
100000
001000
000001
001000
,
000100
000000
001000
000100
001000
000000
000001
000000
,
100000
000000
100000
000001
100000
000000
000100
000000
,
001100
000000
100000
000001
,
001000
000001
001000
100000
,
000010
000000
000010
000000
100000
000001
100000
000000
,
000100
000000
010000
000001
010000
000000
000001
000000
,
100000
000010
100000
000000
000010
000000
001000
000000
,
000100
000000
001000
000000
000001
100000
000100
000000
,
010100
000000
001010
000000
,
100001
000000
000000
000000
;

//---------------dance-solo - ----------------
#NOTES:
     dance-solo:
     :
     Hard:
     7:
     :
000000
000000
000000
000000
,
000000
000000
000000
000000
,
000000
000000
000000
000000
,
000000
000000
000000
000000
,
000000
000000
000000
000000
,
001000
000100
001000
000000
000010
000010
010000
000000
,
000001
100000
000001
000000
000011
000000
000101
000000
,
001000
000100
001000
000010
000010
100000
000001
000000
,
001000
000010
100100
010000
,
000001
000010
000001
000010
000001
100000
000001
000000
,
000100
001000
000100
000000
010100
000000
000110
000000
,
000001
100000
000100
001000
000100
001000
000001
000000
,
100000
010100
000010
000110
,
110000
000000
010000
000000
010100
000000
000001
000011
,
000001
000011
001000
001000
,
000001
000001
100000
100000
001100
000000
000010
000000
,
100000
000010
100000
000001
010000
010000
000100
000000
,
100000
000000
001000
010000
001000
010000
000001
000000
,
000001
000000
000100
000010
000100
000010
000100
000000
,
000011
100000
110000
001100
,
000001
000001
100000
100000
001000
000100
001000
000000
,
010000
010000
000001
000001
001000
001000
000010
000000
,
001000
000100
001000
000001
010000
000001
010000
010000
,
000100
001000
000001
100000
000001
001000
000100
000000
,
000100
000000
010100
000000
000100
000000
000110
000010
,
000001
000010
000100
000010
000001
000010
000100
000010
,
000001
000000
000000
000000
001100
000000
010000
100000
,
010000
100000
000100
001000
000001
000000
100000
000000
,
000100
000000
001000
000000
000100
000000
001000
000100
,
010000
100000
010000
000100
010000
100000
010000
000100
,
010000
000000
010010
000000
000101
000000
100000
001000
,
100000
001000
000100
000001
100000
001000
000100
000000
,
000010
100000
000010
001000
000001
100000
000100
000000
,
001000
000010
001000
000000
100001
000000
001100
000100
,
100000
000001
100000
000000
000001
100000
000001
000000
,
000100
000010
000100
000010
100000
000010
010000
000000
,
001000
010000
001000
000010
001000
101000
001000
000000
,
000100
001000
000100
001000
100000
001000
100000
000100
,
001000
000001
001000
000000
001001
001010
000100
000000
,
000100
000010
000100
000001
100000
010000
100000
000000
,
001000
000000
000100
000000
000010
100000
100000
000000
,
000100
001000
000010
001000
010000
000000
100001
000000
,
001100
100000
000001
001000
,
000001
001000
000100
100000
001000
000100
000001
000000
,
000101
000001
100000
010000
100000
000010
001000
000000
,
000001
001000
100000
001000
001010
000000
010001
000000
,
000110
000001
010100
100000
,
000001
000100
000001
000100
000010
000110
110000
000000
,
001100
000000
100010
000000
,
010001
000000
000000
000000
;
