#TITLE:LOVE IS THE POWER;
#ARTIST:NM;
#BANNER:LOVE IS THE POWER.png;
#BACKGROUND:LOVE IS THE POWER-bg.png;
#CDTITLE:./CDTitles/DANCE DANCE REVOLUTION HOME VERSION.png;
#MUSIC:LOVE IS THE POWER.ogg;
#SAMPLESTART:47.97;
#SAMPLELENGTH:15;
#BPMS:0=130.08;

//---------------dance-single - ----------------
#NOTES:
     dance-single:
     :
     Easy:
     4:
     :
0000
0000
0000
0000
,
0000
0000
0000
0000
,
0000
0000
0000
0000
,
0000
0000
0000
0000
,
0000
0000
0000
0000
,
0000
0000
0000
0000
,
0010
0100
1000
0001
,
1000
0010
1000
0100
,
0010
0100
0001
1000
,
0001
0010
0001
0100
,
0100
0010
1000
0001
,
0010
0010
0010
1001
,
0001
0100
0001
1000
,
0000
0010
1000
0001
,
0100
0010
1000
0001
,
0100
0100
0100
1001
,
0001
0100
0001
1000
,
0000
0010
0001
1000
,
1000
0000
0001
0000
1000
0100
0000
0000
,
0000
0000
1000
1000
,
0010
0000
0001
0000
1000
0100
0000
0000
,
0000
1001
0000
0010
,
0010
0000
0001
0000
0001
0100
0000
0000
,
0000
1000
0001
1000
,
1000
0000
0001
0000
1000
0100
0000
0000
,
0000
0000
0000
0000
,
0010
0001
0100
1000
,
0010
0001
1000
0100
,
0010
1000
0100
0001
,
0010
0000
1000
0000
0001
0100
0100
0000
,
0000
0001
0100
1000
,
0010
0001
1000
0100
,
0000
1000
0100
0001
,
0010
0000
1000
0000
0001
0100
0100
0000
,
0000
1000
0001
0001
,
1000
0010
0001
0100
,
0001
0001
1000
1000
,
0010
0000
1000
0000
0100
0001
0001
0000
,
0000
0100
1000
0100
,
0001
0010
1000
0100
,
0000
0100
0001
0100
,
1000
0000
0010
0000
0001
1000
1000
0000
,
0000
0000
0000
0000
,
1001
0000
0000
0000
,
0100
0100
0000
0000
0000
0000
0000
0000
,
0010
0010
0010
0010
,
1001
0110
1001
0110
,
1001
0000
0100
0100
,
1001
0110
1001
0110
,
1001
0000
0100
0100
;

//---------------dance-double - ----------------
#NOTES:
     dance-double:
     :
     Easy:
     4:
     :
00000000
00000000
00000000
00000000
,
00000000
00000000
00000000
00000000
,
00000000
00000000
00000000
00000000
,
00000000
00000000
00000000
00000000
,
00000000
00000000
00000000
00000000
,
00000000
00000000
00000000
00000000
,
00100000
01000000
00010000
00001000
,
00001001
00000010
00001000
00000100
,
00000010
00000100
00001000
00010000
,
10010000
00100000
00010000
01000000
,
00010000
00001000
00000010
00000001
,
00000010
00000110
00000100
00001001
,
00001000
00010000
10000000
01000000
,
00000000
00000000
00100000
00000000
00000000
10000000
00010000
00000000
,
00010000
00001000
00000010
00000001
,
00000010
00000110
00000100
00001001
,
00001000
00010000
10000000
01000000
,
00110000
00011000
00001100
00000101
,
00000010
00000000
00000001
00000000
00001000
00000100
00000000
00000000
,
00000000
00000000
00001000
00010000
,
00100000
00000000
00010000
00000000
10000000
01000000
00000000
00000000
,
00000000
10010000
00000000
00100000
,
00010000
00000000
00001000
00000000
00000100
00000010
00000000
00000000
,
00000000
00000001
00001000
00000001
,
00001000
00000000
00010000
00000000
10000000
01000000
00000000
00000000
,
00000000
00000000
00000000
00000000
,
00000010
00000001
00000100
00001000
,
00010000
00100000
10000000
01000000
,
00010000
00001000
00010000
01000000
,
00100000
00000000
00001000
00000000
00000100
00000010
00000010
00000000
,
00000000
00010000
01000000
10000000
,
00100000
00010000
00001000
00000100
,
00000000
00010000
00001000
00000100
,
00000010
00000000
00001000
00000000
00010000
01000000
01000000
00000000
,
00000000
00001000
00010000
01000000
,
00010000
00100000
00010000
00001000
,
00000001
00000001
00001000
00001000
,
00000010
00000000
00001000
00000000
01000000
00010000
00010000
00000000
,
00000000
00010000
00001000
00000001
,
00000001
00000010
00001000
00000100
,
00000000
01000000
10000000
01000000
,
10000000
00000000
00100000
00000000
00000010
00001000
00001000
00000000
,
00000000
00000000
00000000
00000000
,
10010000
00000000
00000000
00000000
,
00000100
00000100
00000000
00000000
00000000
00000000
00000000
00000000
,
00100000
00000000
01000000
00000000
00100000
01000000
00100000
00000000
,
10010000
00011000
00001001
00000101
,
00000110
00000000
00000100
00000100
,
00001001
00011000
10010000
11000000
,
01100000
00000000
01000000
01000000
;
