#TITLE:LET THEM MOVE;
#ARTIST:N.M.R.;
#BANNER:LET THEM MOVE.png;
#BACKGROUND:LET THEM MOVE-bg.png;
#CDTITLE:./CDTITLES/DANCE DANCE REVOLUTION 2NDMIX.PNG;
#MUSIC:LET THEM MOVE.ogg;
#SAMPLESTART:43.788;
#SAMPLELENGTH:15;
#DISPLAYBPM:115;
#BPMS:0=115.1;

//---------------dance-single - ----------------
#NOTES:
     dance-single:
     :
     Easy:
     1:
     :
0000
0000
0000
0000
,
0000
0000
0000
0000
,
0000
0000
0000
0000
,
0000
0000
0000
0000
,
0000
0000
0000
0000
,
0010
0000
0000
0000
,
0001
0000
0000
0000
,
0100
0000
0000
0000
,
1000
0000
0000
0000
,
0010
0010
0000
0000
,
0001
0001
0000
0000
,
1000
1000
0000
0000
,
0010
0010
0010
0010
,
0010
0000
0000
0000
,
0001
0000
0000
0000
,
1000
0000
0000
0000
,
0010
0010
0000
0000
,
0010
0000
0000
0000
,
0001
0000
0000
0000
,
0100
0000
0000
0000
,
0010
0010
0000
0000
,
0001
0000
1000
0000
,
0001
0000
1000
0000
,
0001
0000
1000
0000
,
0010
0000
0100
0000
,
0001
0000
1000
0000
,
0001
0000
1000
0000
,
0001
0000
1000
0000
,
0010
0000
0000
0000
,
0010
0001
0100
1000
,
0000
0000
0000
0000
,
0001
1000
0001
1000
,
0000
0000
0000
0000
,
0010
0001
0100
1000
,
0000
0000
0000
0000
,
0001
1000
0001
1000
,
0000
0000
0000
0000
,
0010
0000
0000
0000
;

//---------------dance-single - ----------------
#NOTES:
     dance-single:
     :
     Medium:
     2:
     :
0000
0000
0000
0000
,
0000
0000
0000
0000
,
0000
0000
0000
0000
,
0000
0000
0000
0000
,
0000
0000
0000
0000
,
0010
0001
0100
1000
,
0010
1000
0001
0100
,
0001
0010
0001
1000
,
0010
0010
0000
0100
,
0010
1000
0100
0001
,
0010
0001
1000
0100
,
1000
0010
1000
0001
,
0100
0100
0000
0010
,
1000
0000
0010
0100
,
0001
0000
0100
0010
,
0100
0000
0001
1000
,
1000
1000
0000
0100
,
0010
0000
0001
1000
,
0010
0000
0100
0010
,
1000
0000
0001
1000
,
0100
0100
0000
1000
,
0010
0100
0001
0100
,
1000
0010
0000
0001
,
0001
1000
0100
1000
,
0010
0001
0000
1000
,
0100
0010
1000
0010
,
0001
1000
0001
1000
,
1000
0001
0010
0001
,
0100
1000
0000
0001
,
0010
0001
0100
1000
,
0000
0000
0000
0000
,
0010
0001
0100
1000
,
0010
0001
0010
1000
,
0010
0001
1000
0100
,
0001
1000
0001
1000
,
0010
1000
0001
0100
,
0010
1000
0100
0001
,
0010
0000
0000
0000
;

//---------------dance-single - ----------------
#NOTES:
     dance-single:
     :
     Hard:
     4:
     :
0000
0000
0000
0000
,
0000
0000
0000
0000
,
0000
0000
0000
0000
,
0000
0000
0000
0000
,
0000
0000
0000
0000
,
1001
0000
0010
0000
0100
0010
1000
0000
,
0010
0000
1000
0000
0001
1000
0100
0000
,
0001
0000
1000
0000
0001
1000
0001
0000
,
0010
0010
0000
0100
,
1001
0000
0010
0000
0100
0010
0001
0000
,
0010
0000
0001
0000
1000
0010
0100
0000
,
1000
0000
0010
0000
1000
0100
0001
0000
,
0100
0100
0000
0010
,
1001
0000
0000
0000
0010
0000
1000
0001
,
0100
0000
0000
0000
0010
0000
0001
1000
,
0100
0000
0000
0000
0001
0000
0010
0100
,
1000
0000
1000
0000
0000
1000
0100
0001
,
1001
0000
0000
0000
0001
0000
0010
0100
,
0001
0000
0000
0000
0100
0000
0010
1000
,
0100
0000
0000
0000
0001
0000
0010
0001
,
0100
0000
0100
0000
1000
1000
0010
0010
,
0010
1000
0100
1000
0001
0100
0010
0001
,
1000
0010
0000
0001
,
0001
0100
1000
0010
0100
0010
0001
1000
,
0010
0001
0000
1000
,
0100
1000
0010
0100
1000
0001
0010
1000
,
0001
0000
1000
0000
0001
1000
0001
0000
,
1000
0010
0001
0100
0010
1000
0001
0010
,
0100
1000
0000
0001
,
0010
1000
0001
0000
0100
0001
0010
0000
,
0000
0000
0000
0000
,
0010
1000
0001
0000
0100
0010
1000
0000
,
0010
0100
0001
0000
0010
1000
0100
0000
,
0010
0100
0001
0000
1000
0001
0100
0000
,
1000
0000
0001
0000
1000
0001
1000
0000
,
0010
0100
1000
0000
0001
1000
0100
0000
,
0010
0001
1000
0010
0100
0010
1000
0001
,
0010
0000
0000
0000
;

//---------------dance-double - ----------------
#NOTES:
     dance-double:
     :
     Easy:
     2:
     :
00000000
00000000
00000000
00000000
,
00000000
00000000
00000000
00000000
,
00000000
00000000
00000000
00000000
,
00000000
00000000
00000000
00000000
,
00000000
00000000
00000000
00000000
,
10000000
01000000
00100000
00010000
,
00001000
00000100
00000010
00000001
,
00000001
00000100
00000010
00001000
,
00010000
01000000
00100000
10000000
,
10000000
01000000
00100000
00010000
,
00001000
00000100
00000010
00000001
,
00000001
00000010
00000100
00001000
,
00010000
00100000
01000000
10000000
,
10010000
00011000
00000000
00000000
,
00000001
00001000
00000000
00010000
,
10000000
00010000
00000000
00011000
,
00000001
00001000
00000000
00000000
,
10000000
00010000
00000000
00000000
,
00001000
00000001
00000000
00000001
,
00001000
00010000
00000000
00011000
,
00100000
00010000
00001000
00000100
,
00001000
00001000
00010000
00010000
,
10000000
01000000
00100000
00010000
,
00010000
00100000
01000000
10000000
,
10000000
01000000
00100000
00010000
,
00001000
00000100
00000010
00001001
,
00000001
00001000
00010000
10000000
,
00000000
01100000
00000000
10010000
,
00000000
00000000
00000000
00000000
,
01100000
00010000
00001000
00000110
,
00001000
00010000
00001000
00010000
,
00001000
00010000
00001000
00011000
,
00000000
00000000
00000000
10000000
,
00010000
00010000
00001000
00001000
,
00000001
00001000
00010000
10000000
,
10000000
01000000
00100000
00010000
,
00001000
00000100
00000010
00000001
,
00001000
00000000
00000000
00000000
;

//---------------dance-double - ----------------
#NOTES:
     dance-double:
     :
     Medium:
     3:
     :
00000000
00000000
00000000
00000000
,
00000000
00000000
00000000
00000000
,
00000000
00000000
00000000
00000000
,
00000000
00000000
00000000
00000000
,
00000000
00000000
00000000
00000000
,
00100000
10000000
01000000
00010000
,
00001000
00000010
00000001
00000100
,
00000010
00000001
00001000
00000100
,
00000010
00000010
00000000
00001000
,
00000010
00000001
00000100
00001000
,
00010000
00100000
10000000
01000000
,
10000000
00100000
10000000
00010000
,
01000000
01000000
00000000
00100000
,
00011000
00000000
00000000
00000000
00000001
00000000
00001000
00000001
,
00000100
00000000
00000000
00000000
00001000
00000000
00010000
01000000
,
00100000
00000000
00000000
00000000
00100000
00000000
10000000
00100000
,
00010000
00000000
00000000
00000000
00010000
00000000
00000000
00000000
00000000
10000000
00000000
00000000
01000000
00000000
00010000
00000000
,
00011000
00000000
00000000
00000000
00000010
00000000
00001000
00000001
,
00000100
00000000
00000000
00000000
00001000
00000000
00010000
00100000
,
01000000
00000000
00000000
00000000
00100000
00000000
00010000
00100000
,
10000000
00000000
10000000
00000000
00010000
00001000
00000010
00000100
,
00000001
00000000
00000010
00000000
00001000
00000010
00000100
00000000
,
00001000
00100000
10000000
01000000
,
00100000
00000000
00010000
00000000
10000000
01000000
00100000
00000000
,
10000000
00100000
00010000
00001000
,
00000001
00000000
00001000
00000000
00000001
00000100
00001000
00000000
,
00000001
00000000
00001000
00000000
00000001
00001000
00000001
00000000
,
00001000
00000000
00010000
00000000
10000000
00010000
01000000
00000000
,
00100000
01000000
00000000
00010000
,
00000010
00000000
00000001
00000000
00000100
00000010
00001000
00000000
,
00001000
00000100
00010000
00001000
00100000
00010000
01000000
00100000
,
00100000
00000000
00010000
00000000
10000000
00010000
01000000
00000000
,
00100000
00010000
00100000
10000000
,
00100000
00000000
00010000
00000000
00001000
00000010
00000100
00000000
,
00001000
00000000
00000001
00000000
00001000
00000001
00001000
00000000
,
00000010
00000000
00001000
00000000
00000001
00001000
00000100
00000000
,
00000010
00001000
00000100
00000001
,
00000010
00000000
00000000
00000000
;

//---------------dance-couple - ----------------
#NOTES:
     dance-couple:
     :
     Easy:
     1:
     :
00000000
00000000
00000000
00000000
,
00000000
00000000
00000000
00000000
,
00000000
00000000
00000000
00000000
,
00000000
00000000
00000000
00000000
,
00000000
00000000
00000000
00000000
,
00100010
00000000
00000000
00000000
,
00011000
00000000
00000000
00000000
,
01000100
00000000
00000000
00000000
,
10000001
00000000
00000000
00000000
,
00100010
00100010
00000000
00000000
,
00011000
00011000
00000000
00000000
,
10000001
10000001
00000000
00000000
,
00100010
00100010
00100010
00100010
,
00100010
00000000
00000000
00000000
,
00011000
00000000
00000000
00000000
,
10000001
00000000
00000000
00000000
,
00100010
00100010
00000000
00000000
,
00100010
00000000
00000000
00000000
,
00011000
00000000
00000000
00000000
,
01000100
00000000
00000000
00000000
,
00100010
00100010
00000000
00000000
,
00010000
00001000
10000000
00000001
,
00010000
00001000
10000000
00000001
,
00010000
00001000
10000000
00000001
,
00100000
00000010
01000000
00000100
,
00010000
00001000
10000000
00000001
,
00010000
00001000
10000000
00000001
,
00010000
00001000
10000000
00000001
,
00100000
00000010
00000000
00000000
,
00100000
00010000
01000000
10000000
,
00000010
00000001
00000100
00001000
,
00010000
10000000
00010000
10000000
,
00000001
00001000
00000001
00001000
,
00100000
00010000
01000000
10000000
,
00000010
00000001
00000100
00001000
,
00010000
10000000
00010000
10000000
,
00000001
00001000
00000001
00001000
,
00100010
00000000
00000000
00000000
;

//---------------dance-couple - ----------------
#NOTES:
     dance-couple:
     :
     Medium:
     2:
     :
00000000
00000000
00000000
00000000
,
00000000
00000000
00000000
00000000
,
00000000
00000000
00000000
00000000
,
00000000
00000000
00000000
00000000
,
00000000
00000000
00000000
00000000
,
00100010
00010000
01000100
10000000
,
00100010
10000000
00011000
01000000
,
00010001
00100000
00011000
10000000
,
00100010
00100010
00000000
01000100
,
00100010
00001000
01000100
00000001
,
00100010
00000001
00011000
00000100
,
10001000
00000010
00011000
00000001
,
01000100
01000100
00000000
00100010
,
00011000
00000000
00100010
01000100
,
00011000
00000000
01000100
00100010
,
01000100
00000000
00011000
10000001
,
10000001
10000001
00000000
01000100
,
00100010
00000000
00011000
10000001
,
00100010
00000000
01000100
00100010
,
00011000
00000000
10000001
00011000
,
01000100
01000100
00000000
00011000
,
00100010
01000100
10000001
01000100
,
10000001
00100010
00000000
10000001
,
00011000
10000001
01000100
00011000
,
00100010
10000001
00000000
00011000
,
01000100
00100010
10000001
00100010
,
00011000
10000001
00011000
10000001
,
10000001
00011000
00100010
00011000
,
01000100
10000001
00000000
00011000
,
00100000
00010000
01000000
10000000
,
00000010
00000001
00000100
00001000
,
00100010
00011000
01000100
10000001
,
00100010
00011000
00100010
10000001
,
00100010
00011000
10000100
01000001
,
00011000
10000001
00011000
10000001
,
00100010
10000001
00011000
01000100
,
00100010
10000001
01000100
00011000
,
00100010
00000000
00000000
00000000
;

//---------------dance-couple - ----------------
#NOTES:
     dance-couple:
     :
     Hard:
     4:
     :
00000000
00000000
00000000
00000000
,
00000000
00000000
00000000
00000000
,
00000000
00000000
00000000
00000000
,
00000000
00000000
00000000
00000000
,
00000000
00000000
00000000
00000000
,
10011001
00000000
00100010
00000000
01000100
00100010
10001000
00000000
,
00100010
00000000
10001000
00000000
00010001
10001000
01000100
00000000
,
00010001
00000000
10001000
00000000
00010001
10001000
00010001
00000000
,
00100010
00100010
00000000
01000100
,
10011001
00000000
00100010
00000000
01000100
00100010
00010001
00000000
,
00100010
00000000
00010001
00000000
10001000
00100010
01000100
00000000
,
10001000
00000000
00100010
00000000
10001000
01000100
00010001
00000000
,
01000100
01000100
00000000
00100010
,
10011001
00000000
00000000
00000000
00100010
00000000
10001000
00010001
,
01000100
00000000
00000000
00000000
00100010
00000000
00010001
10001000
,
01000100
00000000
00000000
00000000
00010001
00000000
00100010
01000100
,
10001000
00000000
10001000
00000000
00000000
10001000
01000100
00010001
,
10011001
00000000
00000000
00000000
00010001
00000000
00100010
01000100
,
00010001
00000000
00000000
00000000
01000100
00000000
00100010
10001000
,
01000100
00000000
00000000
00000000
00010001
00000000
00100010
00010001
,
01000100
00000000
01000100
00000000
10001000
10001000
00100010
00100010
,
00100010
10001000
01000100
10001000
00010001
01000100
00100010
00010001
,
10001000
00100010
00000000
00010001
,
00010001
01000100
10001000
00100010
01000100
00100010
00010001
10001000
,
00100010
00010001
00000000
10001000
,
01000100
10001000
00100010
01000100
10001000
00010001
00100010
10001000
,
00010001
00000000
10001000
00000000
00010001
10001000
00010001
00000000
,
10001000
00100010
00010001
01000100
00100010
10001000
00010001
00100010
,
01000100
10001000
00000000
00010001
,
00100010
10001000
00010001
00000000
01000100
00010001
00100010
00000000
,
00000000
00000000
00000000
00000000
,
00100010
10001000
00010001
00000000
01000100
00100010
10001000
00000000
,
00100010
01000100
00010001
00000000
00100010
10001000
01000100
00000000
,
00100010
01000100
00010001
00000000
10001000
00010001
01000100
00000000
,
10001000
00000000
00010001
00000000
10001000
00010001
10001000
00000000
,
00100010
01000100
10001000
00000000
00010001
10001000
01000100
00000000
,
00100010
00010001
10001000
00100010
01000100
00100010
10001000
00010001
,
00100010
00000000
00000000
00000000
;

//---------------dance-solo - ----------------
#NOTES:
     dance-solo:
     :
     Easy:
     2:
     :
000000
000000
000000
000000
,
000000
000000
000000
000000
,
000000
000000
000000
000000
,
000000
000000
000000
000000
,
000000
000000
000000
000000
,
100000
001000
000100
000001
,
010000
000000
000010
000000
,
000000
000000
000010
010000
,
000001
001000
000100
100000
,
100000
001000
000100
000001
,
010000
000000
000010
000000
,
000000
000010
000000
010000
,
000001
000100
001000
100000
,
100001
010001
000000
000000
,
000000
010000
000000
000001
,
100000
000001
000000
010001
,
000000
010000
000000
000000
,
100000
000001
000000
000000
,
010000
000000
000000
000000
,
010000
000001
000000
010001
,
000100
000001
010000
000000
,
010000
010000
000001
000001
,
100000
001000
000100
000001
,
000001
000100
001000
100000
,
100000
001000
000100
000001
,
010000
000000
000010
000010
,
000000
010000
000001
100000
,
000000
001100
000000
100001
,
000000
000000
000000
000000
,
001100
000001
010000
010000
,
010000
000001
010000
000001
,
010000
000001
010000
010001
,
000000
000000
000000
100000
,
000001
000001
010000
010000
,
000000
010000
000001
100000
,
100000
001000
000100
000001
,
010000
000000
000010
000000
,
010000
000000
000000
000000
;

//---------------dance-solo - ----------------
#NOTES:
     dance-solo:
     :
     Medium:
     3:
     :
000000
000000
000000
000000
,
000000
000000
000000
000000
,
000000
000000
000000
000000
,
000000
000000
000000
000000
,
000000
000000
000000
000000
,
000100
100000
001000
000001
,
010000
000010
000000
000000
,
000010
000000
010000
000000
,
000010
000010
000000
010000
,
000010
000000
000000
010000
,
000001
000100
100000
001000
,
100000
000100
100000
000001
,
001000
001000
000000
000100
,
010001
000000
000000
010000
,
000000
000000
000000
000000
010000
000000
000001
001000
,
000100
000000
000000
000000
000100
000000
100000
000100
,
000001
000000
000000
000000
000001
000000
000000
000000
000000
100000
000000
000000
001000
000000
000001
000000
,
010001
000000
000010
010000
,
000000
000000
000000
000000
010000
000000
000001
000100
,
001000
000000
000000
000000
000100
000000
000001
000100
,
100000
000000
100000
000000
000001
010000
000010
000000
,
000000
000000
000010
000000
010000
000010
000000
000000
,
010000
000100
100000
001000
,
000100
000000
000001
000000
100000
001000
000100
000000
,
100000
000100
000001
010000
,
000000
010000
000000
010000
,
000000
000000
010000
000000
000000
010000
000000
000000
,
010000
000000
000001
000000
100000
000001
001000
000000
,
000100
001000
000000
000001
,
000010
000000
000000
000000
000000
000010
010000
000000
,
010000
000000
000001
010000
000100
000001
001000
000100
,
000100
000000
000001
000000
100000
000001
001000
000000
,
000100
000001
000100
100000
,
000100
000000
000001
000000
010000
000010
000000
000000
,
010000
000000
010000
010000
,
000010
000000
010000
000000
000000
010000
000000
000000
,
000010
010000
000000
000000
,
000010
000000
000000
000000
;
