#TITLE:KEEP ON MOVIN';
#ARTIST:N.M.R;
#BANNER:KEEP ON MOVIN'.png;
#BACKGROUND:KEEP ON MOVIN'-bg.png;
#CDTITLE:./CDTITLES/DANCE DANCE REVOLUTION 2NDMIX.PNG;
#MUSIC:KEEP ON MOVIN'.ogg;
#SAMPLESTART:9.099;
#SAMPLELENGTH:15;
#DISPLAYBPM:132;
#BPMS:0=132.191,12=132.029;

//---------------dance-single - ----------------
#NOTES:
     dance-single:
     :
     Easy:
     3:
     :
0000
0000
0000
0000
,
0000
0000
0000
0000
,
0000
0000
0000
0000
,
0000
0000
0000
0000
,
0000
0000
0000
0000
,
1000
0010
0001
0100
,
1000
0100
0000
0000
0000
0000
0010
0000
,
0001
0100
0001
0010
,
1000
0100
0000
0010
,
1000
0010
0001
0100
,
1000
0100
0000
0000
0000
0000
0001
0000
,
1000
0000
0001
0000
,
0010
0010
0010
0010
,
1001
0000
0010
0000
,
0100
0000
1000
0001
,
0010
0000
0100
0000
,
0010
0000
1000
0001
,
0010
0000
0100
0000
,
0010
0000
0001
1000
,
0010
0000
1000
0000
,
0001
0000
0010
0100
,
1001
0000
0000
0000
,
0010
0000
0000
0000
,
1000
0000
0000
0000
,
0010
0001
0100
1000
,
0010
0000
0000
0000
,
0001
0000
0000
0000
,
0100
0000
0000
0000
,
0010
1000
0100
0001
,
1001
0010
0001
0100
,
1000
0100
0000
0000
0000
0000
0010
0000
,
0001
0100
0001
0010
,
1000
0100
0000
0010
,
1000
0010
0001
0100
,
1000
0100
0000
0000
0000
0000
0001
0000
,
1000
0000
0001
0000
,
0010
0010
0010
0010
,
1001
0000
0000
0000
;

//---------------dance-single - ----------------
#NOTES:
     dance-single:
     :
     Medium:
     4:
     :
0000
0000
0000
0000
,
0000
0000
0000
0000
,
0000
0000
0000
0000
,
0000
0000
0000
0000
,
0000
0000
0000
0000
,
1000
0010
0001
0100
,
1000
0100
0000
0000
0010
0000
1001
0000
,
0001
0100
0001
0010
,
1000
0000
0100
0000
0010
0010
0010
0000
,
1000
0010
0001
0100
,
1000
0100
0000
0000
0010
0000
1001
0000
,
1000
1000
1000
0000
0001
0001
0001
0000
,
0010
0010
0010
0010
,
1001
0000
0010
0000
,
0100
0000
0000
0000
1000
0000
0001
1000
,
0010
0000
0100
0000
,
0010
0000
0000
0000
1000
0000
0001
1000
,
0010
0000
0100
0000
,
0010
0000
0000
0000
0001
0000
1000
0001
,
0010
0000
1000
0000
,
0001
0000
0000
0000
0010
1000
0100
1000
,
1001
0000
0010
0000
1000
0000
0001
1000
,
0010
0000
1000
0000
0100
0000
0010
0001
,
1000
0000
0010
0000
0001
0000
0100
1000
,
0010
0001
0100
1001
,
1000
0000
0010
0000
1000
0000
0001
1000
,
0010
0000
1000
0000
0100
0000
0010
0001
,
1000
0000
0010
0000
0001
0000
0100
1000
,
0010
1000
0100
1001
,
1000
0010
0001
0100
,
1000
0100
0000
0000
0010
0000
1001
0000
,
0001
0100
0001
0010
,
1000
0000
0100
0000
0010
0010
0010
0000
,
1000
0010
0001
0100
,
1000
0100
0000
0000
0010
0000
1001
0000
,
1000
1000
1000
0000
0001
0001
0001
0000
,
0010
0010
0010
0010
,
1001
0000
0000
0000
;

//---------------dance-single - ----------------
#NOTES:
     dance-single:
     :
     Hard:
     5:
     :
0000
0000
0000
0000
,
0000
0000
0000
0000
,
0000
0000
0000
0000
,
0000
0000
0000
0000
,
0000
0000
0000
0000
,
1010
1001
1100
0101
,
1000
0100
0000
0000
0010
0000
1001
0000
,
0001
1000
0100
0000
0001
1000
0010
0000
,
1000
0000
0100
0000
0010
0010
0010
0000
,
0011
1001
0101
1100
,
0001
0100
0000
0000
0010
0000
1001
0000
,
1000
0100
1000
0000
0001
0010
0001
0000
,
0010
0000
0100
0000
0010
0100
0010
0000
,
1001
0001
0001
0000
0010
0100
0010
0000
,
0100
1000
0001
0000
1000
0001
0100
0001
,
0010
1000
0001
0000
0100
1000
0010
0000
,
0010
1000
0001
0000
1000
0001
0100
1000
,
0010
1000
0001
0000
0100
0001
1000
0000
,
0010
1000
0001
0000
0001
1000
0010
0001
,
0010
0100
1000
0000
1000
0001
0100
0000
,
0001
1000
0100
0000
0010
1000
0100
1000
,
1001
0000
0010
0000
1100
0000
0001
1000
,
0010
0000
1000
0000
0100
0000
0010
0001
,
1000
0000
0010
0000
0101
0000
1000
0100
,
0010
0001
0110
1001
,
1000
0000
0010
0000
1100
0000
0001
1000
,
0010
0000
1000
0000
0100
0000
0010
0001
,
1000
0000
0010
0000
0101
0000
1000
0100
,
0010
0001
1000
0010
0100
0001
1001
0000
,
1010
1001
1100
0101
,
1000
0100
0000
0000
0010
0000
1001
0000
,
0001
1000
0100
0000
0001
1000
0010
0000
,
1000
0000
0100
0000
0010
0010
0010
0000
,
0011
1001
0101
1100
,
0001
0100
0000
0000
0010
0000
1001
0000
,
1000
0010
1000
0000
0001
0100
0001
0000
,
0010
0000
0100
0000
0010
0100
0010
0000
,
1001
0000
0000
0000
;

//---------------dance-double - ----------------
#NOTES:
     dance-double:
     :
     Easy:
     3:
     :
00000000
00000000
00000000
00000000
,
00000000
00000000
00000000
00000000
,
00000000
00000000
00000000
00000000
,
00000000
00000000
00000000
00000000
,
00000000
00000000
00000000
00000000
,
10000000
00100000
01000000
00001000
,
00010000
00000010
00000000
00000000
00000100
00000000
00000001
00000000
,
00001000
00000100
00010000
00000010
,
00001000
00000100
00010000
00010000
,
00000010
00000100
00010000
00001000
,
00100000
01000000
00000000
00000000
10000000
00000000
00100000
00000000
,
00000000
00010000
00000100
00000000
00000000
00010000
00001000
00000000
,
00100000
10000000
01000000
01000000
,
10010000
00000000
00100000
00000000
,
01000000
00000000
00000000
00000000
00010000
00000000
00000100
00001000
,
00000010
00000000
00000100
00000000
,
00001000
00000000
00000000
00000000
00100000
00000000
01000000
00010000
,
10000000
00000000
01000000
00000000
,
00100000
00000000
00000000
00000000
00001000
00000000
00010000
00000100
,
00000010
00000000
00001000
00000000
,
00000010
00000000
00000000
00000000
00000001
00000000
00000100
00000001
,
00001001
00000010
00000001
00000100
,
00000010
00000000
00010000
00000000
00001000
00000000
00100000
01000000
,
10000000
00010000
00100000
00000010
,
00000100
00000000
00000001
00000000
00000010
00000000
00000001
00001000
,
00000100
00010000
00001000
01000000
,
00100000
00000000
10000000
00000000
00010000
00000000
01000000
00001000
,
00100000
00010000
01000000
00100000
,
10000000
00100000
01000000
10010000
,
00100000
00011000
00001100
00001001
,
00001000
00000100
00000000
00000000
00000010
00000000
00000010
00000000
,
00000001
00000100
00001000
00000010
,
00000001
00000100
00000010
00001001
,
00000010
00011000
01010000
10010000
,
10000000
01000000
00000000
00000000
00000000
00000000
00010000
00000000
,
00000000
00001000
00010000
00000000
00000000
00000010
00000100
00000000
,
00000010
00000010
00000010
00000010
,
00001001
00000000
00000000
00000000
;

//---------------dance-double - ----------------
#NOTES:
     dance-double:
     :
     Medium:
     4:
     :
00000000
00000000
00000000
00000000
,
00000000
00000000
00000000
00000000
,
00000000
00000000
00000000
00000000
,
00000000
00000000
00000000
00000000
,
10000000
00100000
01000000
00001000
,
11000000
00100000
01010000
00001000
,
00100000
00000010
00000000
00000000
00000100
00000000
00000001
00000000
,
00001000
00000100
00010000
00000010
,
00001000
00000000
00000100
00000000
00010000
00010000
00010000
00000000
,
00001010
00000100
00011000
01000000
,
00100000
01000000
00000000
00000000
10000000
00000000
00100000
00000000
,
00001000
00010000
00001000
00000000
01000000
00010000
01000000
00000000
,
00110000
10000000
01000000
01000000
,
10010000
00000000
00100000
00000000
,
01100000
00000000
00000000
00000000
00010000
00000000
00000100
00001000
,
00000010
00000000
00000100
00000000
,
00001001
00000000
00000000
00000000
00100000
00000000
01000000
00010000
,
10000000
00000000
01000000
00000000
,
01100000
00000000
00000000
00000000
00001000
00000000
00010000
00000100
,
00000010
00000000
00001000
00000000
,
00000110
00000000
00000000
00000000
00000001
00000000
00000100
00000001
,
00001001
00000000
00000010
00000000
00000001
00000000
00000100
00000010
,
00001000
00000000
00010000
00000000
00001000
00000000
00100000
01000000
,
10000000
00000000
00010000
00000000
00100000
00000000
00000010
00001000
,
00000100
00000000
00000001
00000000
00000010
00000000
00000001
00001000
,
00000100
00000000
00010000
00000000
00001000
00000000
01000000
00100000
,
10000000
00000000
00100000
00000000
00010000
00000000
01000000
00001000
,
00100000
00000000
00010000
00000000
01000000
00000000
00100000
01000000
,
00100000
00010000
10000000
00100000
01000000
00010000
10010000
00000000
,
10100000
00100000
01010000
00001000
,
00010000
00000010
00000000
00000000
00000100
00000000
00000001
00000000
,
00001000
00000100
00010000
00000010
,
00001000
00000000
00000100
00000000
00010000
00010000
00010000
00000000
,
00001010
00000100
00011000
01000000
,
00100000
01000000
00000000
00000000
10000000
00000000
00100000
00000000
,
00001000
00010000
00001000
00000000
01000000
00010000
01000000
00000000
,
00110000
00011000
00001100
00000011
,
00001001
00000000
00000000
00000000
;

//---------------dance-couple - ----------------
#NOTES:
     dance-couple:
     :
     Easy:
     3:
     :
00000000
00000000
00000000
00000000
,
00000000
00000000
00000000
00000000
,
00000000
00000000
00000000
00000000
,
00000000
00000000
00000000
00000000
,
00000000
00000000
00000000
00000000
,
10001000
00100000
00010001
01000000
,
10001000
01000100
00000000
00000000
00000000
00000000
00100010
00000000
,
00010001
01000100
00010001
00100010
,
10001000
01000100
00000000
00100010
,
10001000
00000010
00010001
00000100
,
10001000
01000100
00000000
00000000
00000000
00000000
10000001
00000000
,
00011000
00000000
01000010
00000000
,
00100100
00100100
00100100
00100100
,
10011001
00000000
00100010
00000000
,
01000100
00000000
10000001
00011000
,
00100010
00000000
01000100
00000000
,
00100010
00000000
10000001
00011000
,
00100010
00000000
01000100
00000000
,
00100010
00000000
00011000
10000001
,
00100010
00000000
10000001
00000000
,
00011000
00000000
00100010
01000100
,
10011001
00000000
00000000
00000000
,
00100000
00000010
00000000
00000000
,
10000000
00001000
00000000
00000000
,
00100010
00010001
01000100
10001000
,
00000010
00100000
00000000
00000000
,
00000001
00010000
00000000
00000000
,
00000100
01000000
00000000
00000000
,
00100010
10001000
01000100
00010001
,
10011001
00100010
00010001
01000100
,
10001000
01000100
00000000
00000000
00000000
00000000
00100010
00000000
,
00010001
01000100
00010001
00100010
,
10001000
01000100
00000000
00100010
,
10001000
00100010
00010001
01000100
,
10001000
01000100
00000000
00000000
00000000
00000000
10001000
00000000
,
00010001
00000000
01000010
00000000
,
00100100
00100100
00100100
00100100
,
10011001
00000000
00000000
00000000
;

//---------------dance-couple - ----------------
#NOTES:
     dance-couple:
     :
     Medium:
     4:
     :
00000000
00000000
00000000
00000000
,
00000000
00000000
00000000
00000000
,
00000000
00000000
00000000
00000000
,
00000000
00000000
00000000
00000000
,
00000000
00000000
00000000
00000000
,
10001000
00100000
00010001
01000000
,
10001000
01000100
00000000
00000000
00100010
00000000
10011001
00000000
,
00010001
01000000
00010001
00100000
,
10001000
00000000
01000100
00000000
00100010
00100010
00100010
00000000
,
10001000
00000010
00010001
00000100
,
10001000
01000100
00000000
00000000
00100010
00000000
10011001
00000000
,
00010001
00010001
00010001
00000000
01000010
01000010
01000010
00000000
,
00100100
00100100
00100100
00100100
,
10011001
00000000
00100010
00000000
,
01000100
00000000
00000000
00000000
10000001
00000000
00011000
10000001
,
00100010
00000000
01000100
00000000
,
00100010
00000000
00000000
00000000
10000001
00000000
00011000
10000001
,
00100010
00000000
01000100
00000000
,
00100010
00000000
00000000
00000000
00011000
00000000
10000001
00011000
,
00100010
00000000
10000001
00000000
,
00011000
00000000
00000000
00000000
00100010
10000001
01000100
10000001
,
10011001
00000000
00100010
00000000
10000001
00000000
00011000
10000000
,
00100010
00000000
10000001
00000000
01000100
00000000
00100010
00010000
,
10000001
00000000
00100010
00000000
00011000
00000000
01000100
10000000
,
00100010
00011000
01000100
10011001
,
10001000
00000000
00100010
00000000
00011000
00000000
10000001
00001000
,
00100010
00000000
00011000
00000000
01000100
00000000
00100010
00000001
,
00011000
00000000
00100010
00000000
10000001
00000000
01000100
00001000
,
00100010
00011000
01000100
10011001
,
10000001
00100010
00011000
01000100
,
10000001
01000100
00000000
00000000
00100010
00000000
10011001
00000000
,
00011000
01000100
00011000
00100010
,
10000001
00000000
01000010
00000000
00100100
00100100
00100100
00000000
,
00011000
00100010
10000001
01000100
,
00011000
01000100
00000000
00000000
00100010
00000000
10011001
00000000
,
00010001
00010001
00010001
00000000
01000010
01000010
01000010
00000000
,
00100100
00100100
00100100
00100100
,
10011001
00000000
00000000
00000000
;

//---------------dance-couple - ----------------
#NOTES:
     dance-couple:
     :
     Hard:
     5:
     :
00000000
00000000
00000000
00000000
,
00000000
00000000
00000000
00000000
,
00000000
00000000
00000000
00000000
,
00000000
00000000
00000000
00000000
,
00000000
00000000
00000000
00000000
,
10100011
10011001
11000101
01011100
,
10000001
01000100
00000000
00000000
00100010
00000000
10011001
00000000
,
00011000
10000000
01000100
00000000
00011000
10000000
00100010
00000000
,
10000001
00000000
01000010
00000000
00100100
00100100
00100100
00000000
,
10100011
10011001
11000101
01011100
,
10000001
01000100
00000000
00000000
00100010
00000000
10011001
00000000
,
00011000
01000100
00011000
00000000
10000001
00100010
10000001
00000000
,
01000010
00000000
00100100
00000000
01000010
00100100
01000010
00000000
,
10011001
00011000
00011000
00000000
00100010
01000100
00100010
00000000
,
01000100
10001000
00010001
00000000
10001000
00010001
01000100
00010001
,
00100010
10001000
00010001
00000000
01000100
10001000
00100010
00000000
,
00100010
10001000
00010001
00000000
10001000
00010001
01000100
10001000
,
00100010
10001000
00010001
00000000
01000100
00010001
10001000
00000000
,
00100010
10001000
00010001
00000000
00010001
10001000
00100010
00010001
,
00100010
01000100
10001000
00000000
10001000
00010001
01000100
00000000
,
00010001
10001000
01000100
00000000
00100010
10001000
01000100
10001000
,
10011001
00000000
00100000
00000000
11000101
00000000
00011000
10000001
,
00100010
00000000
10000000
00000000
01000100
00000000
00100010
00011000
,
10000001
00000000
00100000
00000000
01011100
00000000
10000001
01000100
,
00100010
00010000
01100110
10011001
,
10001000
00000000
00000010
00000000
01011100
00000000
10000001
00011000
,
00100010
00000000
00001000
00000000
01000100
00000000
00100010
10000001
,
00011000
00000000
00000010
00000000
11000101
00000000
00011000
01000100
,
00100010
10000001
00011000
00100010
01000100
10000001
10011001
00000000
,
10100011
10011001
11000101
01011100
,
10000001
01000100
00000000
00000000
00100010
00000000
10011001
00000000
,
00011000
10000001
01000100
00000000
00011000
10000001
00100010
00000000
,
10000001
00000000
01000010
00000000
00100100
00100100
00100100
00000000
,
10100011
10011001
11000101
01011100
,
10000001
01000100
00000000
00000000
00100010
00000000
10011001
00000000
,
00011000
00100010
00011000
00000000
10000001
01000100
10000001
00000000
,
01000010
00000000
00100100
00000000
01000010
00100100
01000010
00000000
,
10011001
00000000
00000000
00000000
;

//---------------dance-solo - ----------------
#NOTES:
     dance-solo:
     :
     Easy:
     3:
     :
000000
000000
000000
000000
,
000000
000000
000000
000000
,
000000
000000
000000
000000
,
000000
000000
000000
000000
,
000000
000000
000000
000000
,
100000
000100
001000
010000
,
000001
000010
000000
000000
000000
000000
000000
000000
,
010000
000000
000001
000010
,
010000
000000
000001
000001
,
000010
000000
000001
010000
,
000100
001000
000000
000000
100000
000000
000100
000000
,
000000
000001
000000
000000
000000
000001
010000
000000
,
000100
100000
001000
001000
,
100001
000000
000100
000000
,
001000
000000
000000
000000
000001
000000
000000
010000
,
000010
000000
000000
000000
,
010000
000000
000000
000000
000100
000000
001000
000001
,
100000
000000
001000
000000
,
000100
000000
010000
000001
,
000010
000000
010000
000000
,
000010
000000
000000
000000
,
000010
000010
000000
000000
,
000010
000000
000001
000000
010000
000000
000100
001000
,
100000
000001
000100
000010
,
000000
000000
000000
000000
000010
000000
000000
010000
,
000000
000001
010000
001000
,
000100
000000
100000
000000
000001
000000
001000
010000
,
000100
000001
001000
000100
,
100000
000100
001000
100001
,
000100
010001
010000
000010
,
010000
000000
000010
000010
,
000000
000000
010000
000010
,
000000
000000
000010
000010
,
000010
010001
001001
100001
,
100000
001000
000000
000000
000000
000000
000001
000000
,
000000
010000
000001
000000
000000
000010
000000
000000
,
000010
000010
000010
000010
,
000010
000000
000000
000000
;

//---------------dance-solo - ----------------
#NOTES:
     dance-solo:
     :
     Medium:
     4:
     :
000000
000000
000000
000000
,
000000
000000
000000
000000
,
000000
000000
000000
000000
,
000000
000000
000000
000000
,
000000
000000
000000
000000
,
101000
000100
001001
010000
,
000100
000010
000000
000000
000000
000000
000000
000000
,
010000
000000
000001
000010
,
010000
000000
000000
000000
000001
000001
000001
000000
,
010010
000000
010001
001000
,
000100
001000
000000
000000
100000
000000
000100
000000
,
010000
000001
010000
000000
001000
000001
001000
000000
,
000101
100000
001000
001000
,
100001
000000
000100
000000
,
001100
000000
000000
000000
000001
000000
000000
010000
,
000010
000000
000000
000000
,
000010
000000
000000
000000
000100
000000
001000
000001
,
100000
000000
001000
000000
,
001100
000000
010000
000001
,
000010
000000
010000
000000
,
010000
000000
000000
000000
,
000010
000000
000010
000000
000000
000000
000000
000010
,
010000
000000
000001
000000
010000
000000
000100
001000
,
100000
000000
000001
000000
000100
000000
000010
010000
,
000000
000000
000000
000000
000010
000000
000000
010000
,
000000
000000
000001
000000
010000
000000
001000
000100
,
100000
000000
000100
000000
000001
000000
001000
010000
,
000100
000000
000001
000000
001000
000000
000100
001000
,
000100
000001
100000
000100
001000
000001
100001
000000
,
100100
000100
001001
010000
,
000001
000010
000000
000000
000000
000000
000000
000000
,
010000
000000
000001
000010
,
010000
000000
000000
000000
000001
000001
000001
000000
,
010010
000000
010001
001000
,
000100
001000
000000
000000
100000
000000
000100
000000
,
010000
000001
010000
000000
001000
000001
001000
000000
,
000101
010001
010000
000010
,
000010
000000
000000
000000
;
