#TITLE:IN THE NAVY '99 (XXL Disaster Remix);
#ARTIST:CAPTAIN JACK;
#BANNER:IN THE NAVY '99 (XXL Disaster Remix).png;
#BACKGROUND:IN THE NAVY '99 (XXL Disaster Remix)-bg.png;
#CDTITLE:./CDTITLES/Dancemania X3.png;
#MUSIC:IN THE NAVY '99 (XXL Disaster Remix).ogg;
#SAMPLESTART:19.111;
#SAMPLELENGTH:15;
#DISPLAYBPM:135;
#BPMS:0=135.002;
#BGCHANGES:4=IN THE NAVY '99 (XXL Disaster Remix).avi=1=1=0=0,212=IN THE NAVY '99 (XXL Disaster Remix)-bg.png=1=0=0=0;

//---------------dance-single - ----------------
#NOTES:
     dance-single:
     :
     Easy:
     4:
     :
0000
0000
0000
0000
,
0000
0000
0000
0000
,
0000
0000
0000
0000
,
0000
0000
0000
0000
,
0000
0000
0000
0000
,
1000
0100
1000
0100
,
1000
0100
1000
0001
,
0100
0001
0100
0001
,
0100
0001
0100
0010
,
1000
0010
1000
0001
,
0010
0001
0010
0001
,
1000
0100
0010
0001
,
1000
0001
1000
0001
,
0010
0001
1000
0100
,
0010
0100
0010
0100
,
1000
0010
0100
0001
,
0100
1000
0010
0001
,
1000
0010
0100
0001
,
1000
0001
1000
1001
,
0010
0100
0010
0000
0100
0010
0100
0000
,
0001
0000
1000
0000
0001
0100
1000
0000
,
0100
0010
0100
0000
0010
0100
0010
0000
,
1000
0000
1000
0000
1000
0100
0001
0000
,
1000
0000
0100
0000
0001
0100
1000
0000
,
0100
0000
0001
0000
1000
0100
0001
0000
,
0100
1000
0010
0001
,
0001
1000
0100
0010
,
1000
0000
1000
0000
0001
0010
1000
0000
,
0010
0000
0010
0000
1000
0100
0001
0000
,
0100
0000
0100
0000
0010
0001
0100
0000
,
0010
0010
1000
0001
,
0100
0000
0010
1001
,
1000
0000
0001
0110
,
1000
0100
0001
0000
0001
0100
1000
0000
,
0100
0110
1000
1001
,
0001
1000
0010
1001
,
1000
0010
0100
1001
,
0100
0110
0010
0110
,
0001
1001
1000
1001
,
1000
0100
0010
0001
,
1000
0010
1000
0010
,
0100
0001
0010
0100
,
0010
0001
0010
0001
,
0100
1000
0100
0001
,
0010
0001
1000
0010
,
1000
1001
0100
0110
,
1000
0010
0100
0001
,
1000
0010
0100
0010
,
0100
0001
0010
0001
,
1000
0100
0010
0001
,
1000
0100
1000
0010
,
1000
0010
0100
0001
,
1001
0000
1000
0000
0001
0100
1000
0000
,
1000
0100
0010
0001
,
1001
0000
0000
0000
;

//---------------dance-double - ----------------
#NOTES:
     dance-double:
     :
     Easy:
     4:
     :
00000000
00000000
00000000
00000000
,
00000000
00000000
00000000
00000000
,
00000000
00000000
00000000
00000000
,
00000000
00000000
00000000
00000000
,
00010000
00001000
00010000
00001000
,
00010000
00100000
00010000
10000000
,
00010000
01000000
00010000
00001000
,
00000010
00001000
00000001
00001000
,
00010000
00001000
00010000
00001000
,
00010000
00001000
00010000
00001000
,
00010000
00000100
00000010
00000001
,
00000100
00000001
00000010
00000100
,
00001000
00000100
00010000
01000000
,
10000000
00010000
00100000
00010000
,
01000000
00010000
00001000
00000100
,
00001000
00000010
00001000
00000100
,
00011000
01000000
01100000
10000000
,
00010000
10010000
01000000
01100000
,
10000000
00010000
10000000
00000000
00010000
10000000
00010000
00000000
,
10000000
00000000
10000000
00000000
00010000
10000000
00010000
00000000
,
01000000
00010000
01000000
00000000
00001000
00010000
00001000
00000000
,
00000100
00000000
00000100
00000000
00000001
00001000
00000001
00000000
,
00000001
00001000
00000010
00000100
,
00010000
00001000
00100000
01000000
,
01000000
01100000
00100000
10010000
,
01000000
01000000
00100000
00100000
,
00010000
00010000
00001000
00000100
,
00000010
00000010
00000001
00001000
,
00001001
00000100
00000110
00000001
,
00001000
00001000
00000001
00000001
,
00000001
00001000
00000010
00000100
,
00010000
00001000
00100000
01000000
,
10000000
10010000
00100000
01100000
,
01000000
01000000
00100000
00100000
,
00010000
00010000
00001000
00000100
,
00000010
00000010
00000001
00001000
,
00001001
00000010
00000110
00000001
,
00001000
00001000
00000001
00000001
,
00001000
00000010
00000100
00000001
,
00001000
00000100
00010000
00001000
,
00100000
00010000
10000000
01000000
,
00100000
00010000
00100000
00010000
,
00100000
00001000
00010000
00001000
,
00000010
00000100
00001000
00000001
,
00001000
00001001
00000010
00000110
,
00010000
00001000
00010000
00001000
,
00100000
00010000
10000000
01000000
,
00100000
01000000
10000000
00010000
,
00100000
00010000
01000000
00001000
,
00010000
00001000
00010000
00001000
,
00100000
00001000
01000000
00010000
,
10000000
10010000
00100000
01100000
,
10000000
01000000
00100000
00010000
,
01100000
00000000
00000000
00000000
;
