#TITLE:20,NOVEMBER (D.D.R. version);
#ARTIST:N.M.R feat. DJ nagureo;
#BANNER:20,NOVEMBER (D.D.R. version).png;
#BACKGROUND:20,NOVEMBER (D.D.R. version)-bg.png;
#CDTITLE:./CDTITLES/DANCE DANCE REVOLUTION 2NDMIX.PNG;
#MUSIC:20,NOVEMBER (D.D.R. version).ogg;
#SAMPLESTART:53.499;
#SAMPLELENGTH:15;
#DISPLAYBPM:130;
#BPMS:0=130.095;

//---------------dance-single - ----------------
#NOTES:
     dance-single:
     :
     Easy:
     1:
     :
0000
0000
0000
0000
,
0000
0000
0000
0000
,
0000
0000
0000
0000
,
0000
0000
0000
0000
,
0000
0000
0000
0000
,
0010
0000
0010
0000
,
0100
0000
0100
0000
,
1000
0000
1000
0000
,
0100
0000
0100
0000
,
0010
0000
0010
0000
,
0001
0000
0001
0000
,
1000
0000
1000
0000
,
0001
0000
1000
0000
,
0010
0000
0010
0000
,
0000
0000
0010
0100
,
0010
0000
0000
0000
,
0000
0000
1000
0001
,
1000
0000
0000
0000
,
0000
0000
0010
0100
,
0010
0000
0000
0000
,
0000
0000
1000
1000
,
0000
0000
0000
0000
,
0000
0000
0000
0000
0010
0010
0010
0000
,
0000
0000
0000
0000
,
0000
0000
0000
0000
0001
0001
0001
0000
,
0000
0000
0000
0000
,
0000
0000
0000
0000
0100
0100
0100
0000
,
0000
0000
1000
1000
,
0000
1000
0000
0100
,
0000
0000
0001
0010
,
0000
0000
0010
1000
,
0000
0000
1000
0100
,
0000
0000
1000
0001
,
0000
0000
0001
0001
,
0000
0000
1000
1000
,
0000
0000
0010
0010
,
0000
0000
1000
0100
,
0001
0000
0000
0000
;

//---------------dance-single - ----------------
#NOTES:
     dance-single:
     :
     Medium:
     3:
     :
0000
0000
0000
0000
,
0000
0000
0000
0000
,
0000
0000
0000
0000
,
0000
0000
0000
0000
,
0000
0000
0000
0000
,
0010
0001
0100
1000
,
0100
0001
0010
1000
,
0001
0000
0001
1001
,
1000
0000
1000
1001
,
0010
1000
0100
0001
,
0010
0001
0100
1000
,
1000
0000
1000
1001
,
0001
0000
0001
1001
,
0010
0000
0001
0000
,
0100
0000
0000
0000
0001
0000
0001
0001
,
0010
0000
1000
0000
,
0100
0000
0000
0000
1000
0000
1000
1000
,
0001
0000
0100
0000
,
1000
0000
0000
0000
0001
0000
0001
0001
,
0000
0000
0100
0100
,
0000
0000
0010
0000
1000
1000
1000
0000
,
0100
0000
0000
0000
0000
0001
0001
0001
,
0000
0000
1000
0000
0100
0100
0100
0000
,
0001
0000
0000
0000
0000
1000
1000
1000
,
0000
0000
0001
0000
0010
0010
0010
0000
,
0000
0000
1000
1001
,
0000
0000
0001
0000
0100
0100
0100
0000
,
0010
0000
0001
1001
,
0000
0000
0100
0000
0010
0010
0010
0000
,
0001
0000
1000
1001
,
0000
0000
0000
0000
0100
0100
0100
0000
,
0000
0000
1000
1001
,
0000
0000
0010
1000
,
0100
0000
0100
0000
0000
0001
0001
0000
,
0000
0000
0010
0000
0000
1000
1000
0000
,
0001
0001
0001
1000
,
1000
0010
1000
0100
,
0001
0000
0000
0000
;

//---------------dance-single - ----------------
#NOTES:
     dance-single:
     :
     Hard:
     4:
     :
0000
0000
0000
0000
,
0000
0000
0000
0000
,
0000
0000
0000
0000
,
0000
0000
0000
0000
,
0000
0000
0000
0000
,
0010
0000
0001
0000
0100
0001
1000
0000
,
0100
0000
0001
0000
0010
1000
0100
0000
,
0001
0000
1000
0000
0001
1000
1001
0000
,
1000
0000
0001
0000
1000
0001
1001
0000
,
0010
0000
1000
0000
0100
0001
1000
0000
,
0010
0000
0001
0000
0100
0001
1000
0000
,
1000
0000
0001
0000
1000
0001
1001
0000
,
0010
0001
0001
1000
0010
0100
0001
1000
,
0010
0001
0001
0000
1000
0000
0000
0000
,
0100
0001
0010
0000
0001
0000
0001
0001
,
0010
1000
0100
0000
0001
1000
0001
0000
,
0100
1000
0010
0000
1000
0000
1000
1000
,
0001
0010
0100
0000
0100
0001
0100
0000
,
0100
0010
0001
0000
0001
0000
0001
0001
,
0010
1000
0100
0000
0100
0001
0100
0000
,
0010
0001
0010
0000
1000
1000
1000
0000
,
0100
1000
0100
0000
0000
0001
1000
0001
,
1000
0000
1000
0000
0100
0100
0100
0000
,
0001
0000
0001
1000
0001
1000
1000
1000
,
0000
0000
0001
0000
0010
0010
0010
0000
,
0001
0000
0001
1000
0001
1000
1000
1000
,
0000
0000
0001
0000
0100
0100
0100
0000
,
0001
0000
0001
1000
0001
1000
1000
1000
,
0000
0000
0100
0000
0010
0010
0010
0000
,
0001
0010
0001
0000
1000
0000
1001
0000
,
1000
0010
1000
0000
0100
0100
0100
0000
,
0001
0010
0001
0000
1000
0000
1001
0000
,
0001
0010
0001
0000
0010
0000
1000
0000
,
0100
1000
0100
0000
0000
0001
0001
0000
,
0000
0000
0010
0000
0000
1000
1000
0000
,
0001
0001
0001
1000
,
0010
0001
0001
1000
0010
0100
0001
1000
,
0010
0000
0000
0000
;

//---------------dance-double - ----------------
#NOTES:
     dance-double:
     :
     Easy:
     2:
     :
00000000
00000000
00000000
00000000
,
00000000
00000000
00000000
00000000
,
00000000
00000000
00000000
00000000
,
00000000
00000000
00000000
00000000
,
00000000
00000000
00000000
00000000
,
00100000
00010000
00001000
00000100
,
00000001
00000010
00001000
00100000
,
01000000
00000000
00001000
00100000
,
00010000
00000000
01000000
00010000
,
00100000
10000000
01000000
00010000
,
00001000
00000100
00000001
00000010
,
00000001
00000000
00000010
00000100
,
00001000
00000000
00010000
00001000
,
00000010
00000000
00000100
00000000
,
00010000
00000000
00000010
00001000
,
00100000
00000000
01000000
00000000
,
00100000
00000000
10000000
01000000
,
00010000
00000000
00001000
00000000
,
00000010
00000000
00000001
00000100
,
00001000
00000000
00010000
01000000
,
00000000
00100000
10000000
10000000
,
01000000
00000000
00000000
00010000
,
00000000
00000000
00000010
00000100
,
00010000
00000000
00010000
00010000
,
00000000
01000000
00001000
00000010
,
00000000
00000000
00001000
00000001
,
00000000
00000010
00001000
00000100
,
00010000
00000000
00100000
01000000
,
00000000
01000000
00010000
01000000
,
00001000
00000000
00000010
00000001
,
00000000
00000000
00000100
00001000
,
00000000
00000000
00010000
00100000
,
00000000
00000000
01000000
00001000
,
00000100
00000000
00000100
00000000
00000000
00000001
00000001
00000000
,
00000000
00000000
00000010
00000000
00000000
00001000
00001000
00000000
,
00100000
01000000
00010000
10000000
,
10000000
00100000
10000000
01000000
,
00010000
00000000
00000000
00000000
;

//---------------dance-double - ----------------
#NOTES:
     dance-double:
     :
     Medium:
     4:
     :
00000000
00000000
00000000
00000000
,
00000000
00000000
00000000
00000000
,
00000000
00000000
00000000
00000000
,
00000000
00000000
00000000
00000000
,
00000000
00000000
00000000
00000000
,
00100000
00000000
00010000
00000000
00001000
00000001
00000100
00000000
,
00000001
00000000
00000010
00000000
00001000
00000100
00001000
00000000
,
00100000
00000000
00010000
00000000
10000000
01000000
10000000
00000000
,
00100000
00010000
00001000
00001010
,
00000001
00000000
00000010
00000000
00001000
00000100
00001000
00000000
,
00010000
00000000
00100000
00000000
10000000
01000000
10000000
00000000
,
00010000
00000000
00001000
00001010
,
00000010
00001000
00010000
00001000
00100000
00010000
01000000
00010000
,
10010000
00000000
10000000
00000000
,
00100000
00000000
00001000
00001100
,
00000010
00000000
00001000
00000000
,
00010000
00000000
00100000
10100000
,
01000000
00000000
00001000
00000000
,
00000010
00000000
00000000
00000000
00000001
00000000
00000001
00000010
,
00001000
00000000
00000100
00010000
,
00000000
00000000
00100000
00000000
01000000
10000000
01000000
00000000
,
00100000
00000000
00000000
00000000
00010000
10000000
00010000
00000000
,
00001000
00000000
00000010
00000011
,
00000100
00000000
00010000
01010000
,
00000000
00010000
00001000
00001010
,
00000100
00000000
00010000
10010000
,
00000000
00100000
01000000
11000000
,
00100000
00000000
00001000
00001010
,
00000000
00000000
00001000
00000000
00000100
00000010
00000100
00000000
,
00010000
00000000
10000000
11000000
,
00000000
00000000
00000000
00000000
00010000
10000000
00010000
00000000
,
00000000
00000000
00001000
00001010
,
00000000
00000000
00000001
00000010
,
00000100
00000000
00010000
00000000
00000000
00100000
00100000
00000000
,
00000000
00000000
00010000
00000000
00000000
00000010
00000010
00000000
,
00000001
00000010
00000100
00000001
,
00000010
00001000
00010000
00001000
00100000
00010000
01000000
00010000
,
10010000
00000000
00000000
00000000
;

//---------------dance-couple - ----------------
#NOTES:
     dance-couple:
     :
     Easy:
     1:
     :
00000000
00000000
00000000
00000000
,
00000000
00000000
00000000
00000000
,
00000000
00000000
00000000
00000000
,
00000000
00000000
00000000
00000000
,
00000000
00000000
00000000
00000000
,
00100010
00000000
00100010
00000000
,
01000100
00000000
01000100
00000000
,
10000001
00000000
10000001
00000000
,
01000100
00000000
01000100
00000000
,
00100010
00000000
00100010
00000000
,
10000001
00000000
10000001
00000000
,
00011000
00000000
00011000
00000000
,
00011000
00000000
10000001
00000000
,
00100010
00000000
00100010
00000000
,
00000000
00000000
00100010
01000100
,
00100010
00000000
00000000
00000000
,
00000000
00000000
10000001
00011000
,
10000001
00000000
00000000
00000000
,
00000000
00000000
00100010
01000100
,
00100010
00000000
00000000
00000000
,
10000000
00000000
00000000
00000000
10001000
00001000
00001000
00000000
,
01000000
00000000
01000000
00000000
,
00000010
00000000
00000000
00000000
01000010
01000000
01000000
00000000
,
00000001
00000000
00000001
00000000
,
00100000
00000000
00000000
00000000
00100001
00000001
00000001
00000000
,
00010000
00000000
00010000
00000000
,
00000000
00000000
00000000
00000000
01000100
01000100
01000100
00000000
,
00000000
00000000
10000001
10000001
,
00000000
10000001
00000000
01000100
,
00000000
00000000
10000001
00100010
,
00000000
00000000
00100010
00011000
,
00000000
00000000
10000001
01000100
,
00000000
00000000
00011000
10000001
,
00000000
00000000
00011000
00011000
,
00000000
00000000
10000001
10000001
,
00000000
00000000
00100010
00100010
,
00000000
00000000
10001000
01000100
,
00010001
00000000
00000000
00000000
;

//---------------dance-couple - ----------------
#NOTES:
     dance-couple:
     :
     Medium:
     3:
     :
00000000
00000000
00000000
00000000
,
00000000
00000000
00000000
00000000
,
00000000
00000000
00000000
00000000
,
00000000
00000000
00000000
00000000
,
00000000
00000000
00000000
00000000
,
00100010
10000001
01000100
00011000
,
01000100
00011000
00100010
10000001
,
00011000
00000000
00011000
10011001
,
10000001
00000000
10000001
10011001
,
00100010
00011000
01000100
10000001
,
00100010
10000001
01000100
00011000
,
00011000
00000000
00011000
10011001
,
10000001
00000000
10000001
10011001
,
00100010
00000000
10000001
00000000
,
01000100
00000000
00000000
00000000
10000001
00000000
10000001
10000001
,
00100010
00000000
00011000
00000000
,
01000100
00000000
00000000
00000000
00011000
00000000
00011000
00011000
,
10000001
00000000
01000100
00000000
,
10000001
00000000
00000000
00000000
00011000
00000000
00011000
00011000
,
00000000
00000000
00100100
00100100
,
00000000
00000000
01000010
00000000
10000001
10000001
10000001
00000000
,
01000010
00000000
00000000
00000000
00000000
00001000
00001000
00001000
,
00000000
00000000
10000001
00000000
01000000
01000000
01000000
00000000
,
00011000
00000000
00000000
00000000
00000000
00010001
00010001
00010001
,
00000000
00000000
10000001
00000000
00100000
00100000
00100000
00000000
,
00000000
00000000
10000001
10011001
,
00000000
00000000
10000001
00000000
00100100
00100100
00100100
00000000
,
01000010
00000000
10000001
10011001
,
00000000
00000000
00100100
00000000
01000010
01000010
01000010
00000000
,
10000001
00000000
00011000
10011001
,
00000000
00000000
00000000
00000000
00100100
00100100
00100100
00000000
,
00000000
00000000
10000001
10011001
,
00000000
00000000
00100010
10000001
,
01000100
00000000
01000100
00000000
00000000
10000001
10000001
00000000
,
00000000
00000000
00100010
00000000
00000000
00011000
00011000
00000000
,
10000001
10000001
10000001
00011000
,
10001000
00100010
10001000
01000100
,
00010001
00000000
00000000
00000000
;

//---------------dance-couple - ----------------
#NOTES:
     dance-couple:
     :
     Hard:
     4:
     :
00000000
00000000
00000000
00000000
,
00000000
00000000
00000000
00000000
,
00000000
00000000
00000000
00000000
,
00000000
00000000
00000000
00000000
,
00000000
00000000
00000000
00000000
,
00100010
00000000
00011000
00000000
01000100
00010000
10000001
00000000
,
01000100
00000000
10000001
00000000
00100010
00001000
00010100
00000000
,
00011000
00000000
10000001
00000000
00011000
10000000
10011001
00000000
,
00011000
00000000
10000001
00000000
00011000
00000001
10011001
00000000
,
00100010
00000000
10000001
00000000
01000100
00010000
10001000
00000000
,
00100010
00000000
10000001
00000000
01000100
00000001
00011000
00000000
,
10001000
00000000
00010001
00000000
10001000
00010001
10011001
00000000
,
00100010
00010001
00010001
10001000
00100010
01000100
00010001
10001000
,
00100010
00010001
00010001
00000000
10001000
00000000
00000000
00000000
,
00100100
00000001
01000010
00000000
00000001
00000000
00000001
00000001
,
10000010
00000000
10000100
00000000
00010000
10000000
00010000
00000000
,
01000100
00001000
00100010
00000000
00001000
00000000
00001000
00001000
,
00010010
00100000
01000001
00000000
01000000
00010000
01000000
00000000
,
00100100
00000010
00010001
00000000
00000001
00000000
00000001
00000001
,
10000010
00001000
10000100
00000000
01000100
00010001
01000100
00000000
,
00100010
00010000
00100010
00000000
10001000
10001000
10001000
00000000
,
01000100
00001000
01000100
00000000
00000000
00010001
10001000
00010001
,
10001000
00000000
10001000
00000000
01000100
01000100
01000100
00000000
,
00010001
00000000
00010001
10001000
00010001
10001000
10001000
10001000
,
00000000
00000000
00010000
00000000
00100000
00100000
00100000
00000000
,
00010001
00000000
00010001
10001000
00010001
10001000
10001000
10001000
,
00000000
00000000
00000001
00000000
00000100
00000100
00000100
00000000
,
00010001
00000000
00010001
10001000
00010001
10001000
10001000
10001000
,
00000000
00000000
01000000
00000000
00100000
00100000
00100000
00000000
,
00010001
00000010
00010001
00000000
10001000
00000000
10011001
00000000
,
10001000
00100000
10001000
00000000
01000100
01000100
01000100
00000000
,
00010001
00000010
00010001
00000000
10001000
00000000
10011001
00000000
,
00010001
00100000
00010001
00000000
00100010
00000000
10001000
00000000
,
01000100
10000001
01000100
00000000
00000000
00011000
00011000
00000000
,
00000000
00000000
00100010
00000000
00000000
10000001
10000001
00000000
,
00011000
00011000
00011000
10000001
,
00100010
00010001
00010001
10001000
00100010
01000100
00010001
10001000
,
00100010
00000000
00000000
00000000
;

//---------------dance-solo - ----------------
#NOTES:
     dance-solo:
     :
     Easy:
     2:
     :
000000
000000
000000
000000
,
000000
000000
000000
000000
,
000000
000000
000000
000000
,
000000
000000
000000
000000
,
000000
000000
000000
000000
,
000100
000001
010000
000000
,
000000
000010
010000
000100
,
001000
000000
010000
000100
,
000001
000000
001000
000001
,
000100
100000
001000
000001
,
010000
000000
000000
000010
,
000000
000000
000010
000000
,
010000
000000
000001
010000
,
000010
000000
000000
000000
,
000001
000000
000010
010000
,
000100
000000
001000
000000
,
000100
000000
100000
001000
,
000001
000000
010000
000000
,
000010
000000
000000
000000
,
010000
000000
000001
001000
,
000000
000100
100000
100000
,
001000
000000
000000
000001
,
000000
000000
000010
000000
,
000001
000000
000001
000001
,
000000
001000
010000
000010
,
000000
000000
010000
000000
,
000000
000010
010000
000000
,
000001
000000
000100
001000
,
000000
001000
000001
001000
,
010000
000000
000010
000000
,
000000
000000
000000
010000
,
000000
000000
000000
000001
000000
000100
000000
000000
,
000000
000000
000000
001000
000000
000000
010000
000000
,
000000
000000
000000
000000
,
000000
000000
000010
000000
000000
010000
010000
000100
,
000000
001000
000000
000001
000000
100000
000000
100000
,
000000
000100
000000
100000
000000
001000
000000
000001
;

//---------------dance-solo - ----------------
#NOTES:
     dance-solo:
     :
     Medium:
     4:
     :
000000
000000
000000
000000
,
000000
000000
000000
000000
,
000000
000000
000000
000000
,
000000
000000
000000
000000
,
000000
000000
000000
000000
,
000100
000001
010000
000000
,
000000
000010
010000
010000
,
000100
000000
000001
000000
100000
001000
100000
000000
,
000100
000001
010000
010010
,
000000
000010
010000
010000
,
000001
000000
000100
000000
100000
001000
100000
000000
,
000001
000000
010000
010010
,
000010
010000
000001
010000
000100
000001
001000
000001
,
100001
000000
100000
000000
,
000100
000000
010000
010000
,
000010
000000
010000
000000
,
000001
000000
000100
100100
,
001000
000000
010000
000000
,
000010
000000
000000
000000
000000
000000
000000
000010
,
010000
000000
000000
000001
,
000000
000000
000100
000000
001000
100000
001000
000000
,
000100
000000
000000
000000
000001
100000
000001
000000
,
010000
000000
000010
000010
,
000000
000000
000001
001001
,
000000
000001
010000
010010
,
000000
000000
000001
100001
,
000000
000100
001000
101000
,
000100
000000
010000
010010
,
000000
000000
010000
000000
000000
000010
000000
000000
,
000001
000000
100000
101000
,
000000
000000
000000
000000
000001
100000
000001
000000
,
000000
000000
010000
010010
,
000000
000000
000000
000010
,
000000
000000
000001
000000
000000
000100
000100
000000
,
000000
000000
000001
000000
000000
000010
000010
000000
,
000000
000010
000000
000000
,
000010
010000
000001
010000
000100
000001
001000
000001
,
100001
000000
000000
000000
;
