#TITLE:diving money;
#SUBTITLE:;
#ARTIST:QUADRA;
#TITLETRANSLIT:;
#SUBTITLETRANSLIT:;
#ARTISTTRANSLIT:;
#CREDIT:;
#BANNER:diving money.png;
#BACKGROUND:diving money-bg.png;
#LYRICSPATH:;
#CDTITLE:./CDTITLES/DANCE DANCE REVOLUTION CLUB VERSION.PNG;
#MUSIC:diving money.ogg;
#OFFSET:0.000;
#SAMPLESTART:52.836;
#SAMPLELENGTH:15.000;
#SELECTABLE:YES;
#DISPLAYBPM:150.000;
#BPMS:0.000=149.899;
#STOPS:;
#BGCHANGES:;

//---------------dance-single - ----------------
#NOTES:
     dance-single:
     :
     Easy:
     4:
     0.344,0.396,0.462,0.000,0.000:
0000
0000
0000
0000
,
0000
0000
0000
0000
,
0000
0000
0000
0000
,
0000
0000
0000
0000
,
0000
0000
0000
0000
,
1001
0001
0100
1000
,
0010
0001
1000
1000
,
1001
0001
0100
1000
,
0010
0001
1000
1000
,
1001
0001
0100
1000
,
0010
0001
0100
1000
,
0110
0001
0100
0001
,
0010
0010
0001
0100
,
1001
1000
0100
0001
,
0010
1000
0100
0001
,
0110
0010
0100
1000
,
0001
0001
1000
0001
,
0010
0010
0100
0100
,
0001
0001
1000
1000
,
0010
0010
0100
0100
,
0001
0001
1000
1000
,
0001
1100
1000
1000
,
0001
0101
0001
0001
,
0010
0110
0100
0100
,
0001
0001
0101
1001
,
0010
0000
0000
0000
,
1000
0000
0000
0100
,
1001
0000
0000
0000
,
0100
0000
0000
0000
,
0001
0000
0000
0000
,
0010
0000
0000
0100
,
1001
0000
0000
0000
,
0110
0000
0001
0001
,
0010
1001
1100
0001
,
0010
1001
0101
1000
,
0010
1001
1100
0001
,
0010
1001
0101
1000
,
0010
1000
1000
1010
,
0010
0010
0100
0100
,
1001
0001
0100
1000
,
0001
0001
1000
1000
,
0010
1001
1100
0001
,
0010
1001
0101
1000
,
0010
1001
1100
0001
,
0010
1001
0100
1000
,
0001
0011
1100
0001
,
1000
1010
0101
0010
,
0001
0110
1100
0001
,
0100
0100
0100
0100
;

//---------------dance-single - ----------------
#NOTES:
     dance-single:
     :
     Medium:
     5:
     0.330,0.335,0.187,0.000,0.000:
0000
0000
0000
0000
,
0000
0000
0000
0000
,
0000
0000
0000
0000
,
0000
0000
0000
0000
,
0000
0000
0000
0000
,
0010
0000
1000
0001
0100
0000
1000
0000
,
0010
0000
0001
0001
,
0010
0000
1000
0001
0100
0000
1000
0000
,
0010
0000
0001
0001
,
0010
0000
1000
0001
0100
0000
1000
0000
,
0010
0000
1000
0001
0100
0000
1000
0000
,
0010
0000
0001
1000
0100
0000
0001
0000
,
0010
0000
0010
0000
0001
0010
0100
0000
,
0010
0000
0001
1000
0100
0000
0001
0000
,
0010
0000
0001
1000
0100
0000
0001
0000
,
0010
0000
1000
0001
0100
0000
0010
0000
,
0001
0000
0001
0000
1000
0010
0001
0000
,
0010
0010
0100
0100
,
0001
0001
1000
1000
,
0010
0010
0100
0100
,
0001
0001
1000
1000
,
0010
0001
0100
0000
1000
0000
0001
0000
,
0010
0001
0100
0000
1000
0000
0001
0000
,
1000
0010
0100
0000
1000
0000
1000
0000
,
0001
0001
0001
0001
0001
0001
0001
0000
,
0010
0000
0000
0000
,
1000
0000
0000
0100
,
1001
0000
0000
0000
,
0100
0000
0000
0000
,
0001
0000
0000
0000
,
0010
0000
0000
0100
,
1001
0000
0000
0000
,
0110
0000
0001
0001
,
0010
0000
1000
1001
0000
0000
0001
0000
,
0010
0000
1000
1001
0000
0000
0001
0000
,
0010
0000
1000
1010
0000
0000
0001
0000
,
0010
0000
0001
1001
0000
0000
1000
0000
,
0010
1000
0001
0100
,
0010
0100
0001
1000
,
1001
0010
0100
0010
,
0001
0001
1000
1000
,
0010
0000
1000
1001
0000
0000
0001
0000
,
0010
0000
0100
0110
0000
0000
0001
0000
,
1000
0000
0010
0101
0000
0000
0001
0000
,
1000
0000
0001
1010
0000
0000
0100
0000
,
0001
0000
0100
1010
0000
0000
0001
0000
,
0100
0000
1000
0101
0000
0000
0010
0000
,
1000
0000
0010
1001
0000
0000
0100
0000
,
0001
0001
0001
0001
;

//---------------dance-single - ----------------
#NOTES:
     dance-single:
     :
     Hard:
     7:
     0.427,0.487,0.300,0.000,0.037:
0000
0000
0000
0000
,
0000
0000
0000
0000
,
0000
0000
0000
0000
,
0000
0000
0000
0000
,
0000
0000
0000
0000
,
0010
0000
1000
0001
0100
0010
1000
0000
,
0010
0000
0000
0000
0000
0000
0001
0000
0000
0001
0000
0000
1001
0000
0000
0000
,
0010
0000
1000
0001
0100
0010
1000
0000
,
0010
0000
0000
0000
0000
0000
1000
0000
0000
1000
0000
0000
1010
0000
0000
0000
,
0010
0000
1000
0001
0100
0010
1000
0000
,
0010
0000
1000
0001
0100
0010
1000
0000
,
0001
0000
1000
0010
0100
0001
1000
0000
,
0010
0000
0010
0000
0001
0010
0100
0000
,
0010
0000
0001
1000
0100
0010
0001
0000
,
0010
0000
0001
1000
0100
0010
0001
0000
,
1000
0000
0001
0010
0100
1000
0001
0000
,
0001
0000
0001
0000
1000
0010
0001
0000
,
1000
0000
0000
0001
0000
0000
1000
0000
0000
0000
0000
0000
0100
0000
0000
0000
,
0001
0101
1000
1100
,
0001
0000
0000
1000
0000
0000
0001
0000
0000
0000
0000
0000
0010
0000
0000
0000
,
1000
1100
0001
0101
,
0010
0001
0100
0000
1000
1000
1001
0000
,
0010
0001
0100
0000
1000
1000
1100
0000
,
0001
0010
0100
0000
1000
1000
1001
0000
,
0001
1000
0001
1000
0001
0010
0001
0010
,
0010
0000
0000
0000
,
1000
0000
0000
0100
,
1010
0000
0000
0000
,
0100
0000
0000
0000
,
0001
0000
0000
0000
,
0010
0000
0000
0100
,
1010
0000
0000
0000
,
0101
0000
0001
0001
,
0010
0000
1000
1001
1000
0001
1000
0000
,
0010
0000
1000
1001
1000
0001
1000
0000
,
0010
0000
1000
1010
1000
0010
1000
0000
,
0010
0000
0001
1001
0001
1000
0001
0000
,
0010
0000
1000
0100
0000
0001
0010
0000
,
0010
0000
1000
0100
0000
0001
0010
0000
,
1001
0000
0010
0001
0000
1000
0100
0000
,
0001
0010
0001
0010
0001
0010
0001
0010
,
0010
0000
1000
1001
0001
1000
0001
0000
,
0010
0000
0100
0110
0010
0100
0010
0000
,
1000
0000
0001
0101
0001
0100
0001
0000
,
1000
0000
0010
1010
0010
1000
0010
0000
,
0001
0000
1000
1010
0010
1000
0010
0000
,
1000
0000
0100
1001
0001
1000
0001
0000
,
1000
0000
0010
1001
1000
0001
1000
0000
,
0100
1000
0000
0000
0100
1000
0000
0000
0100
0000
0000
0000
1000
0000
0000
0000
;

//---------------dance-double - ----------------
#NOTES:
     dance-double:
     :
     Easy:
     5:
     0.330,0.335,0.187,0.000,0.000:
00000000
00000000
00000000
00000000
,
00000000
00000000
00000000
00000000
,
00000000
00000000
00000000
00000000
,
00000000
00000000
00000000
00000000
,
00000000
00000000
00000000
00000000
,
00100000
00000000
10000000
01000000
00010000
00000000
00001000
00000000
,
00010000
00000000
00001000
00001000
,
00000010
00000000
00000001
00000100
00001000
00000000
00010000
00000000
,
00100000
00000000
10000000
10000000
,
00100000
00000000
10000000
01000000
00010000
00000000
00001000
00000000
,
00000010
00000000
00000001
00000100
00001000
00000000
00010000
00000000
,
00100000
00000000
10000000
01000000
00010000
00000000
00001000
00000000
,
00010000
00000000
00010000
00000000
00001000
00100000
00010000
00000000
,
00100000
00000000
10000000
01000000
00010000
00000000
00001000
00000000
,
00000010
00000000
00000001
00000100
00001000
00000000
00010000
00000000
,
00100000
00000000
10000000
01000000
00010000
00000000
00001000
00000000
,
00000010
00000000
00000010
00000000
00000100
00001000
00010000
00000000
,
00001000
00001000
00010000
00010000
,
01000000
01000000
00100000
00100000
,
00001000
00001000
00000010
00000010
,
00000100
00000100
00010000
00010000
,
00100000
10000000
00010000
00000000
00001000
00000000
00010000
00000000
,
00000010
00000001
00001000
00000000
00010000
00000000
00001000
00000000
,
00010000
00001000
00000010
00000000
00000100
00000000
00000100
00000000
,
00000001
00000001
00000001
00000001
00000001
00000001
00000001
00000000
,
00000010
00000000
00000000
00000000
,
00001000
00000000
00000000
00010000
,
00101000
00000000
00000000
00000000
,
00000100
00000000
00000000
00000000
,
00000001
00000000
00000000
00000000
,
00000010
00000000
00000000
00000100
,
00010010
00000000
00000000
00000000
,
01001000
00000000
00010000
00010000
,
00100000
00000000
10000000
10010000
00000000
00000000
01000000
00000000
,
00001000
00000000
00010000
00011000
00000000
00000000
00000100
00000000
,
00000010
00000000
00001000
00001010
00000000
00000000
00001000
00000000
,
00000100
00000000
00010000
00011000
00000000
00000000
00000100
00000000
,
00000010
00001000
01000000
10000000
,
00010000
00100000
00001000
00000100
,
00001001
00000010
00000100
00001000
,
00010000
00010000
10000000
10000000
,
00100000
00000000
10000000
10100000
00000000
00000000
00001000
00000000
,
00010000
00000000
00001000
00001010
00000000
00000000
00000100
00000000
,
00001000
00000000
00010000
01010000
00000000
00000000
00001000
00000000
,
00010000
00000000
00001000
00010100
00000000
00000000
00100000
00000000
,
00010000
00000000
10000000
01001000
00000000
00000000
00010000
00000000
,
00000100
00000000
00000010
00011000
00000000
00000000
00100000
00000000
,
01000000
00000000
00010000
00001100
00000000
00000000
00000100
00000000
,
00001000
00001000
00010000
00010000
;

//---------------dance-double - ----------------
#NOTES:
     dance-double:
     :
     Medium:
     8:
     0.427,0.487,0.300,0.000,0.037:
00000000
00000000
00000000
00000000
,
00000000
00000000
00000000
00000000
,
00000000
00000000
00000000
00000000
,
00000000
00000000
00000000
00000000
,
00000000
00000000
00000000
00000000
,
00100000
00000000
01000000
00010000
00001000
00010000
00000100
00000000
,
00001000
00000000
00000000
00000000
00000000
00000000
00000001
00000000
00000000
00000001
00000000
00000000
00001001
00000000
00000000
00000000
,
00000010
00000000
00000100
00001000
00010000
00001000
00100000
00000000
,
01000000
00000000
00000000
00000000
00000000
00000000
00010000
00000000
00000000
00010000
00000000
00000000
01010000
00000000
00000000
00000000
,
00100000
00000000
01000000
00010000
00001000
00010000
00000100
00000000
,
00000010
00000000
00000100
00001000
00010000
00001000
01000000
00000000
,
00100000
00000000
01000000
00010000
00001000
00010000
00000100
00000000
,
00010000
00000000
00010000
00000000
00001000
00100000
00010000
00000000
,
00100000
00000000
01000000
00010000
00001000
00010000
00000100
00000000
,
00000010
00000000
00000100
00001000
00010000
00001000
01000000
00000000
,
00100000
00000000
01000000
00001000
00010000
00000010
00000100
00000000
,
00000001
00000000
00000001
00000000
00001000
00010000
00000100
00000000
,
00001000
00000000
00000000
00100000
00000000
00000000
00001000
00000000
00000000
00000000
00000000
00000000
00010000
00000000
00000000
00000000
,
01000000
01010000
00001000
00001010
,
00010000
00000000
00000000
00000010
00000000
00000000
00010000
00000000
00000000
00000000
00000000
00000000
00001000
00000000
00000000
00000000
,
00000100
00000101
00001000
00011000
,
00100000
00010000
01000000
00000000
01000000
01000000
01001000
00000000
,
00010000
00001000
00000100
00000000
00001000
00001000
00011000
00000000
,
00100000
00010000
00001000
00000000
00000100
00000100
00001100
00000000
,
00000001
00001000
00000001
00001000
00000001
00000010
00000001
00000010
,
00000010
00000000
00000000
00000000
,
00001000
00000000
00000000
01000000
,
00011000
00000000
00000000
00000000
,
00000100
00000000
00000000
00000000
,
00000001
00000000
00000000
00000000
,
00000010
00000000
00000000
00001000
,
01010000
00000000
00000000
00000000
,
00001010
00000000
00010000
00010000
,
00100000
00000000
10000000
10010000
00010000
10000000
00010000
00000000
,
00100000
00000000
00001000
00011000
00010000
00001000
00010000
00000000
,
00000010
00000000
00001000
00001010
00000010
00001000
00000010
00000000
,
00010000
00000000
00001000
00011000
00010000
00001000
00010000
00000000
,
00000010
00000000
00001000
00010000
00000000
00100000
01000000
00000000
,
10000000
00000000
00010000
00001000
00000000
00000010
00000100
00000000
,
00001001
00000000
00000010
00000100
00000000
00010000
00001000
00000000
,
00010000
00100000
00010000
00100000
00010000
00100000
00010000
00100000
,
00100000
00000000
10000000
10100000
10000000
00100000
10000000
00000000
,
00001000
00000000
00010000
00000110
00000010
00000100
00000010
00000000
,
00010000
00000000
00100000
01010000
01000000
00010000
01000000
00000000
,
00010000
00000000
00001000
00010100
00000100
00010000
00000100
00000000
,
00100000
00000000
10000000
01001000
01000000
00001000
01000000
00000000
,
00000100
00000000
00000010
00011000
00001000
00100000
00001000
00000000
,
01000000
00000000
00100000
00010010
00000100
00000010
00000100
00000000
,
00001000
00010000
00000000
00000000
00001000
00010000
00000000
00000000
00001000
00000000
00000000
00000000
00010000
00000000
00000000
00000000
;
