#TITLE:Queen's Jamaica (astria mix);
#SUBTITLE:;
#ARTIST:Crunky boy (featuring Muhammad);
#TITLETRANSLIT:;
#SUBTITLETRANSLIT:;
#ARTISTTRANSLIT:;
#CREDIT:;
#BANNER:Queen's Jamaica (astria mix).png;
#BACKGROUND:Queen's Jamaica (astria mix)-bg.png;
#LYRICSPATH:;
#CDTITLE:./CDTITLES/HIP-HOP DASH.PNG;
#MUSIC:Queen's Jamaica (astria mix).ogg;
#OFFSET:0.000;
#SAMPLESTART:2.553;
#SAMPLELENGTH:15.000;
#SELECTABLE:YES;
#DISPLAYBPM:94.000;
#BPMS:0.000=94.000;
#STOPS:;
#BGCHANGES:;

//---------------dance-single - ----------------
#NOTES:
     dance-single:
     :
     Easy:
     3:
     0.227,0.225,0.061,0.000,0.000:
0000
0000
0000
0000
,
0000
0000
0000
0000
,
0000
0000
0000
0000
,
0000
0000
0000
0000
,
0000
0000
0000
0000
,
0000
0001
0000
1000
0000
0010
0000
0100
,
0000
0001
0000
1000
0000
0010
0000
1001
,
0000
0001
0000
1000
0000
0010
0000
0100
,
0000
1000
0000
0001
0000
0100
0010
1001
,
0000
0001
0000
1000
0000
0010
0100
1001
,
0000
0001
0000
0100
0000
0010
0100
1001
,
0000
0010
0000
1000
0000
0001
0000
0100
,
0000
0010
0000
0100
0000
0001
1000
0100
,
0001
1000
0000
0001
0000
1000
0000
0010
,
0000
0100
0001
1000
0010
0100
0001
1000
,
0000
0001
0000
0010
0000
0100
0000
0010
,
0000
1000
0001
0010
0100
0001
1000
0100
,
0001
1000
0000
1000
0000
0010
0000
0100
,
0000
0010
0000
0100
0000
0001
0000
1000
,
0001
1000
0000
0001
0000
0010
0000
0100
,
0000
1000
0000
0010
0000
0100
0010
0001
,
1000
0001
0000
0001
0000
0110
0000
1000
,
0000
0010
0000
1000
0000
0001
0000
0001
,
1000
0001
0000
0001
0000
0010
1000
0001
,
0000
1000
0000
0001
0000
0100
0000
0100
,
0001
1000
0000
0001
0000
0100
0000
0010
,
0000
0001
0000
1000
0000
0100
0010
0001
,
1000
0001
0000
1000
0000
0010
0000
0001
,
0000
1000
0000
0100
0000
0010
0100
0001
,
1000
0001
0000
0100
0000
0100
0000
1000
,
0000
0100
0000
0001
0000
0100
0000
0000
;

//---------------dance-single - ----------------
#NOTES:
     dance-single:
     :
     Medium:
     5:
     0.245,0.263,0.220,0.000,0.000:
0000
0000
0000
0000
,
0000
0000
0000
0000
,
0000
0000
0000
0000
,
0000
0000
0000
0000
,
0000
0000
0000
0000
,
0000
0001
0000
1000
0000
0010
0000
0100
,
0000
0001
0010
0100
1000
0100
0010
1001
,
0000
0001
0000
1000
0000
0010
0000
0100
,
0000
1000
0100
0010
0001
0010
0100
1001
,
0000
0001
0000
1000
0000
0010
0100
1001
,
0000
0001
0000
0100
0000
1000
0110
1001
,
0000
0010
0000
0101
0000
0010
0000
1100
,
0000
0010
0000
0100
0000
0001
1000
0100
,
0001
1000
0000
0001
0000
1100
0000
0011
,
0000
0100
0001
1000
0010
0100
0001
1000
,
0000
0001
0000
1010
0000
0101
0000
0010
,
0000
1000
0001
0010
0100
0001
1000
0100
,
0001
1000
0000
1000
0000
0011
0000
1100
,
0000
0010
0000
0100
0000
0001
0000
1000
,
0001
1000
0000
0001
0000
1010
0000
0101
,
0000
1000
0000
0010
0000
0100
0010
0001
,
1000
0001
0000
0001
0000
0110
0000
1000
,
0000
0010
0000
1000
0000
0000
0001
0001
,
1000
0001
0000
0001
0000
0000
1000
0001
,
0000
1100
0000
0011
0000
0100
0010
1000
,
0001
1000
0000
1000
0000
0010
0000
0100
,
0000
0000
0000
1000
0000
0100
0010
0001
,
1000
0001
0000
1000
0000
0000
0000
0001
,
0000
0000
0000
0000
0000
0010
0100
0001
,
1000
0001
0000
0000
0000
0000
0000
1000
,
0000
0000
0000
0100
;

//---------------dance-single - ----------------
#NOTES:
     dance-single:
     :
     Hard:
     7:
     0.280,0.301,0.245,0.000,0.110:
0000
0000
0000
0000
,
0000
0000
0000
0000
,
0000
0000
0000
0000
,
0000
0000
0000
0000
,
0000
0000
0000
0000
,
0000
0001
0000
1000
0000
0010
0000
0100
,
0000
0001
0010
0100
1000
0101
0010
1100
,
0000
0001
0000
1000
0000
0010
0000
0100
,
0000
1000
0100
0010
0001
1010
0100
0011
,
0000
0001
0000
1000
0000
0010
1001
0110
,
0000
0001
0000
0100
0000
0001
0110
1001
,
0000
1100
0000
0101
0000
0011
0000
1010
,
0000
0100
0000
0010
0000
1000
0001
0100
,
0001
0010
0001
0010
0000
0000
0001
0000
0000
0000
1100
0000
0000
0000
0011
0000
,
0000
0100
0001
1000
0010
0100
0001
1000
,
0000
0010
0000
1000
0000
0001
0000
0100
,
0000
0001
1000
0010
0100
0001
1000
0010
,
1000
0100
1000
0100
0000
0000
1000
0000
0000
0000
0011
0000
0000
0000
1100
0000
,
0000
0010
0000
0100
0000
0001
0000
1000
,
0001
1000
0001
1000
0000
0000
0010
0000
0000
0000
0101
0000
0000
0000
1010
0000
,
0000
0100
0000
0001
0000
0100
0010
0001
,
1000
0001
1000
0001
0000
0000
0100
0000
0000
0000
0010
0010
0000
0000
0100
0000
,
0000
0001
0000
1000
0000
0000
0100
0010
,
1000
0001
1000
0001
0000
0000
1000
0000
0000
0000
0000
0000
0100
0000
0010
0000
,
0000
1100
0000
0011
0000
0100
0010
1000
,
0001
1000
0001
1000
0000
0000
0010
0000
0000
0000
0100
0000
0000
0000
1000
0001
,
0000
0000
0000
1000
0000
0100
0010
0001
,
1000
0000
0001
0000
0000
0000
1000
0000
0000
0000
0000
0000
0000
0000
0001
1000
,
0000
0000
0000
0000
0000
0010
0100
0001
,
1000
0001
1000
0001
0000
0000
0000
0000
0000
0000
0000
0000
0000
0000
1000
0001
,
0000
0000
0000
0100
;

//---------------dance-double - ----------------
#NOTES:
     dance-double:
     :
     Easy:
     4:
     0.227,0.263,0.049,0.000,0.000:
00000000
00000000
00000000
00000000
,
00000000
00000000
00000000
00000000
,
00000000
00000000
00000000
00000000
,
00000000
00000000
00000000
00000000
,
00000000
00000000
00000000
00000000
,
00000000
00001000
00000000
00010000
00000000
00001000
00000000
00100000
,
00000000
00010000
00100000
01000000
10000000
01000000
00100000
10010000
,
00000000
00010000
00000000
00001000
00000000
00000010
00000000
00000100
,
00000000
00001000
00000100
00000010
00000001
00000010
00000100
00001001
,
00000000
00010000
00000000
00001000
00000000
00100000
01000000
10010000
,
00000000
01000000
00000000
00001000
00000000
00010000
00000010
00001001
,
00000000
00000100
00000000
00000001
00000010
00000100
00010000
00001000
,
00100000
01000000
10000000
00010000
00000000
10000000
00100000
01000000
,
00010000
10000000
00000000
01000000
00000000
00001000
00000000
00010000
,
00000000
00000100
00001000
00000001
00000010
00000100
00001000
00000001
,
00000000
00001000
00000000
00000100
00000000
00010000
00000000
00001000
,
00000000
01000000
00010000
00100000
01000000
10000000
00010000
01000000
,
00010000
10000000
00000000
01000000
00000000
00001000
00000000
00010000
,
00000000
00000010
00000000
00000100
00000000
00000001
00000000
00001000
,
00000001
00001000
00000000
00001000
00000000
00000100
00000000
00010000
,
00000000
00001000
00000000
01000000
00000000
00100000
10000000
00010000
,
10000000
00010000
00000000
00010000
00000000
01000000
00000000
00001000
,
00000000
00010000
00000000
00000100
00000000
00000000
00001000
00000001
,
00001000
00000001
00000000
00000001
00000000
00000000
00001000
00001000
,
00000000
00000100
00000000
00010000
00000000
00001000
01000000
00010000
,
00001000
00010000
00000000
00010000
00000000
00001000
00000000
01000000
,
00000000
00000000
00000000
10000000
00000000
01000000
00010000
00001000
,
00000100
00001000
00000000
00000001
00000000
00000000
00000000
00010000
,
00000000
00000000
00000000
00000000
00000000
00000010
00000100
00000001
,
00001000
00000001
00000000
00000000
00000000
00000000
00000000
00010000
,
00000000
00000000
00000000
00000100
;

//---------------dance-double - ----------------
#NOTES:
     dance-double:
     :
     Medium:
     7:
     0.268,0.301,0.159,0.000,0.110:
00000000
00000000
00000000
00000000
,
00000000
00000000
00000000
00000000
,
00000000
00000000
00000000
00000000
,
00000000
00000000
00000000
00000000
,
00000000
00000000
00000000
00000000
,
00000000
00000010
00000000
00010000
00000000
00001000
00000000
01000000
,
00000000
00010000
00100000
01000000
10000000
01010000
00100000
11000000
,
00000000
01000000
00000000
00001000
00000000
00010000
00000000
00000010
,
00000000
00001000
00000100
00000010
00000001
00001010
00000100
00000011
,
00000000
00000100
00000000
00010000
00000000
01000000
10010000
01100000
,
00000000
00010000
00000000
00001000
00000000
00010000
00000010
00001001
,
00000000
00000100
00000000
00000011
00000000
00001100
00000000
00011000
,
00000000
01010000
00000000
10100000
00000000
01000000
00010000
00000100
,
00010000
00001000
00010000
00001000
00000000
00000000
01000000
00000000
00000000
00000000
00001000
00000000
00000000
00000000
00010000
00000000
,
00000000
00000100
00001000
00000001
00000010
00000100
00001000
00000001
,
00000000
00001010
00000000
00000100
00000000
00010000
00000000
00001000
,
00000000
01000000
00010000
00100000
01000000
10000000
00010000
01000000
,
10000000
00100000
10000000
00100000
00000000
00000000
01000000
00000000
00000000
00000000
00001000
00000000
00000000
00000000
00010000
00000000
,
00000000
00000010
00000000
00000100
00000000
00000001
00000000
00001000
,
00000001
00001000
00000001
00001000
00000000
00000000
00000001
00000000
00000000
00000000
00000010
00000000
00000000
00000000
00000100
00000000
,
00000000
00010000
00000000
00001000
00000000
01000000
00100000
00010000
,
10000000
00010000
10000000
00010000
00000000
00000000
00010000
00000000
00000000
00000000
01000000
01000000
00000000
00000000
00001000
00000000
,
00000000
00010000
00000000
00000100
00000000
00000000
00001000
00000001
,
00001000
00000001
00001000
00000001
00000000
00000000
00001000
00000000
00000000
00000000
00000000
00000000
00000001
00000000
00001000
00000000
,
00000000
00000100
00000000
00010000
00001000
00000000
00010000
00001000
,
00010000
00001000
00010000
00001000
00000000
00000000
00010000
00000000
00000000
00000000
00001000
00000000
00000000
00000000
01000000
00010000
,
00000000
00000000
00000000
10000000
00000000
01000000
00010000
00001000
,
00000100
00000000
00001000
00000000
00000000
00000000
00000001
00000000
00000000
00000000
00000000
00000000
00000000
00000000
00000100
00000010
,
00000000
00000000
00000000
00000000
00000000
00000010
00000100
00000001
,
00001000
00000001
00001000
00000001
00000000
00000000
00000000
00000000
00000000
00000000
00000000
00000000
00000000
00000000
00001000
00010000
,
00000000
00000000
00000000
01000000
;
