#TITLE:PARANOiA MAX (CLUB VER.);
#ARTIST:190;
#BANNER:PARANOiA MAX (CLUB VER.).png;
#BACKGROUND:PARANOiA MAX (CLUB VER.)-bg.png;
#CDTITLE:./CDTITLES/HOUSE LABEL.PNG;
#MUSIC:PARANOiA MAX (CLUB VER.).ogg;
#SAMPLESTART:1.262;
#SAMPLELENGTH:15;
#DISPLAYBPM:190;
#BPMS:0=190.131; //#BPMS:0=189.3,4=189.861,35=198.306,37=189.515,66=192.618,68=203.257,69=189.489,98=197.699,100=193.407,101=189.639,130=189.358,132=194.416,133=189.959,164=193.379,166=189.197,171=198.165,173=189.539,202=196.466,204=198.069,205=189.669,219=187.195,221=189.542,229=198.173,230=188.848,234=192.583,236=189.297,237=190.168,267=195.688,269=189.49,291=189.392,292=197.036,293=189.49;

//---------------dance-single - ----------------
#NOTES:
     dance-single:
     :
     Easy:
     6:
     :
0000
0000
0000
0000
,
0000
0000
0000
0000
,
0000
0000
0000
0000
,
0000
0000
0000
0000
,
0000
0000
0000
0000
,
0000
0000
0000
0000
,
0000
0000
0000
0000
,
0000
0001
0000
0010
,
0000
1000
0000
0010
,
1000
0010
1000
0010
,
1000
0100
1000
0010
,
0001
0001
1000
1000
,
0010
0010
0100
0100
,
0001
0010
0100
1000
,
1000
0010
0100
0001
,
1000
0100
0001
0100
,
0100
0000
0100
0000
,
0010
0010
0100
0100
,
0010
0100
0010
1001
,
0010
0001
0010
1000
,
0010
0000
0100
0000
0010
0001
1000
0000
,
0001
0001
1000
1000
,
0100
0100
1001
1001
,
1000
0001
1000
0000
0001
1000
0001
0000
,
0010
1000
0010
0000
0101
0000
0000
0000
,
0010
0001
0100
0001
,
0010
0001
0100
0001
,
0010
0001
0010
0001
,
0010
0001
0100
1000
,
0100
0001
0100
1000
,
0100
1000
0100
0001
,
0010
0001
0100
0001
,
0010
0001
0100
0110
,
0010
0000
0000
1001
0000
0000
0100
0000
,
0000
1000
0000
0001
0100
0001
1000
0000
,
0010
0000
0000
1001
0000
0000
0100
0000
,
0000
0001
0000
1000
0100
1000
0001
0000
,
0010
0000
0000
1001
0000
0000
0100
0000
,
0000
1000
0000
0001
0100
0001
1000
0000
,
0010
0000
0000
1001
0000
0000
0100
0000
,
0000
0001
0000
1000
0100
1000
0001
0000
,
0010
0000
0001
0001
,
0000
1000
1000
1000
,
0010
1001
1010
0001
,
0100
0100
1100
0101
,
0010
0100
0110
1000
,
0011
1000
0101
1100
,
0001
0001
0100
1001
,
0110
0001
1100
0101
,
0100
1010
0001
0010
,
1001
0010
0101
1100
,
1001
0100
0001
0100
,
1001
0100
1000
0100
,
1001
0001
0001
0100
,
1001
1000
1000
0100
,
0001
0001
1000
1000
,
0010
0010
0010
0010
,
1001
0100
0100
0100
,
1001
1000
0100
0001
,
0001
0000
0000
0010
0000
0000
1000
0000
,
0000
0001
0000
0001
1000
0100
0100
0000
,
1000
0000
0000
0010
0000
0000
0001
0000
,
0000
1000
0000
1000
0001
0100
0100
0000
,
0001
0000
0000
0010
0000
0000
1000
0000
,
0000
0001
0000
0001
1000
0100
0100
0000
,
1000
0000
0000
0010
0000
0000
0001
0000
,
0000
1000
0000
1000
0001
0100
0100
0000
,
1000
1000
0001
0000
0001
0001
1000
0000
,
1000
1000
0001
0000
0001
0001
1000
0000
,
0001
0001
0001
0000
1000
1000
0001
0001
,
1000
1000
1000
0000
0001
0001
0100
0000
,
1001
0001
0100
1000
,
0010
0001
1000
1000
,
0010
0100
0011
1100
,
0001
0100
0010
0000
;

//---------------dance-single - ----------------
#NOTES:
     dance-single:
     :
     Medium:
     7:
     :
0000
0000
0000
0000
,
0000
0000
0000
0000
,
0000
0000
0000
0000
,
0000
0000
0000
0000
,
0000
0000
0000
0000
,
0000
0000
0000
0000
,
0000
0000
0000
0000
,
0010
0010
0010
0100
,
0010
0000
0010
0000
0010
1000
0100
0000
,
0010
0000
0100
0000
0010
0100
0001
0000
,
0110
0100
1001
0100
,
0010
0000
1000
0001
0100
0000
1000
0000
,
0010
0000
0001
1000
0010
0000
0100
0000
,
1001
0110
1001
0000
,
0100
0100
0100
0100
,
1001
0010
0010
0010
,
0011
1000
1000
1000
,
0010
0100
1100
0100
,
0010
0000
1001
0000
0010
0010
1001
0000
,
0100
0010
0010
1000
,
0001
0000
0010
0000
1000
0100
0001
0000
,
0001
1000
0010
0100
,
0001
0100
1000
0100
,
0010
1010
0100
0101
,
1100
1010
1001
0000
,
0100
0100
0010
0010
,
1000
0010
1000
0100
,
0010
0001
0010
0001
,
0100
1000
0100
1000
,
1000
1000
0001
0001
,
0001
1000
1000
1000
,
0100
0010
1000
0001
,
0001
1000
0010
0100
,
1000
0000
0000
0011
0000
0000
0011
0000
,
0000
1000
0000
0100
0001
0100
0100
0000
,
1000
0000
0000
0011
0000
0000
0011
0000
,
0000
1000
0000
0100
0001
0100
0100
0000
,
1000
0000
0000
0011
0000
0000
0011
0000
,
0000
1000
0000
0100
0001
0100
0100
0000
,
1000
0000
0000
0011
0000
0000
0011
0000
,
0000
1000
0000
0100
0001
0100
0100
0000
,
0010
0000
0001
0001
,
0000
1000
1000
1000
,
0010
0010
0010
0010
,
1001
0100
1000
0100
,
0001
1000
0010
0100
,
0101
1100
0011
1010
,
1000
1000
0001
0001
,
1000
0100
0010
0010
,
0010
1000
0100
1001
,
0100
1000
0010
1001
,
0010
0010
1100
1100
,
0001
0000
0001
0000
0001
0100
1000
0000
,
1001
0000
0100
0000
0001
0010
0100
0000
,
1001
0000
0100
0000
0010
1000
0100
0000
,
1000
0100
0001
0100
,
0001
1000
0001
0000
0001
1000
0100
0000
,
1001
0000
1001
0000
0010
0100
0010
0000
,
0010
0000
0100
0000
0001
1000
0100
0000
,
1001
0000
0000
0110
0000
0000
1001
0000
,
0000
0010
0000
0001
0100
1000
1000
0000
,
1001
0000
0000
0110
0000
0000
1001
0000
,
0000
0010
0000
0001
0100
1000
1000
0000
,
1001
0000
0000
0110
0000
0000
1001
0000
,
0000
0010
0000
0001
0100
1000
1000
0000
,
1001
0000
0000
0110
0000
0000
1001
0000
,
0000
0010
0000
0001
0100
1000
1000
0000
,
1000
0100
1000
0000
0100
0001
0100
0000
,
1000
0001
1000
0001
1000
0001
0001
0000
,
0010
0100
0010
0100
0010
0100
0010
0000
,
1000
0001
1000
0001
1000
0001
1001
0000
,
1001
0100
0001
0110
,
1000
0100
0001
1000
,
0110
1000
0001
0010
,
1000
1000
0001
0000
;

//---------------dance-single - ----------------
#NOTES:
     dance-single:
     :
     Hard:
     8:
     :
0000
0000
0000
0000
,
0000
0000
0000
0000
,
0000
0000
0000
0000
,
0000
0000
0000
0000
,
0000
0000
0000
0000
,
0000
0000
0000
0000
,
0000
0000
0000
0000
,
0010
0000
0010
0000
0010
1000
0100
0000
,
0001
0001
0001
0001
,
0010
0000
0100
0000
1000
0100
0001
0100
,
0001
0100
1000
0000
0010
0000
0101
0000
,
1010
1000
0100
0000
0001
0000
0100
0000
,
0001
0000
0100
0000
1000
1000
0010
0000
,
0001
1000
0010
0100
,
1000
0100
0010
0001
0110
0000
1001
0000
,
0110
1001
0110
1001
,
1001
0110
1001
0110
,
1000
0100
0001
0000
0001
0100
1000
0000
,
1000
0001
1000
0001
0010
0100
0010
0000
,
0010
0000
0001
1000
0100
0010
0001
0000
,
0010
0000
0001
1000
0100
0010
0001
0000
,
0001
0000
1100
0000
1000
0001
1000
0000
,
0001
1000
0001
0000
1000
0001
1000
0000
,
0110
0011
1100
0001
,
1001
1010
0101
0000
,
0001
0101
0001
0001
,
1000
1100
1000
1000
,
0010
1000
0001
0100
,
0001
1000
0001
1000
,
0010
0010
0010
0010
,
1001
0101
1000
0100
,
0010
0010
0001
0001
,
0100
0100
1000
1000
,
0100
0000
0000
0001
0000
0000
1001
0000
,
0000
0001
0000
0001
0100
0001
0001
0000
,
0100
0000
0000
0001
0000
0000
1001
0000
,
0000
0001
0000
0001
0100
0001
0001
0000
,
0100
0000
0000
0001
0000
0000
1001
0000
,
0000
0001
0000
0001
0100
0001
0001
0000
,
0100
0000
0000
0001
0000
0000
1001
0000
,
0000
0001
0000
0001
0100
0001
0001
0000
,
0010
0000
0001
0001
,
0000
1000
1000
1000
,
1001
0010
1001
0100
,
0100
0000
1000
0000
0010
0001
0010
0000
,
0110
1001
0110
1000
,
0100
0110
0010
1001
,
0010
0001
0010
1000
,
0010
0000
0100
0000
0001
1000
0100
0000
,
1010
1100
0001
0100
,
0001
0100
1000
1010
,
1000
0100
0010
0000
0001
0100
0010
0000
,
1000
0100
0010
0100
0001
0100
0010
0000
,
1000
1000
1000
0100
,
0001
0001
0001
0010
,
1000
0001
1000
0001
1000
0001
1000
0001
,
1000
0010
1000
0010
1000
0100
1000
0000
,
0100
0001
1000
0100
,
1000
0001
0100
0001
,
1100
0000
0000
0101
0000
0000
1001
0000
,
0000
1001
0000
0100
0010
0100
0010
0000
,
1100
0000
0000
0101
0000
0000
1001
0000
,
0000
1001
0000
0100
0010
0100
0010
0000
,
1100
0000
0000
0101
0000
0000
1001
0000
,
0000
1001
0000
0100
0010
0100
0010
0000
,
1100
0000
0000
0101
0000
0000
1001
0000
,
0000
1001
0000
0100
0010
0100
0010
0000
,
0010
0001
0010
0001
0010
0001
0010
0000
,
1000
0001
1000
0001
1000
0001
1000
0000
,
1000
0010
1000
0001
1000
0010
1000
0000
,
0010
1000
0001
0100
0001
0010
0001
0000
,
1000
0001
1000
0010
1000
0100
1000
0000
,
0010
1000
0100
0010
0001
0100
1000
0000
,
1100
1001
1010
1001
,
0011
1001
0101
0000
;

//---------------dance-double - ----------------
#NOTES:
     dance-double:
     :
     Easy:
     7:
     :
00000000
00000000
00000000
00000000
,
00000000
00000000
00000000
00000000
,
00000000
00000000
00000000
00000000
,
00000000
00000000
00000000
00000000
,
00000000
00000000
00000000
00000000
,
00000000
00000000
00000000
00000000
,
00000000
00000000
00000000
00000000
,
01100000
10010000
11000000
10010000
,
00010000
00010000
00010000
00010000
,
00010000
01000000
00010000
01000000
,
00010000
10000000
00010000
10000000
,
00001000
01000000
00001000
01000000
,
00001000
00100000
00001000
00100000
,
00001000
00000010
00001000
00010000
,
00001000
00000010
00001000
00010000
,
01001000
00010000
01001000
00010000
,
00010100
00001000
00010100
00001000
,
00001000
00000100
00001000
00010000
,
00001000
00000100
00001000
00010000
,
00000100
00000001
00000100
00001000
,
00000100
00000001
00000100
00001000
,
00001001
00001000
00001001
00001000
,
00001001
00001000
00001001
00001000
,
00010010
00001000
00010010
00001000
,
00010010
00001000
00010010
00001000
,
00010000
00010000
00010000
00010000
,
00001000
00001000
00001000
00001000
,
01001000
00011000
01001000
00011000
,
00101000
00011000
00010100
00011000
,
00010000
00010000
00010000
00010000
,
00010010
00011000
00010100
00011000
,
00010000
00010000
00010000
00010000
,
00001000
00001000
00001000
00001000
,
01100000
00000000
00000000
00011000
00000000
00000000
00000110
00000000
,
00000000
00001000
00000000
00000001
00001000
00000010
00000100
00000000
,
00000110
00000000
00000000
00011000
00000000
00000000
01100000
00000000
,
00000000
00010000
00000000
10000000
00010000
00100000
01000000
00000000
,
01100000
00000000
00000000
00011000
00000000
00000000
00000110
00000000
,
00000000
00001000
00000000
00000001
00001000
00000010
00000100
00000000
,
00000110
00000000
00000000
00011000
00000000
00000000
01100000
00000000
,
00000000
00010000
00000000
10000000
00010000
00100000
01000000
00000000
,
00010000
00000000
00010000
10000000
,
00000000
00100000
00010000
10000000
,
10010000
01000000
10010000
01000000
,
10010000
01000000
10010000
01000000
,
01001000
00010000
01001000
00010000
,
01001000
00010000
01001000
00010000
,
00010100
00001000
00010100
00001000
,
00010100
00001000
00010100
00001000
,
00001001
00000100
00001001
00000100
,
00001001
00000100
00001001
00000100
,
00000001
00000100
00001000
00000000
00000001
00000100
00001000
00000000
,
00000001
00000010
00001000
00000000
00000001
00000010
00001000
00000000
,
00010000
01000000
10000000
00000000
00010000
01000000
10000000
00000000
,
00010000
00100000
10000000
00000000
00010000
00100000
10000000
00000000
,
00100000
00010000
01000000
00000000
00100000
00010000
01000000
00000000
,
00100000
10000000
01000000
00000000
00100000
10000000
01000000
00000000
,
01000000
00010000
00001000
00000000
01000000
00010000
00001000
00000000
,
00000010
00010000
00001000
00000000
00000010
00010000
00001000
00000000
,
01001000
00000000
00000000
00010000
00000000
00000000
00000100
00000000
,
00000000
00001000
00000000
00010000
01000000
00010000
00001000
00000000
,
00010100
00000000
00000000
00001000
00000000
00000000
01000000
00000000
,
00000000
00010000
00000000
00001000
00000100
00001000
00010000
00000000
,
01001000
00000000
00000000
00010000
00000000
00000000
00000100
00000000
,
00000000
00001000
00000000
00010000
01000000
00010000
00001000
00000000
,
00010100
00000000
00000000
00001000
00000000
00000000
01000000
00000000
,
00000000
00010000
00000000
00001000
00000100
00001000
00010000
00000000
,
01001000
00010000
01001000
00010000
,
00000100
00000001
00001000
00010000
,
00010100
00001000
00010100
00001000
,
01000000
10000000
00010000
00001000
,
00000100
00000010
00001001
00000110
,
00000001
00000001
00000001
00000001
,
00001000
00001000
00010000
01000000
,
10000000
00100000
00100000
00000000
;

//---------------dance-double - ----------------
#NOTES:
     dance-double:
     :
     Medium:
     9:
     :
00000000
00000000
00000000
00000000
,
00000000
00000000
00000000
00000000
,
00000000
00000000
00000000
00000000
,
00000000
00000000
00000000
00000000
,
00000000
00000000
00000000
00000000
,
00000000
00000000
00000000
00000000
,
00000000
00000000
00000000
00000000
,
00100000
00100000
01000000
01000000
,
01100000
00010000
10010000
01000000
,
00100000
00010000
00000100
00001000
,
00001100
00000100
00000100
01001000
,
00010000
00000100
00000001
00000110
,
00000011
00000001
00000110
00010100
,
00001000
00010010
01001000
00100000
,
00010000
11000000
01010000
00100000
,
01100000
00010000
01000000
11000000
,
00101000
00010000
00001000
00011000
,
01000000
00100000
00100000
01000000
,
00010000
00001100
00000100
00000100
,
00000010
00000110
00001000
00010000
,
00011000
00001100
00001100
00000010
,
00000001
00000010
00000100
00010000
,
10010000
00100000
01000000
00100000
,
00010000
00010000
00001000
00001100
,
00000100
00000010
00010010
00100000
,
00010000
00010000
00010000
00010000
,
00001000
00001000
00001000
00001000
,
00010010
00011000
00001010
00011000
,
00101000
00011000
00110000
00011000
,
00010000
00010000
00010000
00010000
,
00010100
00011000
00001100
00011000
,
00001000
00001000
00001000
00011000
,
01100000
10010000
11000000
11000000
,
10100000
00000000
00000000
10010000
00000000
00000000
11000000
00000000
,
00000000
00010000
00000000
00001000
00000100
00000010
00000001
00000000
,
00000011
00000000
00000000
00001001
00000000
00000000
00000101
00000000
,
00000000
00001000
00000000
00010000
01000000
00100000
10000000
00000000
,
10100000
00000000
00000000
10010000
00000000
00000000
11000000
00000000
,
00000000
00010000
00000000
00001000
00000100
00000010
00000001
00000000
,
00000011
00000000
00000000
00001001
00000000
00000000
00000101
00000000
,
00000000
00001000
00000000
00010000
01000000
00100000
10000000
00000000
,
00100000
00000000
10000000
00010000
,
00000000
10000000
01000000
00010000
,
01000000
10010000
01000000
00011000
,
00001000
00110000
10000000
10000000
,
01000000
00100000
00010000
00000100
,
00000001
00001100
00001000
00000010
,
00010000
00001000
00001000
00101000
,
00010000
01000000
01000000
01000000
,
00100000
00010000
00001000
00010000
,
00001000
00001000
00000100
00000110
,
00000001
00000010
00000100
00000000
00001000
00000010
00000100
00000000
,
00001000
00010000
01000000
00000000
01000000
00010000
00001000
00000000
,
00100000
00001000
00010000
00000000
00000010
00010000
00001000
00000000
,
00010000
01000000
10000000
00000000
00010000
00100000
01000000
00000000
,
10000000
01000000
00100000
00000000
00010000
01000000
00100000
00000000
,
00010000
00001000
00000010
00000000
00000010
00001000
00010000
00000000
,
00000100
00010000
00001000
00000000
01000000
00001000
00010000
00000000
,
00001000
00000010
00000001
00000000
00001000
00000100
00000010
00000000
,
00001001
00000000
00000000
00000110
00000000
00000000
00000101
00000000
,
00000000
00000110
00000000
00001000
00010000
01000000
10000000
00000000
,
10010000
00000000
00000000
01100000
00000000
00000000
11000000
00000000
,
00000000
01100000
00000000
00010000
00001000
00000100
00000001
00000000
,
00001001
00000000
00000000
00000110
00000000
00000000
00000101
00000000
,
00000000
00000110
00000000
00001000
00010000
01000000
10000000
00000000
,
10010000
00000000
00000000
01100000
00000000
00000000
11000000
00000000
,
00000000
01100000
00000000
00010000
00001000
00000100
00000001
00000000
,
00000100
00000100
00011000
00100000
,
00010000
00110000
10000000
01000000
,
00010000
11000000
00100000
00010000
,
00010000
01000000
00100000
00011000
,
00010000
00100000
00001000
00000100
,
00001000
00010000
00011000
00010010
,
00001010
00001000
00011000
00100000
,
00001000
00000100
00000100
00000000
;
