#TITLE:GAMBOL;
#SUBTITLE:;
#ARTIST:SLAKE;
#TITLETRANSLIT:;
#SUBTITLETRANSLIT:;
#ARTISTTRANSLIT:;
#CREDIT:;
#BANNER:GAMBOL.png;
#BACKGROUND:GAMBOL-bg.png;
#LYRICSPATH:;
#CDTITLE:./CDTITLES/DANCE DANCE REVOLUTION CLUB VERSION.PNG;
#MUSIC:GAMBOL.ogg;
#OFFSET:0.000;
#SAMPLESTART:7.056;
#SAMPLELENGTH:15.000;
#SELECTABLE:YES;
#DISPLAYBPM:102.000;
#BPMS:0.000=102.003;
#STOPS:;
#BGCHANGES:;

//---------------dance-single - ----------------
#NOTES:
     dance-single:
     :
     Easy:
     1:
     0.129,0.163,0.013,0.000,0.000:
0000
0000
0000
0000
,
0000
0000
0000
0000
,
0000
0000
0000
0000
,
0000
0000
0000
0000
,
0000
0000
0000
0000
,
1000
0000
0000
0000
,
0001
0000
0000
0000
,
0010
0000
0000
0000
,
0100
0000
0000
0000
,
1000
0000
1000
0000
,
0001
0000
0001
0000
,
0010
0000
0010
0010
,
0100
0000
0100
0100
,
1000
0000
1000
0100
,
0001
0000
0001
0100
,
0010
1000
1000
0000
,
0100
0001
0001
0000
,
1000
0000
0001
0000
,
0001
1000
0001
1000
,
0001
0001
1000
0001
,
0010
0010
0100
0010
,
1000
0001
1000
1000
,
0100
0010
0100
0010
,
0100
1000
0100
0001
,
0100
0000
0100
0001
,
0010
0000
0010
0001
,
0010
1000
0010
0001
,
1000
1000
0001
0001
,
0010
0010
0100
0100
,
1001
0000
0000
0000
;

//---------------dance-single - ----------------
#NOTES:
     dance-single:
     :
     Medium:
     5:
     0.236,0.254,0.175,0.000,0.000:
0000
0000
0000
0000
,
0000
0000
0000
0000
,
0000
0000
0000
0000
,
0000
0000
0000
0000
,
0000
0000
0000
0000
,
0010
1001
0110
1001
,
0100
1001
0110
1001
,
1000
0010
1001
0100
,
1000
1000
0001
0000
0001
0001
1000
0000
,
1000
1000
0001
0000
0001
0001
1000
0000
,
1000
0100
0001
0010
,
1000
0010
1000
0001
,
0001
0100
0001
1000
,
0010
0100
0010
0001
,
0100
0010
0010
1000
,
0001
0000
0010
0000
1000
0100
0001
0000
,
0001
0000
0010
0000
0001
0010
1000
0000
,
0010
0000
0001
0000
0100
0001
1000
0000
,
0100
0000
0010
0000
0010
1000
0001
0000
,
0011
0100
0010
1000
,
1010
0100
0100
0001
,
1001
1000
1000
0000
0001
0001
0001
0000
,
1001
0001
1000
0000
0001
1000
1001
0000
,
0001
0001
1000
0001
,
1000
0000
1000
0000
0001
0000
1000
0100
,
0001
0000
1000
0000
0001
0100
1000
0000
,
1000
0000
0001
0010
1000
0000
0010
0000
,
0100
0100
0100
0100
0010
0010
0010
0010
,
0001
0001
0001
0001
1000
0000
1001
0000
,
0110
0000
0000
0000
;

//---------------dance-single - ----------------
#NOTES:
     dance-single:
     :
     Hard:
     8:
     0.307,0.363,0.263,0.000,0.106:
0000
0000
0000
0000
,
0000
0000
0000
0000
,
0000
0000
0000
0000
,
0000
0000
0000
0000
,
0000
0000
0000
0000
,
0010
0010
1001
0000
0100
0100
1001
0000
,
0100
0010
1001
0000
0010
0100
1001
0000
,
1000
0000
0000
0010
0100
0000
0010
0000
1001
0000
0010
0000
0100
0000
0000
0000
,
1000
0010
1000
0000
0001
0100
0001
0000
,
0100
0001
0100
0000
0010
1000
0010
0000
,
1000
0010
0001
0000
1000
0001
1000
0001
,
1000
0000
0000
0010
0000
0000
0000
0000
0100
0000
0001
0000
1000
0000
0000
0000
,
0001
0000
0000
0100
0000
0000
0000
0000
0010
0000
1000
0000
0001
0000
0000
0000
,
0010
0000
0000
0100
0000
0000
0000
0000
0001
0000
0100
0000
1000
0000
0000
0000
,
0100
0000
0000
0010
0000
0000
0000
0000
1000
0000
0100
0000
0001
0000
0000
0000
,
0101
0000
0000
0000
0000
0010
0100
0000
0001
0000
1000
0000
0100
0000
0000
0000
,
1100
0000
0000
0000
0000
0010
0100
0000
1000
0000
0000
0000
0100
0000
0000
0000
,
1010
0000
0000
0000
0000
0100
0010
0000
1000
0000
0000
0000
0010
0000
0000
0000
,
1100
0000
0000
0000
0000
0100
0010
0000
1000
0000
0001
0000
0100
0000
0000
0000
,
1000
0100
0001
0000
0001
0100
1000
0000
,
1001
0000
0100
1000
0100
0010
0001
0000
,
0010
1000
0001
0100
0001
0010
0001
0000
,
1010
0000
0000
0000
1001
0000
0000
0000
1100
0000
0000
0000
1000
0001
0000
0000
,
0001
1000
0000
0000
0001
0000
0000
0100
1000
0000
0010
0000
0001
0000
0100
0000
,
1000
0001
0000
0000
1000
0000
0000
0100
0001
0000
0010
0000
1000
0000
0100
0000
,
0001
1000
0000
0000
0001
0000
0000
0010
1000
0000
0100
0000
0001
0000
0010
0000
,
0001
1000
0000
0000
0001
0000
0100
0000
1000
0000
0010
0000
0001
0000
0100
0000
,
0000
1010
1000
1000
1001
0001
0101
0001
,
0101
0001
1001
1000
1010
1000
1001
0000
,
0110
0000
0000
0000
;

//---------------dance-double - ----------------
#NOTES:
     dance-double:
     :
     Easy:
     4:
     0.248,0.272,0.200,0.000,0.000:
00000000
00000000
00000000
00000000
,
00000000
00000000
00000000
00000000
,
00000000
00000000
00000000
00000000
,
00000000
00000000
00000000
00000000
,
00000000
00000000
00000000
00000000
,
00100000
10010000
01000000
00010000
,
00001000
00000000
00001001
00000000
00000001
00000001
00001001
00000000
,
00011000
00000000
00100000
00000000
10000000
10000000
10010000
00000000
,
10000000
00010000
00010000
00000000
00001000
00000000
00011000
00000000
,
00100000
00011000
00000010
00011000
,
00010000
01000000
00010000
01000000
,
10010000
00000000
00100000
00000000
00001000
00010000
00001000
00000000
,
00000001
00000000
00000100
00000000
00010000
00001000
00010000
00000000
,
10000000
00000000
00100000
00000000
00010000
00000000
00001000
00000001
,
00001000
00000000
00000010
00000000
00001000
00010000
01000000
00000000
,
10000000
01000000
10000000
00000000
01010000
00000000
00010000
00000000
,
00001000
00000010
00001000
00000000
00000010
00000000
00011000
00000000
,
00010000
00000000
00100000
01000000
10000000
00000000
00010000
00000000
,
00000100
00000000
00000010
00000000
00000001
00000000
00001000
00010000
,
00001000
00010000
00010000
00000000
10000000
01000000
00100000
00000000
,
00001000
00000000
00001000
00000000
00000001
00001000
00001000
00010000
,
01000000
00000000
10000000
00100000
00010000
00100000
00010000
00000000
,
00010000
00000000
00001000
00000100
00000001
00000000
00001000
00000000
,
00010000
00000000
10100000
00000000
10000000
00000000
01010000
00010000
,
00001000
00000000
00000110
00000000
00001001
00000000
00001000
00001000
,
00010000
00000000
00010000
01000000
10000000
00000000
00010000
00010000
,
00001000
00000000
00000001
00001000
00000001
00000000
00001000
00000000
,
00000000
00000001
00001000
00000001
00000000
00000001
00000100
00001000
,
00000000
00010000
00001000
00010000
00000000
10000000
01000000
00000000
,
01100000
00000000
00000000
00000000
;

//---------------dance-double - ----------------
#NOTES:
     dance-double:
     :
     Medium:
     7:
     0.286,0.308,0.275,0.000,0.081:
00000000
00000000
00000000
00000000
,
00000000
00000000
00000000
00000000
,
00000000
00000000
00000000
00000000
,
00000000
00000000
00000000
00000000
,
00000000
00000000
00000000
00000000
,
00100000
00100000
10010000
00000000
01000000
00100000
00010000
00000000
,
00000100
00000010
00001001
00000000
00000100
00000010
00001001
00000000
,
00011000
00000000
00000000
00100000
00000000
00000000
00000000
00000000
10010000
00000000
00000000
00000000
00010000
00000000
00000000
00000000
,
00001000
00010000
00011000
00000000
00001100
00000000
00011000
00000000
,
01010000
00011000
00000000
00011000
,
01000000
00100000
00010000
00000000
00000100
00001000
00010000
00000000
,
10010000
00000000
00000000
00100000
00000000
00000000
00000000
00000000
00100000
00000000
00010000
00000000
00001000
00000000
00000000
00000000
,
00000001
00000000
00000000
00000100
00000000
00000000
00000000
00000000
00000100
00000000
00001000
00000000
00010000
00000000
00000000
00000000
,
10010000
00000000
00000000
01000000
00000000
00000000
00000000
00000000
00100000
00000000
00010000
00000000
00001000
00000000
00000000
00000000
,
00000001
00000000
00000000
00000010
00000000
00000000
00000000
00000000
00000100
00000000
00001000
00000000
00010000
00000000
00000000
00000000
,
10010000
00000000
00000000
00100000
00000000
00000000
00000000
00000000
01000000
00000000
00100000
00000000
00010000
00000000
00000000
00000000
,
00001000
00000000
00000000
00000100
00000000
00000000
00001000
00000000
00000010
00000000
00001000
00000000
00010000
00000000
00000000
00000000
,
10000000
00000000
00000000
00100000
00000000
00000000
00010000
00000000
10000000
00000000
00100000
00000000
00010000
00000000
00000000
00000000
,
00001000
00000000
00000000
00000010
00000000
00000000
00000000
00000000
00000001
00000000
00000100
00000000
00001000
00000000
00000000
00000000
,
00010000
01000000
10000000
01000000
10010000
00000000
00001000
00000000
,
00001000
00000010
00000001
00000010
00001001
00000000
00010000
00000000
,
10000000
00100000
10000000
01000000
10000000
00000000
00010000
00000000
,
00001000
00000100
00000010
00000100
00001000
00000000
00010000
00000000
,
00010000
10000000
00000000
00000000
10010000
00000000
00000000
00000000
00010000
00000000
00001000
00000000
00000100
00000000
00000000
00000000
,
00001000
00000001
00000000
00000000
00000110
00000000
00000000
00000000
00000010
00000000
00001001
00000000
00000100
00000000
00000010
00000000
,
00000001
00001000
00000000
00000000
00001000
00000000
00000100
00000000
00001000
00000000
00010000
00000000
00100000
00000000
00000000
00000000
,
10000000
00010000
00000000
00000000
00010000
00000000
01000000
00000000
10000000
00000000
00000000
00000000
01100000
00000000
00000000
00000000
,
10010000
01000000
00100000
00010000
00100000
01000000
00100000
00010000
,
00001000
00000100
00000010
00000001
00000010
00000001
00000010
00000000
,
00001001
00000000
00000000
00000000
;
