#TITLE:ちょっときいてな (ZANSHIN-NA MIX);
#ARTIST:Laugh & Peace;
#TITLETRANSLIT:CHOTTO KIITENA (ZANSHIN-NA MIX);
#BANNER:CHOTTO KIITENA (ZANSHIN-NA MIX).png;
#BACKGROUND:CHOTTO KIITENA (ZANSHIN-NA MIX)-bg.png;
#CDTITLE:./CDTITLES/DANCE DANCE REVOLUTION CLUB VERSION.PNG;
#MUSIC:CHOTTO KIITENA (ZANSHIN-NA MIX).ogg;
#OFFSET:1.463;
#SAMPLESTART:17.561;
#SAMPLELENGTH:15;
#BPMS:0=164;

//---------------dance-single - ----------------
#NOTES:
     dance-single:
     :
     Easy:
     3:
     :
0000
0000
0000
0000
,
0000
0000
0000
0000
,
0000
0000
0000
0000
,
0000
0000
0000
0000
,
0000
0000
0000
0000
,
1000
0000
0001
0000
,
1000
0000
0001
0000
,
0010
0000
0010
0010
,
1000
0001
0000
0001
,
1000
1000
1000
1000
,
0001
0001
1000
1000
,
0001
0001
0001
0001
,
1000
1000
0001
0001
,
1000
0000
0001
0000
,
0010
0100
0010
0000
,
0001
0000
1000
0000
,
0010
0100
0010
0000
,
1000
0000
0001
0000
,
0010
0100
0010
0000
,
0001
0000
1000
0000
,
0010
0100
0010
0000
,
1000
0000
0010
0000
,
0001
1000
0010
0000
,
0001
0000
0100
0000
,
1000
0001
1000
0000
,
1000
0000
1000
0000
,
0001
0010
0001
0000
,
0001
0000
0001
0000
,
1000
0010
1000
0000
,
1000
0000
1000
0000
,
0001
0010
0001
0000
,
0001
0000
0001
0000
,
0001
0100
0001
0000
,
1000
0000
1000
0000
,
0001
0001
0001
0000
,
0001
0000
0001
0000
,
1000
0100
1000
0000
,
1000
0000
1000
0000
,
0001
0001
0001
0000
,
0001
0000
0001
0000
,
0001
0010
0001
0000
,
1000
0001
1000
0001
,
1000
0010
0100
0000
,
0001
1000
0001
1000
,
0100
0010
0100
0000
,
1000
0001
1000
0001
,
1000
0010
0100
0000
,
0001
1000
0001
1000
,
0010
0100
0010
0000
,
0010
1000
0010
0001
,
0010
0100
0010
0000
,
0100
0001
0100
1000
,
0001
1000
0001
0000
,
0010
1000
0010
0001
,
0010
0100
0010
0000
,
0100
0001
0100
1000
,
1000
0001
1000
0000
,
1000
0010
0100
0001
,
0010
0100
1000
0001
,
0001
0100
0010
1000
,
1000
0100
0010
0001
,
1000
1000
0001
0001
,
0001
0010
0100
1000
,
0100
1000
0001
1000
,
0100
0100
0000
0000
;

//---------------dance-single - ----------------
#NOTES:
     dance-single:
     :
     Medium:
     4:
     :
0000
0000
0000
0000
,
0000
0000
0000
0000
,
0000
0000
0000
0000
,
0000
0000
0000
0000
,
0000
0000
0000
0000
,
1000
0000
1000
0001
0000
1000
0001
1000
,
0001
0000
1000
0001
0000
0000
0000
0000
,
0010
0000
0000
0000
0010
0100
0010
0000
,
1000
0000
0001
0000
0000
1000
0001
0000
,
1000
1000
1000
1000
,
0001
0001
1000
1000
,
0001
0001
0001
0001
,
1000
0000
1000
0000
0001
1000
0001
0000
,
1000
1000
0001
0001
,
0010
0100
0010
0000
,
0001
0001
1000
1000
,
0010
0100
0010
0000
,
1000
1000
0001
0001
,
0010
0100
0010
0000
,
0001
0001
1000
1000
,
0010
0100
0010
0000
,
1000
0001
0010
0100
,
0001
1000
0010
0000
,
0001
1000
0100
0010
,
1000
0001
1000
0001
1000
0000
0000
0000
,
1000
0100
1000
0100
,
0001
0010
0001
0000
,
0001
0010
0001
0010
,
1000
0010
1000
0010
1000
0000
0000
0000
,
1000
0100
1000
0100
,
0001
0010
0001
0000
,
0001
0010
0001
0010
,
0001
0100
0001
0100
0001
0000
0000
0000
,
1000
0001
1000
1000
,
0001
0001
0001
0000
,
0001
1000
0001
0001
,
1000
0100
1000
0100
1000
0000
0000
0000
,
1000
0001
1000
1000
,
0001
0001
0001
0000
,
0001
1000
0001
0001
,
0001
0010
0001
0010
0001
0000
0000
0000
,
1000
0001
1000
0001
1000
0000
0001
0000
,
1000
0010
0100
0000
,
0001
1000
0001
1000
0001
0000
1000
0000
,
0100
0010
0100
0010
0100
0000
0000
0000
,
1000
0001
1000
0001
1000
0000
0001
0000
,
1000
0010
0100
0000
,
0001
1000
0001
1000
0001
0000
1000
0000
,
0010
0100
0010
0100
0010
0000
0000
0000
,
0010
1000
0010
0001
,
0010
0100
0010
0000
,
0100
0001
0100
1000
,
0001
1000
0001
1000
0001
0000
0000
0000
,
0010
1000
0010
0001
,
0010
0100
0010
0000
,
0100
0001
0100
1000
,
1000
0001
1000
0001
1000
0000
0000
0000
,
1000
0010
0100
0001
,
0010
0100
1000
0001
,
0001
0100
0010
1000
,
1100
0110
0101
0100
,
1000
1000
0001
0001
,
0100
0010
0100
1010
,
0101
0000
1000
0001
1000
0001
1000
0000
,
0101
1100
0000
0000
;

//---------------dance-single - ----------------
#NOTES:
     dance-single:
     :
     Hard:
     7:
     :
0000
0000
0000
0000
,
0000
0000
0000
0000
,
0000
0000
0000
0000
,
0000
0000
0000
0000
,
0000
0000
0000
0000
,
0010
0000
1000
0001
0000
1000
0001
0000
,
0100
0000
1000
0001
0000
0001
1000
0000
,
0010
0000
0001
1000
0000
0001
1000
0000
,
0100
0000
0001
1000
0000
1000
0001
0000
,
1000
1000
1000
1000
,
1000
0000
1000
0000
1000
0001
1000
0000
,
0001
0001
0001
0001
,
0001
0000
0001
0000
0001
0001
0001
0000
,
1000
1000
0001
0001
,
0010
0100
0010
0000
,
0001
0001
1000
1000
,
0010
0100
0010
0000
,
1000
1000
0001
0001
,
0010
0100
0010
0000
,
0001
0001
1000
1000
,
0010
0000
0100
0000
0010
0001
1000
0001
,
0010
0100
0010
0100
1000
0001
0100
0010
,
0100
0000
0000
0000
0001
0000
1000
0001
,
0010
0100
1000
0001
0100
0010
0100
0000
,
0000
0001
0000
1000
0001
0000
0010
0100
,
0010
1000
0001
0000
1000
0000
0100
0001
,
0000
1000
0001
1000
0000
0100
0000
0000
,
0010
0100
0010
0100
0000
1000
0001
0000
,
1000
0001
1000
0001
0010
0000
0100
0100
,
1000
0001
1000
0001
1000
0001
1000
0000
,
1000
0000
0001
0000
1000
0000
0100
1000
,
0000
0001
0000
0100
0010
1000
0001
0100
,
0010
0000
1000
0000
0000
1000
0001
0100
,
0010
1000
0001
0000
0001
0000
1000
0000
,
0001
0000
0100
0010
0000
0100
0000
0001
,
1000
0100
0010
0000
0001
0000
1000
0000
,
0001
1000
0000
0001
1000
0001
0000
0000
,
0000
0010
0000
1000
0001
0100
0000
0001
,
1000
0100
0010
0001
0100
0010
0100
0001
,
1000
0001
1000
0010
1000
0100
0001
0000
,
1000
0001
1000
0000
0100
0000
0100
0000
,
0100
0000
0100
0010
0000
0100
1000
0100
,
0000
0010
0001
1000
0001
0000
1000
0010
,
1000
0000
0000
0001
0010
0100
1000
0010
,
1000
0100
0100
0000
,
0001
0000
1000
0001
1000
0000
1000
0000
,
0100
0010
0000
0100
1000
0001
0100
0010
,
0000
1000
0001
1000
0001
1000
0001
0000
,
0100
0000
1000
0001
1000
0001
1000
0000
,
0010
1000
0010
1000
0010
1000
0000
0100
,
0001
0100
0001
0100
0001
0000
1000
1000
,
0000
0010
0100
0001
1000
0010
0000
0100
,
0000
0000
0000
0000
0010
0100
0001
1000
,
0010
0000
1000
0001
0000
1000
0001
0000
,
0010
0000
0010
0000
0010
0000
1000
0010
,
0100
0001
1000
0010
0100
0001
1000
0001
,
1000
0001
1000
0000
0001
0100
0001
0100
,
0000
1000
0100
1000
0100
0010
0100
0010
,
0100
0100
0000
0100
0000
0000
1000
0001
,
1000
0000
0001
1000
0001
0000
1000
0001
,
1000
0000
0001
1000
0001
1000
0001
1000
,
0000
0000
0010
0100
0010
0100
0010
0000
,
1000
0001
0000
0010
1000
0100
0001
0000
,
1000
0001
1000
0001
0001
0001
1000
0000
;

//---------------dance-double - ----------------
#NOTES:
     dance-double:
     :
     Easy:
     5:
     :
00000000
00000000
00000000
00000000
,
00000000
00000000
00000000
00000000
,
00000000
00000000
00000000
00000000
,
00000000
00000000
00000000
00000000
,
00000000
00000000
00000000
00000000
,
10000000
01000000
00010000
00001000
,
00000010
00000001
00000100
00000000
,
00001000
00000000
00010000
00000000
00001000
00100000
00100000
00000000
,
00001000
00000000
00010000
00000000
00000000
00001000
00010000
00000000
,
00001000
00001000
00001000
00001000
,
00010000
00010000
00001000
00001000
,
00010000
00010000
00010000
00010000
,
00001000
00000000
00000010
00000000
00000001
00001000
00000001
00000000
,
00000100
00001000
00010000
00100000
,
10000000
01000000
10000000
00000000
,
01000000
00010000
00001000
00000010
,
00000001
00000100
00000001
00000000
,
00000100
00001000
00010000
00100000
,
10000000
01000000
10000000
00000000
,
01000000
00010000
00001000
00000010
,
00000001
00000100
00000001
00000000
,
00000100
00000010
00001000
00000001
,
00001000
00000100
00001000
00000000
,
00000010
00010000
00001000
01000000
,
00100000
00100000
10000000
00010000
00010000
00000000
00000000
00000000
,
01000000
00001000
00010000
00000100
,
00000010
00000100
00000010
00000000
,
00000001
00000100
00010000
01000000
,
00010000
00010000
10000000
01000000
01000000
00000000
00000000
00000000
,
00010000
00000100
00001000
00000010
,
00000100
00000001
00001000
00000000
,
00000100
00010000
00001000
00100000
,
00010000
00010000
10000000
01000000
01000000
00000000
00000000
00000000
,
00100000
00001000
00000010
00000100
,
00001000
00000001
00000100
00000000
,
00000010
00010000
00100000
01000000
,
00100000
00100000
10000000
01000000
01000000
00000000
00000000
00000000
,
10000000
01000000
00010000
00001000
,
00000010
00000001
00000100
00000000
,
00000010
00000100
00000001
00000100
,
00001000
00001000
00010000
00001000
00001000
00000000
00000000
00000000
,
01000000
01000000
00010000
10000000
10000000
00000000
00010000
00000000
,
00001000
00000001
00000100
00000000
,
00000001
00000001
00000010
00001000
00001000
00000000
00000100
00000000
,
00010000
00010000
00001000
01000000
01000000
00000000
00000000
00000000
,
00100000
00100000
01000000
00100000
00100000
00000000
01000000
00000000
,
00100000
01000000
00010000
00000000
,
00000010
00000010
00000100
00000010
00000010
00000000
00000100
00000000
,
00000010
00000010
00000100
00001000
00001000
00000000
00000000
00000000
,
00100000
10000000
01000000
00100000
,
00010000
01000000
00010000
00000000
,
00000010
00000001
00000100
00000010
,
00001000
00001000
00000001
00000100
00000100
00000000
00000000
00000000
,
00001000
00010000
00100000
10000000
,
01000000
00100000
00010000
00000000
,
00000010
00000001
00000100
00000010
,
00001000
00001000
00000100
00010000
00010000
00000000
00000000
00000000
,
00001000
00010000
00001000
01000000
,
00001000
00010000
00000100
00010000
,
00001000
01000000
00001000
00010000
,
00001000
00110000
00001000
00001010
,
00010000
00010000
00001000
00001000
,
00010000
00001000
00010000
00110000
,
00001000
00000000
00010000
00001000
00010000
00001000
00010000
00000000
,
00001010
00000101
00000000
00000000
;

//---------------dance-double - ----------------
#NOTES:
     dance-double:
     :
     Medium:
     6:
     :
00000000
00000000
00000000
00000000
,
00000000
00000000
00000000
00000000
,
00000000
00000000
00000000
00000000
,
00000000
00000000
00000000
00000000
,
00000000
00000000
00000000
00000000
,
10000000
00000000
00010000
00010000
00000000
00001000
00000001
00000000
,
00001000
00000000
00010000
00010000
00000000
10000000
00010000
00000000
,
00010000
00000000
10000000
10000000
00000000
00010000
00001000
00000000
,
00000001
00001000
00000000
00000000
00000000
00000100
00010000
00000000
,
00001000
00001000
00001000
00001000
,
00010000
00000000
00010000
00000000
00001000
00010000
00001000
00000000
,
00010000
00010000
00010000
00010000
,
00001000
00000000
00000010
00000000
00000001
00000001
00000001
00000000
,
00000100
00001000
00010000
00100000
,
10000000
01000000
10000000
00000000
,
01000000
00010000
00001000
00000010
,
00000001
00000100
00000001
00000000
,
00000100
00001000
00010000
00100000
,
10000000
01000000
10000000
00000000
,
01000000
00010000
00001000
00000010
,
00000001
00000000
00000100
00000000
00000001
00000100
00000100
00000100
,
00000010
00000100
00000010
00000100
00000001
00001000
00000100
00000010
,
00000100
00000000
00000000
00000000
00010000
00000000
00001000
00100000
,
00010000
01000000
00001000
00010000
00000100
00001000
00000100
00000000
,
00000000
00010000
00000000
00001000
01000000
00000000
00100000
01000000
,
00100000
10000000
00010000
00000000
00100000
00000000
00001000
00000010
,
00000000
00000001
00000100
00000001
00000000
00000100
00000000
00000000
,
00001000
00010000
00001000
00100000
00000000
00010000
10000000
00000000
,
00100000
01000000
10000000
00010000
01000000
00000000
00010000
00100000
,
00001000
00010000
00001000
00010000
00001000
00010000
00001000
00000000
,
00010000
00000000
00000010
00000000
00000100
00000000
00000001
00000100
,
00000000
00000010
00000000
00001000
00000001
00000100
00000010
00001000
,
00000100
00000000
00010000
00000000
00000000
00001000
00100000
01000000
,
00100000
00010000
10000000
00000000
00010000
00000000
00000010
00000000
,
00001000
00000000
00100000
00010000
00000000
01000000
00000000
00010000
,
10000000
01000000
00100000
00000000
00010000
00000000
01000000
00000000
,
00001000
00010000
00000000
00001000
00010000
00001000
00000000
00000000
,
00000000
00010000
00000000
00000010
00001000
00000001
00000000
00001000
,
00000100
00000010
00000001
00000010
00000100
00001000
00000100
00000010
,
00000001
00000010
00000100
00001000
00000100
00010000
00001000
00000000
,
00100000
00010000
10000000
00000000
01000000
00000000
01000000
00000000
,
01000000
00000000
01000000
00100000
00000000
00010000
10000000
00010000
,
00000000
00100000
01000000
00100000
01000000
00000000
10000000
00010000
,
10000000
00000000
00000000
00010000
00100000
01000000
10000000
01000000
,
00100000
00001000
00010000
00000000
,
00000010
00000000
00000100
00000001
00000100
00000000
00000001
00000000
,
00001000
00000100
00000000
00000010
00000001
00000100
00000010
00001000
,
00000000
00000001
00000100
00000001
00000100
00000001
00000100
00000000
,
00000010
00000000
00010000
00001000
00010000
00001000
00010000
00000000
,
00000010
00001000
00000010
00001000
00000010
00001000
00000000
00000100
,
00010000
00000100
00010000
00000100
00010000
00000000
00001000
01000000
,
00000000
00100000
10000000
00100000
10000000
00100000
00000000
01000000
,
00000000
00000000
00000000
00000000
00100000
10000000
00010000
10000000
,
00010000
00000000
01000000
00001000
00000000
00010000
00000100
00000000
,
00000010
00000000
00000010
00000000
00000010
00000000
00000001
00000100
,
00000010
00001000
00000010
00000100
00000001
00000010
00000100
00001000
,
00000010
00000100
00000001
00000000
00001000
00000100
00001000
00000100
,
00000000
00010000
00010000
00010000
00010000
00001000
00001000
00001000
,
00010000
00001000
00000000
00010000
00000000
00000000
00001000
00100000
,
00001000
00000000
00010000
00000010
00010000
00000000
00001000
01000000
,
00001000
00000000
00010000
00001000
00010000
00001000
00010000
00000100
,
00000000
00000000
00001000
00000100
00001000
00000100
00001000
00000000
,
00000010
00010000
00000000
00001000
00100000
00001000
00100000
00000000
,
00001000
00001000
00001000
00001000
00001000
00001000
00001000
00000000
;
