#TITLE:22DUNK (CLUB ANOTHER VER.);
#ARTIST:SLAKE;
#BANNER:22DUNK (CLUB ANOTHER VER.).png;
#BACKGROUND:22DUNK (CLUB ANOTHER VER.)-bg.png;
#CDTITLE:./CDTITLES/TECHNO LABEL.PNG;
#MUSIC:22DUNK (CLUB ANOTHER VER.).ogg;
#SAMPLESTART:5.333;
#SAMPLELENGTH:15;
#BPMS:0=135;

//---------------dance-single - ----------------
#NOTES:
     dance-single:
     :
     Easy:
     5:
     :
0000
0000
0000
0000
,
0000
0000
0000
0000
,
0000
0000
0000
0000
,
0000
0000
0000
0000
,
0000
0000
0000
0000
,
0010
0010
0010
0100
,
0010
0010
0010
0100
,
0010
0010
0010
0100
,
0010
0010
0010
0100
,
0010
0010
0010
0100
,
0100
0100
0100
0100
,
0010
0000
0000
1000
0000
0000
0001
0000
,
0100
0000
0000
0100
0000
0000
0000
0000
,
0010
0000
0000
0001
0000
0000
1001
0000
,
0100
0000
0000
0100
0000
0000
0000
0000
,
0010
0000
0000
1001
0000
0000
0000
0000
,
0010
0000
0000
0010
0000
0000
0000
0000
,
0010
0000
0000
1000
0000
0000
0100
0000
,
0010
0000
0000
0010
0000
0000
0000
0000
,
0001
0001
0001
0000
1000
1000
1000
0000
,
0001
0001
0001
0000
1000
1000
1000
0000
,
0001
1000
0001
0000
1000
0001
1000
0000
,
0001
1000
0001
0000
1000
0001
1000
0000
,
0001
0100
1000
0000
1000
0100
0001
0000
,
0001
0100
1000
0000
1000
0100
0001
0000
,
0000
0000
0010
0000
0000
0100
0000
0000
,
0000
0010
0100
0000
,
0010
0100
0010
1001
,
0010
1100
0010
0101
,
0010
0100
0010
1001
,
0010
0101
0010
1100
,
0010
0000
0100
0000
0001
0100
1000
0000
,
0010
0000
0100
0000
1000
0100
0001
0000
,
0010
0000
0100
0000
0001
0100
1000
0000
,
1000
0100
0010
0001
,
0010
0100
0001
1000
0001
0000
0000
0000
,
0010
0100
0001
1000
0001
0000
0000
0000
,
0010
0100
0001
1000
0001
0000
0000
0000
,
0010
1000
0001
0000
0000
0000
0000
0000
;

//---------------dance-single - ----------------
#NOTES:
     dance-single:
     :
     Medium:
     7:
     :
0000
0000
0000
0000
,
0000
0000
0000
0000
,
0000
0000
0000
0000
,
0000
0000
0000
0000
,
0000
0000
0000
0000
,
1000
1000
1000
1000
,
0001
0001
0001
0001
,
1000
1000
1000
1000
,
0001
0001
0001
0001
,
0010
0010
0010
0010
,
0100
0100
0100
0100
,
0001
0000
0000
1000
0000
0000
1001
0000
,
0010
0000
0000
0010
0000
0000
0000
0000
,
0010
0000
0000
1000
0000
0000
0110
0000
,
0010
0000
0000
0010
0000
0000
0000
0000
,
0010
0000
0000
1001
0000
0000
0000
0000
,
0110
0000
0000
1001
0000
0000
0000
0000
,
0010
0000
0000
1010
0000
0000
0100
0000
,
0010
0000
0000
0101
0000
0000
0000
0000
,
0001
0001
0001
0000
0110
1000
0001
0000
,
1000
1000
1000
0000
0110
0001
1000
0000
,
0001
0001
0001
0000
1001
0010
0100
0000
,
1000
1000
1000
0000
1001
0100
0010
0000
,
0001
0001
0001
0000
0010
1000
0101
0000
,
1000
1000
1000
0000
0010
0001
1100
0000
,
0000
0010
0000
0010
,
0000
0010
0100
0000
,
0010
0000
0001
0000
1000
0100
0001
0000
,
0001
0000
0100
0000
1000
0000
0000
0000
0000
0000
1000
0000
0000
1000
0000
0000
,
0010
0000
0000
0000
0100
0000
1001
0000
0000
0000
0000
0000
0100
0000
0000
0100
,
0000
0001
0001
0001
,
1000
0001
0110
0000
0100
0000
1001
0000
,
0001
0100
1000
0000
0010
0000
1001
0000
,
0100
0010
1100
0000
0010
0000
0101
0000
,
0000
0000
0000
0000
,
0010
1000
0001
0010
1100
0000
0000
0000
,
0010
0001
1000
0010
0101
0000
0000
0000
,
0010
0001
0100
1000
0110
0000
0000
0000
,
0010
1000
0001
0100
0000
0000
0000
0000
;

//---------------dance-single - ----------------
#NOTES:
     dance-single:
     :
     Hard:
     8:
     :
0000
0000
0000
0000
,
0000
0000
0000
0000
,
0000
0000
0000
0000
,
0000
0000
0000
0000
,
0000
0000
0000
0000
,
0010
0010
0010
0100
,
0010
0010
0010
0100
,
0010
0010
0010
0100
,
0010
0010
0010
0100
,
0010
0010
0010
0100
,
0100
0100
0100
0100
,
0010
0000
0000
1000
0000
0000
0101
0000
,
0010
0000
0000
0010
0000
0000
0000
0000
,
0010
0000
0000
0101
0000
0000
1100
0000
,
0010
0000
0000
0010
0000
0000
0000
0000
,
0010
0000
0000
1001
0000
0000
0000
0000
,
0110
0000
0000
1001
0000
0000
0000
0000
,
0010
0000
0000
1010
0000
0000
0100
0000
,
0010
0000
0000
0101
0000
0000
0000
0000
,
0001
0000
0001
0000
0001
0000
0000
0000
1000
0000
1000
0000
0010
1000
0000
0100
,
0001
0000
0001
0000
0001
0000
0000
0000
1000
0000
1000
0000
0010
1000
0000
0100
,
0001
0000
0001
0000
0001
0000
0000
0000
1000
0000
1000
0000
0010
1000
0000
0100
,
0001
0000
0001
0000
0001
0000
0000
0000
1000
0000
1000
0000
0010
1000
0000
0100
,
1000
0000
1000
0000
1000
0000
0000
0000
0001
0000
0001
0000
0010
0001
0000
0100
,
1000
0000
1000
0000
1000
0000
0000
0000
0001
0000
0001
0000
0010
0001
0000
0100
,
0000
0000
0010
0000
0000
0010
0000
0000
,
0000
0010
0100
0000
,
0010
0000
0000
0000
0001
1000
0000
0000
0000
0000
0100
0000
0000
0000
0000
0000
,
0000
0000
0010
0000
0000
0100
0000
0000
0000
0000
1000
0000
0000
1000
0000
0000
,
0001
0000
0000
0000
0000
0000
0100
0000
0000
0000
0000
0000
0100
0000
0000
0100
,
0000
0001
0001
0001
,
0000
0010
0000
0000
1000
0000
0000
0000
0000
0100
0000
0000
0000
0000
0000
0000
,
0000
0000
1000
0000
0000
1000
0000
0000
0000
1000
0000
1000
0000
1000
0000
0000
,
0000
0000
1000
0000
0010
0000
0000
0100
0000
1000
0000
0000
1000
0000
0000
0000
,
0000
0000
0000
0000
,
0010
0000
1000
0000
0001
0100
0000
1000
0000
0000
0000
0000
0000
0000
0000
0000
,
0010
0000
1000
0000
0000
0100
0000
0001
0000
0000
0000
0000
0000
0000
0000
0000
,
0010
0000
0001
1000
0000
0010
0000
0001
0000
0000
0000
0000
0000
0000
0000
0000
,
0010
0000
1000
0000
0000
0001
0000
0000
0000
0000
0000
0000
0000
0000
0000
0000
;

//---------------dance-double - ----------------
#NOTES:
     dance-double:
     :
     Easy:
     5:
     :
00000000
00000000
00000000
00000000
,
00000000
00000000
00000000
00000000
,
00000000
00000000
00000000
00000000
,
00000000
00000000
00000000
00000000
,
00000000
00000000
00000000
00000000
,
00100000
10000000
01000000
00010000
,
00001000
00000010
00000001
00000100
,
00001000
00010000
00100000
10000000
,
10000000
01100000
00010000
00001000
,
00000001
00000110
00001000
00010000
,
01000000
01000000
01000000
01000000
,
00100000
00000000
00000000
01000000
00000000
00000000
00010000
00000000
,
00001000
00000000
00000000
00000100
00000000
00000000
00000000
00000000
,
00000010
00000000
00000000
00000100
00000000
00000000
00001000
00000000
,
00010000
00000000
00000000
01000000
00000000
00000000
00000000
00000000
,
00100000
00000000
00000000
00010000
00000000
00000000
00001000
00000000
,
00000010
00000000
00000000
00000010
00000000
00000000
00000000
00000000
,
00000010
00000000
00000000
00001000
00000000
00000000
00000010
00000000
,
00010000
00000000
00000000
00100000
00000000
00000000
00000000
00000000
,
10000000
10000000
10000000
00000000
01000000
00010000
00001000
00000000
,
00000001
00000001
00000001
00000000
00000100
00001000
00010000
00000000
,
10000000
00010000
10000000
00000000
01000000
00010000
00001000
00000000
,
00000001
00001000
00000001
00000000
00000100
00001000
00010000
00000000
,
10000000
01000000
00010000
00000000
00001000
00000100
00000001
00000000
,
00000001
00000100
00001000
00000000
00010000
01000000
10000000
00000000
,
00000000
00000000
00010000
00000000
00000000
00000100
00000000
00000000
,
00000000
00000010
00000100
00000000
,
00000010
00001000
00010000
01000000
,
00100000
10000000
01010000
00011000
,
00000010
00000001
00001100
00011000
,
00100000
10000000
01010000
00011000
,
00000010
00000001
00001100
00011000
,
00100000
00000000
01000000
00000000
00100000
00010000
00001000
00000000
,
00000010
00000000
00000100
00000000
00000010
00001000
00010000
00000000
,
00100000
10000000
00100000
00010000
,
00010000
00100000
00001000
00000100
00010000
00000000
00000000
00000000
,
00001000
00000010
00010000
01000000
00001000
00000000
00000000
00000000
,
00010000
01000000
00100000
10000000
00010000
00000000
00000000
00000000
,
10000000
01000000
00010000
00000000
00000000
00000000
00000000
00000000
;

//---------------dance-double - ----------------
#NOTES:
     dance-double:
     :
     Medium:
     8:
     :
00000000
00000000
00000000
00000000
,
00000000
00000000
00000000
00000000
,
00000000
00000000
00000000
00000000
,
00000000
00000000
00000000
00000000
,
00000000
00000000
00000000
00000000
,
00000010
00000001
00000101
00001010
,
00001000
00010000
10100000
01010000
,
00010000
00001000
00001010
00000101
,
00000010
00000001
00000011
00001100
,
00001000
00010000
00110000
11000000
,
01000000
01000000
01000000
01000000
,
00100000
00000000
00000000
10000000
00000000
00000000
01000000
00000000
,
00010000
00000000
00000000
00001000
00000000
00000000
00000000
00000000
,
00000010
00000000
00000000
00000001
00000000
00000000
00000010
00000000
,
00001000
00000000
00000000
00010000
00000000
00000000
00000000
00000000
,
00100000
00000000
00000000
00010000
00000000
00000000
00000000
00000000
,
00001000
00000000
00000000
00000001
00000000
00000000
00000000
00000000
,
00000010
00000000
00000000
00001000
00000000
00000000
00000010
00000000
,
00010000
00000000
00000000
10000000
00000000
00000000
00000000
00000000
,
10000000
00000000
01000000
00000000
00010000
00000000
00000000
00000000
00001000
00000000
00000010
00000000
00001000
00000010
00000000
00001000
,
00000001
00000000
00000100
00000000
00001000
00000000
00000000
00000000
00010000
00000000
00100000
00000000
00010000
00100000
00000000
00010000
,
10000000
00000000
01000000
00000000
00010000
00000000
00000000
00000000
00001000
00000000
00000010
00000000
00001000
00000010
00000000
00001000
,
00000001
00000000
00000100
00000000
00001000
00000000
00000000
00000000
00010000
00000000
00100000
00000000
00010000
00100000
00000000
00010000
,
10000000
00000000
01000000
00000000
00010000
00000000
00000000
00000000
00001000
00000000
00000010
00000000
00001000
00000010
00000000
00001000
,
00000001
00000000
00000100
00000000
00001000
00000000
00000000
00000000
00010000
00000000
00100000
00000000
00010000
00100000
00000000
00000000
,
00000000
00000000
00010000
00000000
00000000
00000010
00000000
00000000
,
00000000
00000001
00001100
00000000
,
00100000
00000000
00000000
00000000
00010000
00100000
00000000
00000000
00000000
00000000
00010000
00000000
00000000
00000000
00000000
00000000
,
00000000
00000000
00001000
00000000
00000000
00000010
00000000
00000000
00000000
00000000
00001000
00000000
00000000
00010000
00000000
00000000
,
01000000
00000000
00000000
00000000
00000000
00000000
01000000
00000000
00000000
00000000
00000000
00000000
00010000
00000000
00000000
00001000
,
00000000
00001000
00000001
00001000
,
00000000
00100000
00000000
00000000
00010000
00000000
00000000
00000000
00000000
01000000
00000000
00000000
00000000
00000000
00000000
00000000
,
00000000
00000000
10000000
00000000
00000000
00100000
00000000
00000000
00000000
01000000
00000000
00010000
00000000
00010000
00000000
00000000
,
00000000
00000000
00001000
00000000
00000010
00000000
00000000
00000100
00000000
00001000
00000000
00000000
00000001
00000000
00000000
00000000
,
00000000
00000000
00000000
00000000
,
10000000
00000000
01000000
00000000
01000000
00010000
00000000
00001000
00000000
00000000
00000000
00000000
00000000
00000000
00000000
00000000
,
00000010
00000000
00000100
00000000
00000000
00001000
00000000
00010000
00000000
00000000
00000000
00000000
00000000
00000000
00000000
00000000
,
10000000
00000000
01000000
00000000
01000000
00010000
00000000
00001000
00000000
00000000
00000000
00000000
00000000
00000000
00000000
00000000
,
00000010
00000000
00000100
00000000
00000000
00000001
00000000
00000000
00000000
00000000
00000000
00000000
00000000
00000000
00000000
00000000
;
