#TITLE:The rhyme brokers;
#SUBTITLE:;
#ARTIST:m-flo;
#TITLETRANSLIT:;
#SUBTITLETRANSLIT:;
#ARTISTTRANSLIT:;
#CREDIT:;
#BANNER:The rhyme brokers.png;
#BACKGROUND:The rhyme brokers-bg.png;
#LYRICSPATH:;
#CDTITLE:./CDTITLES/HIP-HOP DASH.PNG;
#MUSIC:The rhyme brokers.ogg;
#OFFSET:0.000;
#SAMPLESTART:23.400;
#SAMPLELENGTH:15.000;
#SELECTABLE:YES;
#DISPLAYBPM:91.000;
#BPMS:0.000=91.118,4.000=90.984;
#STOPS:;
#BGCHANGES:;

//---------------dance-single - ----------------
#NOTES:
     dance-single:
     :
     Easy:
     3:
     0.163,0.282,0.119,0.000,0.000:
0000
0000
0000
0000
,
0000
0000
0000
0000
,
0000
0000
0000
0000
,
0000
0000
0000
0000
,
0000
0000
0000
0000
,
1000
0001
1000
0001
,
0010
0100
0010
0100
,
1000
0001
1000
0001
,
0010
0100
0010
0100
,
1000
0000
0001
0000
,
1000
0000
0001
0000
,
0010
0000
0100
0000
,
0010
0000
0100
0000
,
1000
0000
0001
0000
,
1000
0000
0001
0000
,
0010
0000
0100
0000
,
0010
0000
0100
0000
,
1000
0001
1000
0001
,
0010
0100
0010
0100
,
1000
0001
1000
0001
,
0010
0100
0010
0100
,
0010
1001
0000
0000
,
0100
1001
0000
0000
,
0001
1100
0000
0000
,
1000
0101
0000
0000
,
1000
0001
1000
0001
,
0010
0100
0010
0100
,
1000
0001
1000
0001
,
0010
0100
0010
1100
,
0011
1010
0101
1100
,
1001
0110
0000
0000
,
0010
0001
0010
1000
,
0010
0001
0010
1000
,
0001
0100
1000
0100
,
0001
0100
1000
0100
;

//---------------dance-single - ----------------
#NOTES:
     dance-single:
     :
     Medium:
     5:
     0.207,0.414,0.303,0.000,0.000:
0000
0000
0000
0000
,
0000
0000
0000
0000
,
0000
0000
0000
0000
,
0000
0000
0000
0000
,
0000
0000
0000
0000
,
1000
0100
0001
0010
,
0001
0010
1000
0100
,
1000
0100
0001
0010
,
0001
0010
1000
0100
,
1000
0000
0010
0000
,
0100
0000
0001
0000
,
0010
0000
1000
0000
,
0100
0000
0001
0000
,
1000
0000
0010
0000
,
0100
0000
0001
0000
,
0010
0000
1000
0000
,
0100
0000
0001
0000
,
1000
0100
0001
0010
,
0001
0010
1000
0100
,
1000
0100
0001
0010
,
0001
0010
1000
0100
,
1000
1000
1001
0000
0000
0000
0000
0000
,
0001
0001
1001
0000
0000
0000
0000
0000
,
1001
1001
1100
0000
0000
0000
0000
0000
,
1001
1001
0101
0000
0000
0000
0000
0000
,
0001
0010
1000
0100
,
1000
0100
0001
0010
,
0001
0010
1000
0100
,
1000
0000
0100
0000
1001
1001
0011
0000
,
1001
1001
1010
0000
1001
1001
0110
0000
,
1001
1001
0110
0000
0000
0000
0000
0000
,
0010
0000
1001
0000
0010
0010
1001
0000
,
0010
0000
1001
0000
0010
0010
1001
0000
,
0100
0000
1001
0000
0100
0100
1001
0000
,
0100
0000
1001
0000
0100
0100
1001
0000
;

//---------------dance-single - ----------------
#NOTES:
     dance-single:
     :
     Hard:
     7:
     0.347,0.491,0.488,0.000,0.011:
0000
0000
0000
0000
,
0000
0000
0000
0000
,
0000
0000
0000
0000
,
0000
0000
0000
0000
,
0000
0000
0000
0000
,
1000
1000
0100
0100
0001
0001
0010
0010
,
0001
0001
0100
0100
1000
1000
0010
0010
,
1000
1000
0100
0100
0001
0001
0010
0010
,
0001
0001
0100
0100
1000
1000
0110
0000
,
1000
0000
0000
0000
1000
0100
0000
0000
0010
0000
0010
0000
1001
0000
0000
0000
,
0010
0000
0100
0000
0010
0010
1001
0000
,
0001
0000
0000
0000
0001
0100
0000
0000
0010
0000
0010
0000
1001
0000
0000
0000
,
0010
0000
0100
0000
0010
0010
1001
0000
,
1000
0001
1000
0001
0010
0100
0010
0100
,
1000
0001
1000
0001
0010
0100
0010
1001
,
0001
1000
0001
1000
0010
0100
0010
0100
,
0001
1000
0001
1000
0010
0100
0010
1001
,
0100
0000
0001
0000
,
0010
0000
0100
0000
,
1000
0000
0001
0000
,
0100
0000
0010
0000
,
0001
0000
0010
0000
1100
1100
0101
0101
,
1001
0000
0010
0000
0101
0101
1100
1100
,
1001
0000
0110
0000
1100
1001
0101
1001
,
0110
0000
1001
0000
1100
0101
1001
0110
,
1001
0000
0100
0000
1000
1000
0010
0000
,
1001
0000
0100
0000
0001
0001
0010
0000
,
1000
0100
0001
0010
,
1000
0000
0100
0000
0101
1010
1001
0000
,
0110
0110
1001
1001
0110
0110
1001
1001
,
0110
0110
1001
0000
0000
0000
0000
0000
,
1000
0010
1000
0001
1000
0100
1000
0001
,
1000
0010
1000
0001
1000
0100
1000
0011
,
1000
0100
1000
0001
1000
0010
1000
0001
,
1000
0100
1000
0001
1000
0010
1000
0001
;

//---------------dance-double - ----------------
#NOTES:
     dance-double:
     :
     Easy:
     5:
     0.195,0.282,0.217,0.000,0.000:
00000000
00000000
00000000
00000000
,
00000000
00000000
00000000
00000000
,
00000000
00000000
00000000
00000000
,
00000000
00000000
00000000
00000000
,
00000000
00000000
00000000
00000000
,
10000000
01000000
00010000
00100000
,
00001000
00000100
00000001
00000010
,
00001000
00000100
00010000
00100000
,
10000000
01000000
00010000
00100000
,
10000000
00000000
00010000
00000000
,
00001000
00000000
00000001
00000000
,
00000010
00000000
00000100
00000000
,
00010000
00000000
01000000
00000000
,
00010000
00000000
10000000
00000000
,
00001000
00000000
00000001
00000000
,
00000010
00000000
00000100
00000000
,
00010000
00000000
00100000
00000000
,
10000000
01000000
00010000
00100000
,
00001000
00000100
00000001
00000010
,
00001000
00000100
00010000
00100000
,
10000000
01000000
00010000
00100000
,
00011000
00011000
00001010
00000000
00000000
00000000
00000000
00000000
,
00011000
00011000
00110000
00000000
00000000
00000000
00000000
00000000
,
00011000
00011000
01010000
00000000
00000000
00000000
00000000
00000000
,
00011000
00011000
00001100
00000000
00000000
00000000
00000000
00000000
,
10000000
01000000
00010000
00100000
,
00001000
00000100
00000001
00000010
,
00001000
00000100
00010000
00100000
,
10000000
00000000
01000000
00000000
00010000
00010000
10010000
00000000
,
00001000
00001000
00001001
00000000
00010000
00010000
01100000
00000000
,
00001000
00001000
00000110
00000000
00000000
00000000
00000000
00000000
,
00000100
00000000
00000010
00000000
00000001
00000001
00000110
00000000
,
00001000
00000000
00010000
00000000
01000000
01000000
10010000
00000000
,
00100000
00000000
01000000
00000000
10000000
10000000
01100000
00000000
,
00010000
00000000
00001000
00000000
00000010
00000010
00001001
00000000
;

//---------------dance-double - ----------------
#NOTES:
     dance-double:
     :
     Medium:
     7:
     0.347,0.491,0.488,0.000,0.011:
00000000
00000000
00000000
00000000
,
00000000
00000000
00000000
00000000
,
00000000
00000000
00000000
00000000
,
00000000
00000000
00000000
00000000
,
00000000
00000000
00000000
00000000
,
10000000
01000000
00100000
00010000
01000000
00001000
00010000
00000100
,
00001000
00000010
00000100
00000001
00000010
00000100
00001000
00000010
,
00010000
00001000
00100000
00010000
01000000
00100000
10000000
01000000
,
00100000
00010000
01000000
00001000
00010000
00000100
00001001
00000000
,
00001000
00000000
00000000
00000000
00000001
00000100
00000000
00000000
00001000
00000000
00001000
00000000
00011000
00000000
00000000
00000000
,
00100000
00000000
01000000
00000000
10000000
10000000
01010000
00000000
,
10000000
00000000
00000000
00000000
00010000
01000000
00000000
00000000
00001000
00000000
00001000
00000000
00010100
00000000
00000000
00000000
,
00000010
00000000
00000001
00000000
00000100
00000100
00001100
00000000
,
00001000
00000010
00001000
00000010
00010000
00001000
00010000
00001000
,
00100000
00010000
00100000
00010000
10000000
01000000
10000000
01010000
,
00010000
00100000
00010000
00100000
00001000
00010000
00001000
00010000
,
00000010
00001000
00000010
00001000
00000001
00000100
00000001
00001100
,
00000010
00000000
00010000
00000000
,
00001000
00000000
01000000
00000000
,
00100000
00000000
10000000
00000000
,
01000000
00000000
00100000
00000000
,
00010000
00000000
01000000
00000000
00101000
00101000
00010010
00010010
,
00001001
00000000
00000100
00000000
00010010
00010010
00101000
00101000
,
10010000
00000000
01100000
00000000
11000000
10010000
01010000
00011000
,
00001100
00000000
00001001
00000000
00000101
00001100
00011000
01010000
,
10010000
00000000
01000000
00000000
00010000
00010000
00100000
00000000
,
00011000
00000000
00000100
00000000
00001000
00001000
00000010
00000000
,
00000100
00000001
00000010
00000100
,
00010000
00000000
00001000
00000000
10010000
01010000
11000000
00000000
,
00110000
00110000
00011000
00011000
00001100
00001100
00000101
00000101
,
00001010
00001010
00011000
00000000
00000000
00000000
00000000
00000000
,
00010000
00000010
00010000
00001000
00010000
00000100
00010000
00001000
,
00010000
00000010
00010000
00001000
00010000
00000100
00010000
00101000
,
00001000
00010000
00001000
01000000
00001000
00010000
00001000
00100000
,
00001000
00010000
00001000
01000000
00001000
00010000
00001000
00100000
;
