
//----- song ID: luvt -----//
#TITLE:LUV TO ME (disco mix);
#ARTIST:tiger YAMATO;
#BANNER:LUV TO ME (disco mix).png;
#BACKGROUND:LUV TO ME (disco mix)-bg.png;
#CDTITLE:./CDTITLES/Dance Dance Revolution CLUB VERSION.png;
#MUSIC:LUV TO ME (disco mix).ogg;
#SAMPLESTART:48.308;
#SAMPLELENGTH:15;
#BPMS:0=154;
#NOTES:
     dance-single:
     :
     Beginner:
     2:
     :
0000
0000
0000
0000
,
0000
0000
0000
0000
,
0000
0000
0000
0000
,
0000
0000
0000
0000
,
0000
0000
0000
0000
,
0010
0010
0010
0000
,
0100
0100
0100
0000
,
0000
0001
0000
0001
,
0000
0001
0001
0000
,
0010
0010
0010
0000
,
0100
0100
0100
0000
,
0000
1000
0000
1000
,
0000
1000
1000
0000
,
0000
1000
0000
1000
,
0000
0001
0000
0001
,
0000
1000
0000
1000
,
0000
0001
0000
0001
,
0000
0001
0000
0001
,
0000
1000
0000
1000
,
0000
0001
0000
0001
,
0000
1000
0000
1000
,
0000
0110
0000
0000
,
0100
0100
0100
0100
,
0000
0001
0000
1000
,
0000
0001
0001
0000
,
0000
0110
0000
0000
,
0010
0010
0010
0010
,
0000
1000
0000
1000
,
0000
1000
0000
1000
,
1000
1000
1000
0000
,
0001
0001
0001
0000
,
0001
0000
0000
0000
,
0001
0000
0000
0000
,
0001
0000
0000
0000
,
0001
0000
0000
0000
,
1000
0000
0000
0000
,
1000
0000
0000
0000
,
1000
0000
0000
0000
,
1000
0000
0000
0000
,
0001
0000
0001
0000
,
0001
0000
0001
0000
,
0100
0000
0100
0000
,
0100
0000
0100
0000
,
1000
0000
1000
0000
,
1000
0000
1000
0000
,
0100
0000
0100
0000
,
0000
0100
0000
0100
,
0000
0010
0010
0010
,
0000
0100
0100
0100
,
0000
0001
0000
1000
,
0000
1000
0000
1000
,
0000
0010
0010
0010
,
0000
0100
0100
0100
,
0000
1000
0000
0001
,
0000
1000
0000
0001
,
0000
1000
0000
0001
,
0000
0100
0100
0100
,
0100
0000
0000
0000
,
0000
0000
0000
0000
;
#NOTES:
     dance-single:
     :
     Easy:
     5:
     :
0000
0000
0000
0000
,
0000
0000
0000
0000
,
0000
0000
0000
0000
,
0000
0000
0000
0000
,
0000
0000
0000
0000
,
0010
0010
0010
0010
,
0100
0100
0100
0100
,
0001
0001
1000
1000
,
0001
1000
0001
1000
,
0010
0010
0010
0010
,
0100
0100
0100
0100
,
0001
0001
1000
1000
,
0000
0001
0000
0001
0000
0001
0000
0001
,
0000
1000
0000
1000
,
0000
0001
0000
0001
,
0000
0010
0000
0010
,
0000
0100
0000
0100
,
0000
0001
0000
0001
,
0000
1000
0000
1000
,
0000
0010
0000
0010
,
0000
0100
0000
0100
,
1001
0110
1001
0000
,
0100
0100
0100
0100
,
0010
0001
0100
1000
,
0001
0001
0001
0000
,
0110
1001
0110
0000
,
0010
0010
0010
0010
,
0001
0000
0100
0000
,
1000
0000
0010
0000
,
1000
1000
0001
0001
,
1000
1000
1000
1000
,
0001
0000
0000
0000
0000
0000
0000
1000
,
0001
0000
0000
0000
0000
0000
0000
1000
,
0001
0000
0000
0000
0000
0000
0000
1000
,
0001
0000
0000
0010
0000
0100
0000
0010
,
1000
0000
0000
0000
0000
0000
0000
0001
,
1000
0000
0000
0000
0000
0000
0000
0001
,
1000
0000
0000
0000
0000
0000
0000
0001
,
1000
0000
0000
0010
0000
0100
0000
0010
,
0001
0000
0000
0000
0000
0000
0000
1000
,
0001
0000
0000
0000
0000
0000
0000
0010
,
0100
0000
0000
0000
0000
0000
0000
1000
,
0001
0000
0000
0010
0000
0100
0000
0010
,
1000
0000
0000
0000
0000
0000
0000
0001
,
1000
0000
0000
0000
0000
0000
0000
0010
,
0100
0000
0000
0000
0000
0000
0000
0001
,
1000
0000
0000
0010
0000
0100
0000
0010
,
0000
0010
0010
0010
,
0100
0100
0100
0100
,
0001
0001
1000
1000
,
0001
1000
0001
1000
,
0010
0010
0010
0010
,
0100
0100
0100
0100
,
1000
1000
0001
0001
,
0000
1000
0000
1000
0000
1000
0000
1000
,
0000
0001
0000
0001
0000
0001
0000
0001
,
0000
1000
0000
1000
0000
1000
0000
1000
,
0000
0000
0000
0000
;
#NOTES:
     dance-single:
     :
     Medium:
     8:
     :
0000
0000
0000
0000
,
0000
0000
0000
0000
,
0000
0000
0000
0000
,
0000
0000
0000
0000
,
0000
0000
0000
0000
,
0010
0000
0010
0000
0100
0010
0100
0010
,
0100
0000
0100
0000
0010
0100
0010
0100
,
0001
0001
1000
1000
,
0010
0100
0000
0010
0100
0000
0010
0100
0000
0010
0100
0000
0001
0000
1000
0000
,
0010
0000
0000
0000
0010
0000
0000
0000
0100
0000
0000
0100
0000
0000
0100
0000
,
1000
0000
0001
0000
1000
0000
0001
0000
0100
0000
0000
0100
0000
0000
0100
0000
,
1000
0001
1000
0001
1000
0001
1000
0001
,
0000
1000
0000
1000
0000
1000
0000
1000
,
0001
0100
0000
0100
0000
0100
0000
0100
,
0001
1000
0000
1000
0000
1000
0000
1000
,
0001
0100
0000
0100
0000
0100
0000
0100
,
0001
1000
0000
1000
0000
0100
0000
0100
,
1000
0100
0000
0100
0000
0100
0000
0100
,
1000
0001
0000
0001
0000
0001
0000
0001
,
1000
0100
0000
0100
0000
0100
0000
0100
,
1000
0001
0000
0001
0000
0100
0000
0100
,
1000
0100
0001
0010
,
1100
0000
0000
1001
0000
0000
0101
0000
,
1000
0000
0010
0000
,
0001
0000
0100
0000
,
0110
1001
0110
1001
,
0101
0000
0000
1100
0000
0000
1001
0000
,
0100
0000
0010
0000
,
0001
0000
1000
0000
,
0001
0001
0001
0001
,
1000
0001
1000
0001
1000
0001
1000
0001
,
0100
0010
0000
0010
0000
0010
0000
0010
,
1000
0001
0000
0001
0000
0001
0000
0001
,
0100
0010
0000
0010
0000
0010
0000
0010
,
1000
0000
0000
0000
0000
0000
0001
1000
0001
0000
0000
0100
0000
0000
0010
0000
,
0100
0001
0000
0001
0000
0001
0000
0001
,
1000
0100
0000
0100
0000
0100
0000
0100
,
0001
1000
0000
1000
0000
1000
0000
1000
,
0010
0000
0000
0000
0000
0000
0100
0001
0100
0000
0000
0010
0000
0000
1000
0000
,
0100
0010
0000
0010
0000
0010
0000
0010
,
0001
1000
0000
1000
0000
1000
0000
1000
,
0100
0010
0000
0010
0000
0010
0000
0010
,
0001
0000
0000
0000
0000
0000
0100
0010
0100
0000
0000
0001
0000
0000
1000
0000
,
0100
0010
0000
0010
0000
0010
0000
0010
,
0001
1000
0000
1000
0000
1000
0000
1000
,
0100
0010
0000
0010
0000
0010
0000
0010
,
0001
0000
0000
0000
0000
0000
1000
0001
1000
0000
0000
0100
0000
0000
0010
0000
,
0000
0000
0010
0000
0100
0010
0100
0010
,
0100
0000
0100
0000
0010
0100
0010
0100
,
1000
1000
0001
0001
,
0010
0100
0000
0010
0100
0000
0010
0100
0000
0010
0100
0000
1000
0000
0001
0000
,
0010
0000
0000
0000
0010
0000
0000
0000
0100
0000
0000
0100
0000
0000
0100
0000
,
1000
0000
0001
0000
1000
0000
0001
0000
0100
0000
0000
0100
0000
0000
0100
0000
,
0001
1000
0001
1000
0001
1000
0001
1000
,
0100
0100
0100
1000
0010
0010
0010
0000
,
0001
0001
0001
0010
0100
0100
0100
0000
,
1000
1000
1000
0010
0100
0100
0100
0000
,
1001
0000
0000
0000
,
0000
0000
0000
0000
;
#NOTES:
     dance-single:
     :
     Hard:
     12:
     :
0000
0000
0000
0000
,
0000
0000
0000
0000
,
0000
0000
0000
0000
,
0000
0000
0000
0000
,
0000
0000
0000
0000
,
0010
1000
0100
0001
0100
1000
0010
0001
,
0010
1000
0100
0001
0100
1000
0010
0000
,
1100
0000
0011
0000
1000
1000
1000
0000
,
0010
0100
0000
0001
1000
0000
0010
0100
0000
0001
1000
0000
0010
0000
0100
0000
,
0001
0000
0000
0000
0010
0000
0000
0000
1100
0000
0000
0110
0000
0000
1001
0000
,
0010
0000
0000
0000
1000
0000
0000
0000
0110
0000
0000
1100
0000
0000
0101
0000
,
0010
0100
1000
0001
,
0000
1010
0000
1100
0000
0101
0000
1001
,
0010
0100
0000
0100
0000
0001
1000
0100
,
0010
0001
0000
0001
0000
0100
1000
0100
,
0001
0010
0000
0100
0000
1000
0010
0100
,
0001
1000
0100
0010
0001
1000
0100
0010
,
0001
0100
0000
0100
0000
0010
1000
0100
,
0010
0001
0000
0001
0000
1000
0010
0100
,
0001
0010
0000
0100
0000
1000
0001
0100
,
0010
1000
0100
0001
0100
1000
0010
0100
,
0001
1000
0010
0100
0001
1000
0010
0100
,
0001
1000
0001
0100
0010
0100
0001
1000
,
0010
0100
0010
0100
0001
1000
0001
1000
,
0010
0100
0010
0100
0001
1000
0001
1000
,
0010
0100
0001
1000
0010
0100
0001
1000
,
0010
0100
0010
1000
0001
1000
0010
0100
,
0001
1000
0001
0000
0010
0100
1000
0000
,
0010
0100
0001
0000
1000
0100
0010
0000
,
0001
0001
0001
0001
,
0010
0100
1000
0001
0100
0010
1001
0000
,
0100
0010
1000
0010
0100
0001
1001
0000
,
0010
1000
0001
1000
0100
0010
0011
0000
,
1000
0100
0010
0001
0100
0010
1000
0100
,
0010
0000
0000
0000
0000
0000
1000
0001
1000
0000
0000
1100
0000
0000
0010
0000
,
0001
0100
0001
0010
0100
1000
1001
0000
,
0100
0001
1000
0001
0010
0100
1100
0000
,
0001
0100
0010
1000
0100
0010
0001
0100
,
0010
0000
0000
0000
0000
0000
0100
0001
0100
0000
0000
1100
0000
0000
0001
0000
,
0010
0100
1000
0010
0100
0001
0011
0000
,
0100
1000
0010
0100
0001
1000
1100
0000
,
0010
0001
0100
0010
1000
0100
0010
0001
,
1000
0000
0000
0000
0000
0000
0001
0010
0001
0000
0000
0101
0000
0000
0010
0000
,
1000
0001
0010
0100
1000
0010
0110
0000
,
0001
0010
0100
1000
0001
0100
0110
0000
,
1000
0001
0100
0010
1000
0100
0010
0001
,
1000
0000
0000
0000
0000
0000
0100
0010
0100
0000
0000
1100
0000
0000
0010
0000
,
0000
0000
0010
1000
0010
1000
0100
0001
,
0100
0010
0001
0100
0010
1000
0100
0000
,
0011
0000
1010
0000
0001
0001
0001
0000
,
0010
0100
0000
1000
0001
0000
0010
0100
0000
1000
0001
0000
0010
0000
0100
0000
,
1000
0000
0001
0000
0010
0000
0100
0000
0101
0000
0000
0110
0000
0000
1001
0000
,
0010
0000
0100
0000
0001
0000
1000
0000
0110
0000
0000
0101
0000
0000
1100
0000
,
0010
0100
0001
0100
0010
1000
0100
1000
,
0100
0000
0100
0000
0100
0000
1000
0100
0010
0000
0100
0000
0100
0000
0000
0000
,
1000
0000
1000
0000
1000
0000
0001
1000
0010
0000
0100
0000
0100
0000
0000
0000
,
0001
0000
0001
0000
0001
0000
0010
0001
0100
0000
0010
0000
0010
0000
0000
0000
,
1001
0000
0000
0000
,
0000
0000
0000
0000
;
#NOTES:
     dance-double:
     :
     Easy:
     5:
     :
00000000
00000000
00000000
00000000
,
00000000
00000000
00000000
00000000
,
00000000
00000000
00000000
00000000
,
00000000
00000000
00000000
00000000
,
00000000
00000000
00000000
00000000
,
00001000
00001000
00001000
00001000
,
00000001
00000001
00000001
00000001
,
00000010
00000010
00000100
00000100
,
00001000
00010000
00100000
10000000
,
00010000
00010000
00010000
00010000
,
10000000
10000000
10000000
10000000
,
00100000
00100000
01000000
01000000
,
00000000
00010000
00000000
00010000
00000000
00010000
00000000
00010000
,
00000000
00000100
00000000
00000100
,
00000000
00001000
00000000
00001000
,
00000000
00010000
00000000
00010000
,
00000000
00100000
00000000
00100000
,
00000000
10000000
00000000
10000000
,
00000000
01000000
00000000
01000000
,
00000000
00010000
00000000
00010000
,
00000000
00001000
00000000
00001000
,
00000110
00011000
01100000
00000000
,
00010000
00010000
00010000
00010000
,
00100000
10000000
00010000
01000000
,
10000000
10000000
10000000
00000000
,
01100000
00011000
00000110
00000000
,
00001000
00001000
00001000
00001000
,
00000010
00000000
00001000
00000000
,
00010000
00000000
01000000
00000000
,
01000000
01000000
00010000
00010000
,
10000000
10000000
10000000
10000000
,
00010000
00000000
00000000
00000000
00000000
00000000
00000000
00001000
,
00010000
00000000
00000000
00000000
00000000
00000000
00000000
00001000
,
00010000
00000000
00000000
00000000
00000000
00000000
00000000
00001000
,
00010000
00000000
00000000
00100000
00000000
01000000
00000000
00100000
,
10000000
00000000
00000000
00000000
00000000
00000000
00000000
10000000
,
00010000
00000000
00000000
00000000
00000000
00000000
00000000
00010000
,
00001000
00000000
00000000
00000000
00000000
00000000
00000000
00001000
,
00000001
00000000
00000000
00000010
00000000
00000100
00000000
00000010
,
00000001
00000000
00000000
00000000
00000000
00000000
00000000
00000001
,
00001000
00000000
00000000
00000000
00000000
00000000
00000000
00001000
,
00010000
00000000
00000000
00000000
00000000
00000000
00000000
00010000
,
10000000
00000000
00000000
00100000
00000000
01000000
00000000
00100000
,
00010000
00000000
00000000
00000000
00000000
00000000
00000000
00001000
,
00010000
00000000
00000000
00000000
00000000
00000000
00000000
00010000
,
10000000
00000000
00000000
00000000
00000000
00000000
00000000
00001000
,
00000001
00000000
00000000
00001000
00000000
00010000
00000000
10000000
,
00000000
00100000
00100000
00100000
,
01000000
01000000
01000000
01000000
,
00010000
00010000
00001000
00001000
,
00010000
01000000
00001000
00000100
,
00000010
00000010
00000010
00000010
,
00000100
00000100
00000100
00000100
,
00001000
00001000
00000001
00000001
,
00000000
00001000
00000000
00001000
00000000
00001000
00000000
00001000
,
00000000
00010000
00000000
00010000
00000000
00010000
00000000
00010000
,
00000000
10000000
00000000
10000000
00000000
10000000
00000000
10000000
,
00000000
00000000
00000000
00000000
;
#NOTES:
     dance-double:
     :
     Medium:
     8:
     :
00000000
00000000
00000000
00000000
,
00000000
00000000
00000000
00000000
,
00000000
00000000
00000000
00000000
,
00000000
00000000
00000000
00000000
,
00000000
00000000
00000000
00000000
,
00100000
00000000
00100000
00000000
00010000
00001000
00010000
00001000
,
00000100
00000000
00000100
00000000
00000001
00000010
00000001
00000010
,
00001000
00010000
00001000
00010000
,
00001000
00010000
00000000
00001000
00010000
00000000
00001000
00010000
00000000
00001000
00010000
00000000
00001000
00000000
00010000
00000000
,
00000100
00000000
00000000
00000000
00000010
00000000
00000000
00000000
00000001
00000000
00000000
00000001
00000000
00000000
00000001
00000000
,
00001000
00000000
00000100
00000000
00001000
00000000
00000100
00000000
00010000
00000000
00000000
00010000
00000000
00000000
00010000
00000000
,
00000000
00100000
00010000
00001000
00010000
00100000
00010000
00001000
,
00000000
10000000
00000000
10000000
00000000
10000000
00000000
10000000
,
01000000
00010000
00000000
00010000
00000000
00010000
00000000
00010000
,
00100000
00001000
00000000
00001000
00000000
00001000
00000000
00001000
,
00010000
00000100
00000000
00000100
00000000
00000100
00000000
00000100
,
00001000
00000001
00000000
00000001
00000000
00000100
00000000
00000100
,
00000010
00001000
00000000
00001000
00000000
00001000
00000000
00001000
,
00000100
00010000
00000000
00010000
00000000
00010000
00000000
00010000
,
00001000
00100000
00000000
00100000
00000000
00100000
00000000
00100000
,
00010000
10000000
00000000
10000000
00000000
01000000
00000000
01000000
,
00100000
00010000
00001000
00000100
,
00000011
00000000
00000000
00001100
00000000
00000000
00011000
00000000
,
00100000
00000000
10000000
00000000
,
01000000
00000000
00010000
00000000
,
10010000
01100000
10010000
01100000
,
10010000
00000000
00000000
00011000
00000000
00000000
00001001
00000000
,
00000010
00000000
00000100
00000000
,
00001000
00000000
00010000
00000000
,
00100000
00100000
00100000
00100000
,
00010000
00001000
00010000
00001000
00010000
00001000
00010000
00001000
,
00010000
00100000
00000000
00100000
00000000
00100000
00000000
00100000
,
10000000
01000000
00000000
01000000
00000000
01000000
00000000
01000000
,
00010000
00001000
00000000
00001000
00000000
00001000
00000000
00001000
,
00000010
00000000
00000000
00000000
00000000
00000000
00000001
00000010
00000001
00000000
00000000
00000100
00000000
00000000
00000010
00000000
,
00001000
00000100
00000000
00000100
00000000
00000100
00000000
00000100
,
00010000
00001000
00000000
00001000
00000000
00001000
00000000
00001000
,
00100000
00010000
00000000
00010000
00000000
00010000
00000000
00010000
,
10000000
00000000
00000000
00000000
00000000
00000000
01000000
10000000
01000000
00000000
00000000
00100000
00000000
00000000
00010000
00000000
,
01000000
00001000
00000000
00001000
00000000
00001000
00000000
00001000
,
00010000
00000100
00000000
00000100
00000000
00000100
00000000
00000100
,
00001000
00000001
00000000
00000001
00000000
00000001
00000000
00000001
,
00000100
00000000
00000000
00000000
00000000
00000000
00000010
00000100
00000010
00000000
00000000
00001000
00000000
00000000
00000100
00000000
,
00010000
00001000
00000000
00001000
00000000
00001000
00000000
00001000
,
00100000
00010000
00000000
00010000
00000000
00010000
00000000
00010000
,
10000000
01000000
00000000
01000000
00000000
01000000
00000000
01000000
,
00100000
00000000
00000000
00000000
00000000
00000000
00010000
10000000
00010000
00000000
00000000
01000000
00000000
00000000
00001000
00000000
,
00000000
00000000
00010000
00000000
00000100
00001000
00000100
00001000
,
00000001
00000000
00000100
00000000
00001000
00010000
00001000
00010000
,
00100000
10000000
01000000
00010000
,
00001000
00010000
00000000
00001000
00010000
00000000
00001000
00010000
00000000
00001000
00010000
00000000
00001000
00000000
00010000
00000000
,
00000010
00000000
00000000
00000000
00001000
00000000
00000000
00000000
00000001
00000000
00000000
00000001
00000000
00000000
00000001
00000000
,
00000100
00000000
00001000
00000000
00000100
00000000
00001000
00000000
00010000
00000000
00000000
00010000
00000000
00000000
00010000
00000000
,
00001000
00010000
00000100
00010000
00001000
00010000
00000010
00001000
,
00000001
00000001
00000001
00000100
00000010
00000010
00000010
00000000
,
00001000
00001000
00001000
00000100
00010000
00010000
00010000
00000000
,
01000000
01000000
01000000
00010000
00100000
00100000
00100000
00000000
,
10010000
00000000
00000000
00000000
,
00000000
00000000
00000000
00000000
;
#NOTES:
     dance-double:
     :
     Hard:
     11:
     :
00000000
00000000
00000000
00000000
,
00000000
00000000
00000000
00000000
,
00000000
00000000
00000000
00000000
,
00000000
00000000
00000000
00000000
,
00000000
00000000
00000000
00000000
,
01100000
00000000
10010000
00000000
01000000
00010000
00001000
00000100
,
00000110
00000000
00001001
00000000
00000100
00001000
00010000
01000000
,
01100000
10010000
01100000
10010000
,
01000000
00000000
00000000
00010000
00000000
00000000
00001000
00000000
00000000
00010000
00000000
00000000
00001000
00000000
00000100
00000000
,
00000110
00000000
00000101
00000000
00000010
00001000
00010000
00000000
,
00100000
00010000
00001000
00000000
00000010
00001000
00010000
00000000
,
00010000
01000000
10000000
00000000
00110000
00000000
11000000
00000000
,
01000000
10000000
00000000
10000000
00000000
10000000
00000000
10000000
,
00100000
00010000
00001000
00000000
01000000
00001000
00010000
00000000
,
00000010
00010000
00001000
00000000
00001000
00000100
00000001
00000100
,
00000001
00000010
00000001
00000010
00001000
00010000
00001000
00010000
,
00100000
10000000
00100000
10000000
01000000
00010000
01000000
00000000
,
00100000
00001000
00010000
00000000
01000000
00001000
00010000
00000000
,
00100000
00010000
00001000
00000000
00000100
00001000
00010000
01000000
,
00100000
00010000
00100000
00010000
01000000
00001000
01000000
00001000
,
00010000
00000100
00010000
00000100
00001000
00000010
00001000
00000000
,
00000101
00001100
00010100
00001100
,
00000001
00000100
00001000
00000000
00010000
01000000
10000000
00000000
,
11000000
01010000
01001000
01010000
,
00100000
00010000
00001000
00000000
,
00010010
00011000
00101000
00011000
,
00001000
00000100
00000001
00000000
00001000
00000010
00000001
00000000
,
00000010
00001000
00000010
00000000
00000100
00010000
00000100
00000000
,
00001000
01000000
00001000
00000000
00010000
00100000
00010000
00000000
,
11000000
01010000
01001000
00110000
,
00001000
00010000
00001000
00000000
00010000
01000000
00010000
00000000
,
10000000
01000000
10000000
01000000
00100000
00010000
00100000
00010000
,
01000000
00001000
01000000
00001000
00010000
00001000
00010000
00001000
,
00010000
00000010
00010000
00000010
00001000
00000001
00001000
00000001
,
00001000
00000100
00000010
00000000
00000001
00000100
00000100
00000000
,
00000001
00000010
00000001
00000010
00000100
00010000
00000100
00010000
,
00001000
00100000
00001000
00100000
01000000
10000000
01000000
10000000
,
00100000
01000000
00100000
01000000
00010000
01000000
00010000
01000000
,
01010000
00000000
11000000
00000000
00010000
00100000
00100000
00000000
,
01000000
00100000
00001000
00010000
00001000
00100000
01000000
00000000
,
01000000
00010000
00001000
00000100
00001000
00010000
01000000
00000000
,
00100000
00001000
00010000
00000010
00010000
00001000
00100000
00000000
,
00110000
00101000
01001000
01010000
,
01000000
00001000
00100000
00010000
00100000
00001000
01000000
00000000
,
00001000
00010000
01000000
10000000
01000000
00010000
00001000
00000000
,
00001000
00010000
00000010
00010000
00000010
00010000
00001000
00000000
,
00010010
00001010
00000101
00001100
,
00000110
00000000
00001001
00000000
00000100
00001000
00010000
01000000
,
01100000
00000000
10010000
00000000
01000000
00010000
00001000
00000100
,
00000110
00001001
00000110
00001001
,
00000100
00000000
00000000
00001000
00000000
00000000
00010000
00000000
00000000
00001000
00000000
00000000
00010000
00000000
01000000
00000000
,
11000000
00000000
01010000
00000000
10000000
01000000
00010000
00000000
,
00001000
00010000
01000000
00000000
00001000
00010000
01000000
00000000
,
01100000
00000000
00101000
00000000
00110000
00000000
01100000
01000000
,
10000000
01000000
10000000
00100000
00010000
00100000
00010000
00001000
,
00000010
00001000
00000010
00000100
00000001
00000100
00000001
00000100
,
00001000
00000100
00001000
00000010
00010000
00000010
00010000
00001000
,
00000000
00000000
00000000
00000000
;
