
//----- song ID: stom -----//
#TITLE:stomp to my beat;
#ARTIST:JS16;
#BANNER:stomp to my beat.png;
#BACKGROUND:stomp to my beat-bg.png;
#CDTITLE:./CDTitles/Dancemania Winters.png;
#MUSIC:stomp to my beat.ogg;
#SAMPLESTART:7.668;
#SAMPLELENGTH:15;
#DISPLAYBPM:134;
#BPMS:0=31.25,4=133.914;

//---------------dance-single - ----------------
#NOTES:
     dance-single:
     :
     Beginner:
     3:
     :
0000
0000
0000
0000
,
0000
0000
0000
0000
,
0000
0000
0000
0000
,
0000
1000
0000
0001
,
0000
0100
0000
0100
,
0000
0001
0000
1000
,
0000
0010
0000
0010
,
0000
0001
0000
1000
,
0000
0001
0000
1000
,
0000
0001
0001
0001
,
0000
1000
1000
1000
,
0000
0010
0010
0010
,
0000
1000
0000
0001
,
0000
1000
1000
1000
,
0000
0001
0001
0001
,
0001
0000
1000
0000
,
0001
0000
0100
0000
,
1001
0000
0000
0000
,
0000
0000
0000
0000
,
0100
0000
0100
0000
,
0100
0000
0100
0000
,
1001
0000
0001
0000
,
1001
0000
1000
0000
,
1001
0000
0010
0000
,
0001
0001
0001
0000
,
1001
0000
0010
0000
,
1001
0000
0010
0000
,
1001
0000
0010
0000
,
0001
0001
0001
0000
,
1001
0000
0100
0000
,
1000
0000
1000
0000
,
1001
0000
0100
0000
,
0001
0000
0001
0000
,
1001
0000
0010
0000
,
1001
0000
0100
0000
,
0010
0010
0010
0000
,
0100
0100
0100
0000
,
1001
0000
0001
0000
,
1001
0000
1000
0000
,
1001
0000
0001
0000
,
1001
0000
1001
0000
,
1000
1000
0000
0000
,
0001
0001
0000
0000
,
1000
1000
1000
0000
,
0001
0001
0001
0000
,
1001
0000
0000
0000
;

//---------------dance-single - ----------------
#NOTES:
     dance-single:
     :
     Easy:
     7:
     :
0000
0000
0000
0000
,
0000
0000
0000
0000
,
0000
0000
0000
0000
,
0000
0010
0000
0010
,
1001
1100
0101
0000
,
0010
0000
0010
0000
1000
0001
0100
0000
,
0010
0000
0010
0000
0001
1000
0100
0000
,
0001
0110
0100
0100
,
1001
0101
1100
0000
,
0001
0000
0001
0001
,
0100
0000
0100
0100
,
1000
0000
1000
1000
,
0010
0010
0010
0010
,
0001
0001
0100
0100
,
1000
1000
0010
0010
,
0001
0100
1000
0010
,
0001
0100
1000
0010
,
0010
0000
0000
0000
0000
0000
1000
0010
,
0100
0000
0001
0000
0001
0000
1000
0010
,
0100
0000
0001
0000
0001
0000
1000
0010
,
0100
0000
0100
0000
1000
0010
0100
0000
,
0100
0000
0010
0000
0001
1000
0100
0000
,
0010
0000
0100
0000
1000
0001
0100
0000
,
0001
0110
0100
0100
,
1001
1100
0101
0000
,
1000
0000
0001
0000
0010
0100
1000
0000
,
0001
0000
1000
0000
0010
0100
0001
0000
,
1000
0110
0100
0100
,
1001
0101
1100
0000
,
0001
0001
0100
0100
,
0010
0000
1000
0000
1000
0100
0001
0000
,
1000
1000
0100
0100
,
0010
0000
0001
0000
0001
0100
1000
0000
,
1000
0001
0000
1000
,
0000
0001
0000
1000
,
0010
0010
0001
0001
,
0100
0100
1000
1000
,
0010
0100
0001
0100
,
0010
0100
1000
0100
,
0010
0100
0001
0100
,
1000
0100
1000
0100
,
0010
1100
0001
0100
,
0010
0101
1000
0100
,
0010
0001
0100
1000
,
0010
0001
0100
1000
,
0010
0000
0000
0000
;

//---------------dance-single - ----------------
#NOTES:
     dance-single:
     :
     Medium:
     8:
     :
0000
0000
0000
0000
,
0000
0000
0000
0000
,
0000
0000
0000
0000
,
0000
0010
0000
0010
,
1001
1100
0101
0000
,
1010
0000
0001
0000
0010
0100
1000
0000
,
0011
0000
1000
0000
0010
0100
0001
0000
,
0010
0011
1100
0100
,
1001
0101
1100
0000
,
0001
0000
1000
0000
0001
0010
1000
0000
,
0001
0000
1000
0000
0001
0100
1000
0000
,
0001
0000
1000
0000
0001
0010
1000
0000
,
0001
0100
1000
0000
0001
0100
1000
0000
,
0001
0010
0100
1000
,
1000
0100
0010
0001
,
0001
0100
1000
0010
,
0001
0100
1000
0010
,
0010
0000
0000
0000
0000
0000
1000
0010
,
0100
0000
0001
0010
0100
0000
1000
0010
,
0100
0000
0001
0010
0100
0000
1000
0010
,
0100
0010
0100
0010
1000
0010
0100
0000
,
1010
0000
0001
0000
0010
0100
1000
0000
,
0011
0000
1000
0000
0010
0100
0001
0000
,
0010
0011
1100
0100
,
1001
0101
1100
0000
,
0011
0000
1000
0000
0010
0100
0001
0000
,
1010
0000
0001
0000
0010
0100
1000
0000
,
0010
1010
0101
0100
,
1001
1100
0101
0000
,
0010
0010
0101
1100
,
0010
0000
0001
0000
1000
0100
0001
0000
,
0010
0010
1100
0101
,
0010
0000
1000
0000
0001
0100
1000
0000
,
1000
0001
0000
1000
,
0000
0010
0000
0100
,
0001
0100
1000
0010
,
0001
0100
1000
0010
,
0010
0000
0100
0000
0010
1000
0100
0000
,
0010
0000
0100
0000
0010
0001
0100
0000
,
0010
0100
0001
0100
,
1000
0100
1000
0100
,
0010
1100
0011
0100
,
0010
0101
1010
0100
,
0010
0001
0110
1001
,
0010
1000
0110
1001
,
0100
0000
0000
0000
;

//---------------dance-single - ----------------
#NOTES:
     dance-single:
     :
     Hard:
     10:
     :
0000
0000
0000
0000
,
0000
0000
0000
0000
,
0000
0000
0000
0000
,
0010
1000
0100
0000
0001
0100
0101
0000
,
1001
1100
0101
0000
,
0001
0100
1010
0000
0100
0010
1000
0000
,
0000
0100
0010
1000
0010
0000
0001
0000
,
0010
0001
0100
0000
1000
0100
1100
0000
,
1001
0101
1100
0000
,
0100
0000
0001
0100
1000
0010
0001
0000
,
0100
0000
1000
0100
0001
0010
1000
0000
,
0010
0000
1000
0010
0001
0100
1000
0000
,
0001
0100
1000
0100
0001
0100
1000
0000
,
0001
0010
0100
1000
1000
0100
0010
0001
,
0001
0010
0100
1000
1000
0100
0010
0001
,
1000
0100
0010
0001
0001
0010
0100
1000
,
1000
0100
0010
0001
0001
0010
0100
1000
,
0100
0000
0000
0000
0000
0000
0100
0010
,
1000
0000
0100
0010
0001
0000
0100
0010
,
1000
0000
0100
0010
0001
0000
0100
0010
,
1000
0010
1000
0010
0100
0010
1000
0000
,
1000
0010
0101
0000
0010
0100
0001
0000
,
0000
0010
0100
0001
0010
0000
1000
0000
,
0010
0001
0100
0000
0010
1000
1100
0000
,
1001
0101
1100
0000
,
0001
0010
1100
0000
0010
0100
1000
0000
,
0000
0010
0100
1000
0010
0000
0001
0000
,
0010
1000
0100
0000
0010
0001
0101
0000
,
1001
1100
0101
0000
,
0010
0010
0101
1100
,
0010
0000
0000
0000
0000
0001
0000
0100
1000
0000
0000
0100
0000
0001
0000
0000
,
0010
0010
1100
0101
,
0010
0000
0000
0000
0000
1000
0000
0100
0001
0000
0000
0100
0000
1000
0000
0000
,
1000
0000
0001
0001
0000
0000
1000
1000
,
0000
0000
0010
0010
0000
0000
0100
0100
,
0001
1000
0010
0100
0001
1000
0010
0100
,
0001
1000
0010
0100
0001
1000
0010
0100
,
1000
0100
0001
0010
1000
0010
0001
0000
,
1000
0010
0001
0100
1000
0100
0001
0000
,
1000
0100
0001
0010
1000
0010
0001
0000
,
0010
1000
0010
0001
0010
1000
0010
0000
,
0100
1000
1100
0000
0011
0001
0010
0000
,
0100
0001
0101
0000
1010
1000
0010
0000
,
0010
0001
1000
0010
0010
0100
1001
0000
,
0010
1000
0001
0100
0100
0010
1001
0000
,
0100
0000
0000
0000
;

//---------------dance-single - ----------------
#NOTES:
     dance-single:
     :
     Challenge:
     11:
     :
0000
0000
0000
0000
,
0000
0000
0000
0000
,
0000
0000
0000
0000
,
0010
0000
1000
0001
1000
0001
1000
0000
,
0110
1010
0101
1001
,
1010
0000
1000
0001
1000
0001
1000
0000
,
0011
0000
0001
1000
0001
1000
0001
0000
,
1100
0000
1000
0001
1000
0001
1000
0001
,
0100
0001
1000
0001
1000
0001
1000
0001
,
1001
0000
0000
0000
0010
0000
0100
0000
0001
1000
0000
0001
1000
0000
0010
0000
,
0101
0000
0000
0000
0100
0000
0010
0000
1000
0001
0000
1000
0001
0000
0100
0000
,
0110
0000
0000
0000
0010
0000
0100
0000
0001
1000
0000
0001
1000
0000
0010
0000
,
1000
0001
0000
1000
0001
0000
0100
0000
0001
1000
0000
0001
1000
0000
0010
0000
,
0110
0000
0000
0001
1000
0000
0000
0010
1000
0000
0000
0100
1000
0000
0000
0010
,
1000
0000
0000
0001
1000
0000
0000
0001
0100
0000
0000
0001
0010
0000
0000
0001
,
1000
0100
0001
0100
1000
0010
0001
0010
,
1000
0100
0001
0100
1000
0010
0001
0010
,
1001
0000
1000
1001
0001
0000
0010
1010
,
1000
0000
0001
1001
1000
0000
0010
0110
,
0100
0000
0001
0101
0100
0000
0100
0100
,
1000
1000
0010
0010
0001
0001
0100
0100
,
1001
0000
0001
1000
0001
0100
0010
0000
,
1001
0000
1000
0001
1000
0010
0100
0000
,
1001
0000
0001
1000
0001
0100
0010
0100
,
0000
1001
0000
0101
0000
0010
0001
1000
,
1001
0000
0001
1000
0001
0100
0010
0000
,
1001
0000
1000
0001
1000
0010
0100
0000
,
1001
0000
0001
1000
0001
0100
0010
0100
,
0000
1001
0000
1010
0000
0100
1000
0001
,
1001
1010
0101
1001
,
0001
0000
0010
0001
0000
1000
0100
0000
1000
0010
0000
1000
0001
0000
0100
0000
,
1001
0101
1010
1001
,
1000
0000
0100
1000
0000
0001
0010
0000
0001
0100
0000
0001
1000
0000
0010
0000
,
1100
0000
0010
0100
0101
0000
0010
0100
,
1100
0000
0010
0100
0101
0000
0010
0100
,
1000
0100
0010
0001
0001
0010
0100
1000
,
1000
0010
0100
0001
0001
0100
0010
1000
,
1001
0000
0000
0000
0010
0000
0100
0000
0001
1000
0000
0001
1000
0000
0010
0000
,
0101
0000
0000
0000
0100
0000
0010
0000
1000
0001
0000
1000
0001
0000
0100
0000
,
0110
0000
0000
0000
0010
0000
0100
0000
0001
1000
0000
0001
1000
0000
0010
0000
,
1000
0001
0000
1000
0001
0000
0100
0000
0001
1000
0000
0001
1000
0000
0010
0000
,
0110
0000
1000
0001
1001
0000
0100
0010
,
0110
0000
1000
0010
1010
0000
0100
1000
,
1000
0100
0001
0100
1000
0010
0001
0010
,
1000
0100
0001
0100
1000
0010
0001
0010
,
1001
0000
0000
0000
;

//---------------dance-double - ----------------
#NOTES:
     dance-double:
     :
     Easy:
     7:
     :
00000000
00000000
00000000
00000000
,
00000000
00000000
00000000
00000000
,
00000000
00000000
00000000
00000000
,
00000000
01000000
00000000
00001000
,
00000000
01000000
00000000
00001000
,
00000010
00001000
00010000
00000000
01000000
00000000
10000000
00000000
,
00100000
00010000
00001000
00000000
00000100
00000000
00000001
00000000
,
00000010
00000100
00001000
00010000
,
00110000
10010000
11000000
00000000
,
00010000
10000000
00100000
01000000
,
00001000
00000001
00000010
00000100
,
00010000
10000000
00100000
01000000
,
00100000
00010000
01000000
00000000
00100000
00010000
01000000
00000000
,
00010000
00010000
01000000
10000000
,
01100000
10010000
01100000
10010000
,
01000000
10000000
00100000
00010000
,
00001000
00000010
00000001
00000100
,
00000100
00000000
00000000
00000000
00000000
00000000
00000001
00000010
,
00000100
00000000
00000010
00000100
00001000
00000000
00000100
00001000
,
00010000
00000000
00100000
01000000
10000000
00000000
00100000
01000000
,
00010000
00000000
00100000
00000000
10000000
00100000
00010000
00000000
,
00100000
00010000
00001000
00000000
00000100
00000000
00000001
00000000
,
00000010
00001000
00010000
00000000
01000000
00000000
10000000
00000000
,
00100000
01000000
00010000
00001000
,
00001010
00001001
00000101
00000000
,
00000010
00001000
00010000
00000000
01000000
00000000
10000000
00000000
,
00100000
00010000
00001000
00000000
00000100
00000000
00000001
00000000
,
00000010
00000100
00001000
00010000
,
00110000
10010000
11000000
00000000
,
00010000
00010000
01000000
10000000
,
00100000
00000000
10000000
00000000
01000000
00010000
00001000
00000000
,
00000110
00001001
00000110
00001001
,
00000010
00000000
00000001
00000000
00000100
00001000
00010000
00000000
,
11000000
00010000
00000000
00001000
,
00000000
00000001
00000000
00100000
,
00100000
10000000
01000000
00010000
,
00001000
00000100
00000001
00000010
,
00000010
00000000
00001001
00000000
00000001
00000100
00001000
00000000
,
00010000
00000000
01000000
00000000
10000000
01000000
00010000
00000000
,
01000000
00100000
10000000
00010000
,
00001000
00000010
00000001
00000000
00000010
00001000
00010000
00000000
,
01100000
00010000
00001000
00000001
,
00000110
00001000
00010000
10000000
,
00100000
10000000
01000000
00010000
,
00001000
00000100
00000001
00000010
,
00000010
00000000
00000000
00000000
;

//---------------dance-double - ----------------
#NOTES:
     dance-double:
     :
     Medium:
     8:
     :
00000000
00000000
00000000
00000000
,
00000000
00000000
00000000
00000000
,
00000000
00000000
00000000
00000000
,
00000000
01000000
00000000
00001000
,
00000000
00000100
00000000
00000001
,
00000100
00000000
00001000
00000000
00010000
01000000
10000000
00000000
,
01000000
00000000
00010000
00000000
00001000
00000100
00000001
00000000
,
00000100
00001000
00000010
00000001
,
00000110
00011000
01100000
00000000
,
10000000
00010000
00001000
00000100
,
00000001
00001000
00010000
01000000
,
00100000
00010000
10000000
00000000
00010000
10000000
01000000
00000000
,
11000000
00110000
01100000
10010000
,
00100000
01000000
00010000
00001000
,
00000100
00010000
01000000
00001000
,
00000010
00010000
00100000
00001000
,
00000100
00000001
00001000
00010000
,
01000000
00000000
00000000
00000000
00000000
00000000
00100000
00010000
,
10000000
00000000
00010000
10000000
01000000
00000000
10000000
00100000
,
01000000
00000000
00010000
00100000
01000000
00000000
01000000
00010000
,
00001000
00000100
00001000
00010000
01000000
00000000
01000000
00000000
,
01000000
00000000
00010000
00000000
00001000
00000100
00000001
00000000
,
00000100
00000000
00001000
00000000
00010000
01000000
10000000
00000000
,
01000000
00010000
00100000
10000000
,
01100000
00011000
00000110
00000000
,
00000100
00000000
00001000
00000000
00010000
01000000
10000000
00000000
,
01000000
00000000
00010000
00000000
00001000
00000100
00000001
00000000
,
00000100
00001000
00000010
00000001
,
00000110
00011000
01100000
00000000
,
01100000
10010000
00100000
01000000
,
00100000
00000000
00010000
00000000
10000000
00100000
00010000
00000000
,
00000110
00001001
00000010
00000100
,
00000010
00000000
00001000
00000000
00000001
00000010
00001000
00000000
,
00000011
00001000
00000000
00000001
,
00000000
00100000
00000000
00000010
,
00000001
00000100
00001000
00010000
,
11000000
00110000
10010000
01100000
,
10000000
00100000
10000000
01100000
,
10000000
00100000
10000000
01100000
,
00010000
00000000
10000000
00000000
00100000
00010000
01000000
00000000
,
00100000
00010000
00001000
00000000
00010000
01000000
10000000
00000000
,
01000000
00010000
00001000
01000000
,
00001000
00000010
00010000
00001000
,
00000110
00001001
00010000
10000000
,
01010000
11000000
01100000
10010000
,
00100000
00000000
00000000
00000000
;

//---------------dance-double - ----------------
#NOTES:
     dance-double:
     :
     Hard:
     9:
     :
00000000
00000000
00000000
00000000
,
00000000
00000000
00000000
00000000
,
00000000
00000000
00000000
00000000
,
01100000
00000000
10010000
00000000
00100000
00001000
00010000
00000000
,
00001001
00000110
00011000
00000000
,
00110000
00000000
11000000
00000000
00010000
01000000
00001000
00010000
,
00000000
00000000
00001001
00000000
00000010
00000100
00010000
00001000
,
00000000
00000000
10010000
00000000
00100000
01000000
00010000
00000000
,
00011000
00000110
00001001
00000000
,
00000010
00000000
00000100
00000000
00010000
00001000
00010000
00000000
,
00000010
00000000
00000100
00000000
00000001
00000010
00000100
00000000
,
00010000
00000000
00001000
00000000
00100000
01000000
10000000
00000000
,
00110000
11000000
00011000
00000000
,
00001001
00000110
00011000
00110000
,
11000000
01010000
00011000
00001010
,
00000001
00000010
00000100
00010000
00001000
01000000
00100000
10000000
,
01000000
00100000
00001000
00010000
00000100
00000010
00000001
00000100
,
00000010
00000000
00000000
00000000
,
00010000
00000000
00000000
00000000
,
00001000
00000000
00100000
00000000
,
01000000
10000000
00100000
01000000
,
00000000
00000000
00011000
00000000
00000100
00000010
00000001
00000000
,
00000000
00000000
00001100
00000000
00010000
00001000
00100000
00000000
,
10010000
00000000
01100000
00000000
00010000
01000000
00001000
00000000
,
00010010
00001001
00010100
00000000
,
00000000
00000000
00110000
00000000
10000000
00100000
01000000
00000000
,
00000000
00000000
00011000
00000000
00000100
00000010
00000001
00000000
,
00001100
00000000
00011000
00000000
00100000
01000000
10000000
00000000
,
01010000
00011000
00000101
00000000
,
00001100
00011000
01100000
10010000
,
00100000
00000000
00001000
00000000
00010000
00001000
00001000
00000000
,
00001010
00000101
00001100
00011000
,
00100000
00000000
01000000
00000000
10000000
00010000
00010000
00000000
,
01100000
00010000
00011000
00000100
,
00000101
00000010
00000011
00001000
,
00000100
00010000
00001000
01000000
00010000
10000000
01000000
00100000
,
00010000
01000000
00001000
00010000
00000100
00000010
00000001
00000100
,
00000010
00000000
00001000
00000000
00000100
00010000
00000100
00010000
,
00001000
00000000
00100000
00000000
01000000
10000000
01000000
10000000
,
00010000
00000000
01000000
00000000
00001000
00010000
00001000
00010000
,
00001100
00000011
00000101
00001100
,
00011000
00000000
00100000
00010000
11000000
00000000
00100000
00010000
,
00011000
00000000
00000100
00000010
00001001
00000000
00000100
00010000
,
00001000
01000000
00100000
10000000
01000000
00100000
00001000
00000010
,
00000001
00000100
00000010
00001000
00000100
00010000
00001000
00100000
,
10010000
00000000
00000000
00000000
;

//---------------dance-double - ----------------
#NOTES:
     dance-double:
     :
     Challenge:
     13:
     :
00000000
00000000
00000000
00000000
,
00000000
00000000
00000000
00000000
,
00000000
00000000
00000000
00000000
,
00010000
00000000
00001000
00010000
00001000
00010000
00001000
00000000
,
00101000
01001000
00010010
00010100
,
00010000
00000000
00001000
00000100
00000010
00000001
00001000
00000000
,
00011000
00000000
00010000
00100000
01000000
10000000
00010000
00000000
,
00011000
00000000
00000100
00001000
00010000
00100000
00001000
00010000
,
00000000
11000000
00000000
01010000
00000000
00001010
00000000
00000101
,
00000001
00000000
00000000
00000000
00001000
00000000
00000001
00000000
00001000
00000001
00000000
00001000
00000001
00000000
00001000
00000000
,
00010000
00000000
00000000
00000000
10000000
00000000
00010000
00000000
10000000
00010000
00000000
10000000
00010000
00000000
10000000
00000000
,
01000000
00000000
00000000
00000000
00010000
00000000
00001000
00000000
00000100
00000010
00000000
00000100
00001000
00000000
00010000
00000000
,
00100000
10000000
00000000
00010000
01000000
00000000
00100000
00000000
00010000
00001000
00000000
00000100
00001000
00000000
00010000
00000000
,
00011000
00000000
00000000
00010000
00001000
00000000
00000000
00001000
00000100
00000000
00000000
00000100
00000001
00000000
00000000
00000001
,
00000010
00000000
00000000
00000010
00000100
00000000
00000000
00000100
00001000
00000000
00000000
00001000
00000001
00000000
00000000
00001000
,
00010000
00100000
10000000
00100000
00001000
00000100
00000001
00000100
,
00010000
00100000
10000000
00100000
00001000
00000100
00000001
00000100
,
00010000
00000000
00010000
00100000
01000000
00000000
00001000
00000100
,
00000010
00000000
00001000
00010000
00100000
00000000
00010000
00001000
,
00000100
00000000
00010000
00100000
01000000
00000000
00001000
00010000
,
00001000
00010000
00100000
10000000
00100000
00010000
00001000
00000010
,
00000001
00000000
00000000
00000000
00000010
00000000
00000100
00000000
00000001
00001000
00000000
00001000
00000100
00000000
00000100
00000000
,
00001000
00000000
00000000
00000000
00010000
00000000
10000000
00000000
00100000
01000000
00000000
01000000
00010000
00000000
00010000
00000000
,
00001000
00000000
00000000
00000000
00000100
00000000
00000010
00000000
00000100
00001000
00000000
00001000
00010000
00100000
00000000
00100000
,
00000000
00000000
00100000
00000000
00000000
00000000
00010000
00000000
00000000
00000000
00100000
00000000
00100000
00010000
00000000
00100000
,
00010000
00000000
00000000
00000000
00001000
00000000
00000001
00000000
00000100
00000010
00000000
00000010
00001000
00000000
00001000
00000000
,
00010000
00000000
00000000
00000000
10000000
00000000
00010000
00000000
01000000
00100000
00000000
00100000
10000000
00000000
10000000
00000000
,
01000000
00000000
00000000
00000000
00010000
00000000
00001000
00000000
00000100
00000010
00000000
00000010
00001000
00000100
00000000
00000100
,
00000000
00000000
00001100
00000000
00000000
00000000
00011000
00000000
00000000
00000000
00110000
00000000
00001000
00010000
00000000
00010000
,
00001000
00101000
00010000
00010100
,
00010000
00000000
00001000
00010000
00000000
00000100
00010000
00000000
00001000
00010000
00000000
00000010
00010000
00000000
00001000
00000000
,
00010000
00010100
00001000
00101000
,
00010000
00000000
00001000
00010000
00000000
00000100
00010000
00000000
00001000
00010000
00000000
00001000
00000100
00000000
00000010
00000000
,
00000001
00000000
00000010
00000100
00000010
00000000
00010000
00001000
,
00010000
00000000
01000000
00100000
01000000
00000000
00100000
00010000
,
00001000
00000010
00000100
00000001
00000001
00000100
00000010
00001000
,
00010000
01000000
00100000
10000000
10000000
00100000
01000000
00010000
,
00001000
00000000
00000000
00000000
00000001
00000000
00001000
00000000
00000001
00001000
00000000
00000001
00001000
00000000
00000001
00000000
,
00001000
00000000
00000000
00000000
00010000
00000000
10000000
00000000
00010000
10000000
00000000
00010000
10000000
00000000
00010000
00000000
,
00001000
00000000
00000000
00000000
00000010
00000000
00001000
00000000
00000001
00001000
00000000
00000100
00001000
00000000
00010000
00000000
,
01000000
00010000
00000000
10000000
00010000
00000000
00100000
00000000
00010000
00001000
00000000
00010000
00001000
00000000
00000100
00000000
,
00001001
00000000
00000100
00000010
00001010
00000000
00010000
00001000
,
00110000
00000000
01000000
00100000
01010000
00000000
10000000
00010000
,
10000000
01000000
00010000
00001000
00000010
00000001
00000100
00001000
,
00010000
01000000
10000000
00100000
00010000
00001000
00000100
00000001
,
00000101
00000000
00000000
00000000
;

//---------------dance-couple - ----------------
#NOTES:
     dance-couple:
     :
     Easy:
     5:
     :
00000000
00000000
00000000
00000000
,
00000000
00000000
00000000
00000000
,
00000000
00000000
00000000
00000000
,
00000000
00100010
00000000
00100010
,
10011001
11001100
01010101
00000000
,
00100000
00000000
00100010
00000000
10000000
00010000
01000100
00000000
,
00000010
00000000
00100010
00000000
00000001
00001000
01000100
00000000
,
00010001
01100110
01000100
01000100
,
10011001
01010101
11001100
00000000
,
10000001
00000000
10000001
10000001
,
01000100
00000000
01000100
01000100
,
00011000
00000000
00011000
00011000
,
00100010
00100010
00100010
00100010
,
00011000
00011000
01000100
01000100
,
10000001
10000001
00100010
00100010
,
00011000
01000100
10000001
00100010
,
00011000
01000100
10000001
00100010
,
00100010
00000000
00000000
00000000
00000000
00000000
00010000
00100000
,
01000000
00000000
00001000
00000010
00000100
00000000
00010000
00100000
,
01000000
00000000
00001000
00000010
00000100
00000000
00011000
00100010
,
01000100
00000000
01000100
00000000
00011000
00100010
01000100
00000000
,
00000100
00000000
00100010
00000000
00000001
00001000
01000100
00000000
,
00100000
00000000
01000100
00000000
10000000
00010000
01000100
00000000
,
00010001
01100110
01000100
01000100
,
10011001
11001100
01010101
00000000
,
10000000
00000000
00010010
00000000
00100000
01000000
10000100
00000000
,
00000001
00000000
00101000
00000000
00000010
00000100
01000001
00000000
,
10001000
01100110
01000100
01000100
,
10011001
01010101
11001100
00000000
,
00010001
00010001
01000100
01000100
,
00100000
00000000
10000100
00000000
10000000
01000000
00010100
00000000
,
10001000
10001000
01000100
01000100
,
00000010
00000000
01000001
00000000
00000001
00000100
01001000
00000000
,
10001000
00010001
00000000
10001000
,
00000000
00010001
00000000
10001000
,
00100010
00100010
00011000
00011000
,
01000100
01000100
10000001
10000001
,
10010000
00000000
01000000
00000000
00100000
00010000
01000100
00000000
,
10010000
00000000
01000000
00000000
00100000
10000000
01000100
00000000
,
00000010
00000001
00001000
01000100
,
00000001
00000100
00001000
00000000
00000001
00000100
01001000
00000000
,
00100000
01010000
00100000
11000100
,
00000010
00001100
00000010
01000101
,
00100010
00011000
01000100
10000001
,
00100010
00011000
01000100
10000001
,
00100010
00000000
00000000
00000000
;

//---------------dance-couple - ----------------
#NOTES:
     dance-couple:
     :
     Medium:
     6:
     :
00000000
00000000
00000000
00000000
,
00000000
00000000
00000000
00000000
,
00000000
00000000
00000000
00000000
,
00000000
00100010
00000000
00100010
,
10011001
11001100
01010101
00000000
,
10100000
00000000
00010100
00000000
00100000
01000000
10000100
00000000
,
00000011
00000000
01001000
00000000
00000010
00000100
01000001
00000000
,
00100010
00111010
11000101
01000100
,
10011001
01011100
11000101
00000000
,
00011000
00000000
10001000
00000000
00011000
00100000
10001000
00000000
,
00010001
00000000
00011000
00000000
00010001
00000100
00011000
00000000
,
00011000
00000000
10000001
00000000
00011000
00100010
10000001
00000000
,
00011000
01000100
10000001
00000000
00011000
01000100
10000001
00000000
,
00000001
00000010
00000100
00001000
,
10000000
01000000
00100000
00010000
,
00010001
01000100
10001000
00100010
,
00010001
01000100
10001000
00100010
,
00100010
00000000
00000000
00000000
00000000
00000000
10000000
00100000
,
01000000
00000000
00000001
00000010
00000100
00000000
10000000
00100000
,
01000000
00000000
00000001
00000010
00000100
00000000
10001000
00100010
,
01000100
00100010
01000100
00100010
10001000
00100010
01000100
00000000
,
10100000
00000000
00010100
00000000
00100000
01000000
10000100
00000000
,
00000011
00000000
01001000
00000000
00000010
00000100
01000001
00000000
,
00100010
00111010
11000101
01000100
,
10011001
01011100
11000101
00000000
,
00000011
00000000
01001000
00000000
00000010
00000100
01000001
00000000
,
10100000
00000000
00010100
00000000
00100000
01000000
10000100
00000000
,
00100010
00111010
11000101
01000100
,
10011001
01011100
11000101
00000000
,
00100010
00100010
01010101
11001100
,
00100000
00000000
00010000
00000000
10000000
01000000
00010000
00000000
,
00100010
00100010
11001100
01010101
,
00000010
00000000
00000001
00000000
00000001
00000100
00001000
00000000
,
10001000
00010001
00000000
10001000
,
00000000
00100010
00000000
01000100
,
00010001
01000100
10001000
00100010
,
00010001
01000100
10001000
00100010
,
00100000
00000000
01000100
00000000
00010000
01000000
10000100
00000000
,
00010000
00000000
10000100
00000000
00010000
01000000
10000100
00000000
,
00100010
00000000
01000100
00000000
00000001
00001000
01000100
00000000
,
00001000
00000001
01000100
00000000
00001000
00000001
01000100
00000000
,
00100010
11001100
00110011
01000100
,
00100010
01010101
10101010
01000100
,
00100010
00010001
01100110
10011001
,
00100010
10001000
01100110
10011001
,
01000100
00000000
00000000
00000000
;

//---------------dance-couple - ----------------
#NOTES:
     dance-couple:
     :
     Hard:
     7:
     :
00000000
00000000
00000000
00000000
,
00000000
00000000
00000000
00000000
,
00000000
00000000
00000000
00000000
,
00100010
10001000
01000100
00000000
00010001
01000100
01010101
00000000
,
10011001
11001100
01010101
00000000
,
00010001
01000100
10101010
00000000
01000100
00100010
10001000
00000000
,
00000000
01000100
00100010
10001000
00100010
00000000
00010001
00000000
,
00100010
00010001
01000100
00000000
10001000
01000100
11001100
00000000
,
10011001
01010101
11001100
00000000
,
01000100
00000000
00010001
01000000
10001000
00100000
00010001
00000000
,
01000100
00000000
10001000
00000100
00010001
00000010
10001000
00000000
,
00100010
00000000
10001000
00100010
00010001
01000100
10001000
00000000
,
00010001
01000100
10001000
01000100
00010001
01000100
10001000
00000000
,
00011000
00100100
01000010
10000001
10000001
01000010
00100100
00011000
,
00011000
00100100
01000010
10000001
10000001
01000010
00100100
00011000
,
10000001
01000010
00100100
00011000
00011000
00100100
01000010
10000001
,
10000001
01000010
00100100
00011000
00011000
00100100
01000010
10000001
,
01000100
00000000
00000000
00000000
00000000
00000000
01000100
00100000
,
10001000
00000000
01000100
00000010
00010001
00000000
01000100
00100000
,
10001000
00000000
01000100
00000010
00010001
00000000
01000100
00100010
,
10001000
00100010
10001000
00100010
01000100
00100010
10001000
00000000
,
10001000
00100000
01010101
00000000
00100010
01000000
00010001
00000000
,
00000000
00100010
01000100
00010001
00100010
00000000
10001000
00000000
,
00100010
00010001
01000100
00000000
00100010
10001000
11001100
00000000
,
10011001
01010101
11001100
00000000
,
00010001
00000010
11001100
00000000
00100010
00000100
10001000
00000000
,
00000000
00100010
01000100
10001000
00100010
00000000
00010001
00000000
,
00100010
10001000
01000100
00000000
00100010
00010001
01010101
00000000
,
10011001
11001100
01010101
00000000
,
00100010
00100010
01011100
11000101
,
00100010
00000000
00000000
00000000
00000000
00011000
00000000
01000100
10000001
00000000
00000000
01000100
00000000
00011000
00000000
00000000
,
00100010
00100010
11000101
01011100
,
00100010
00000000
00000000
00000000
00000000
10000001
00000000
01000100
00011000
00000000
00000000
01000100
00000000
10000001
00000000
00000000
,
10000001
00000000
00010001
00010001
00000000
00000000
10001000
10001000
,
00000000
00000000
00100010
00100010
00000000
00000000
01000100
01000100
,
00010001
10001000
00100010
01000100
00010001
10001000
00100010
01000100
,
00010001
10001000
00100010
01000100
00010001
10001000
00100010
01000100
,
10001000
01000000
00010001
00100000
10001000
00100000
00010001
00000000
,
10001000
00000010
00010001
00000100
10001000
00000100
00010001
00000000
,
10001000
01000100
00010001
00100010
10001000
00100010
00010001
00000000
,
00100010
10001000
00100010
00010001
00100010
10001000
00100010
00000000
,
01000100
10000001
11000101
00000000
00111010
00011000
00100010
00000000
,
01000100
00011000
01011100
00000000
10100011
10000001
00100010
00000000
,
00100010
00011000
10000001
00100010
00100010
01000100
10011001
00000000
,
00100010
10000001
00011000
01000100
01000100
00100010
10011001
00000000
,
01000100
00000000
00000000
00000000
;

//---------------dance-couple - ----------------
#NOTES:
     dance-couple:
     :
     Challenge:
     5:
     :
00000000
00000000
00000000
00000000
,
00000000
00000000
00000000
00000000
,
00000000
00000000
00000000
00000000
,
00000000
00100010
00000000
00100010
,
10011001
11001100
01010101
00000000
,
10100000
00000000
00010000
00000000
00100000
01000000
10000000
00000000
,
00001010
00000000
00000001
00000000
00000010
00000100
00001000
00000000
,
00100010
00110011
11001100
01000100
,
10011001
01010101
11001100
00000000
,
00010000
00000000
10000000
00000000
00010000
00100000
10000000
00000000
,
00000001
00000000
00001000
00000000
00000001
00000010
00001000
00000000
,
00010001
00000000
10001000
00000000
00010001
01000100
10001000
00000000
,
00010000
01000000
10000000
00000000
00000001
00000100
00001000
00000000
,
00011000
00100100
01000010
10000001
,
10000001
01000010
00100100
00011000
,
10000001
01000100
00100010
00011000
00011000
00100010
01000100
10000001
,
10000001
01000100
00100010
00011000
00011000
00100010
01000100
10000001
,
01000100
00000000
00000000
00000000
,
10000001
00000000
10000001
00000000
,
10000001
00000000
10000001
00000000
,
10000001
00000000
10000001
00000000
,
10101010
00000000
00000001
00000000
10000010
00000100
00001000
00000000
,
10000011
00000000
00001000
00000000
10000010
00000100
00000001
00000000
,
10000010
00000011
10001100
00000100
,
10001001
00000101
00001100
00000000
,
10101010
00000000
00010000
00000000
00100001
01000000
10000000
00000000
,
00110001
00000000
10000000
00000000
00100001
01000000
00010000
00000000
,
00100001
00110000
11000001
01000000
,
10010001
01010000
11000000
00000000
,
10000010
10000010
10000101
10001100
,
00000010
00000000
00000001
00000000
00001000
00000100
00000001
00000000
,
00100001
00100001
11000001
01010001
,
00100000
00000000
10000000
00000000
00010000
01000000
10000000
00000000
,
00001010
00000000
11000000
00000000
,
00001100
00000000
01010000
00000000
,
00010001
10001000
00100010
01000100
00010001
10001000
00100010
01000100
,
00010001
10001000
00100010
01000100
00010001
10001000
00100010
01000100
,
10001000
00000000
01000100
00000000
00100010
00010001
01000100
00000000
,
00010000
00000000
10000000
00000000
01000000
10000000
00010000
00000000
,
00000001
00000000
00001000
00000000
00000100
00001000
00000001
00000000
,
10001000
01000100
00010001
01000100
,
00100000
11000000
00110000
01000000
,
00000010
00000101
00001010
00000100
,
00100010
00010001
10001000
00100010
00100010
01000100
10011001
00000000
,
00100010
10001000
00010001
01000100
01000100
00100010
10011001
00000000
,
01000100
00000000
00000000
00000000
;

//---------------dance-solo - ----------------
#NOTES:
     dance-solo:
     :
     Easy:
     5:
     :
000000
000000
000000
000000
,
000000
000000
000000
000000
,
000000
000000
000000
000000
,
000000
010000
000000
000010
,
100001
011000
001010
000000
,
000100
000000
000100
000000
010000
000001
001000
000000
,
000100
000000
000100
000000
000010
100000
001000
000000
,
000001
001100
001000
001000
,
100001
001010
011000
000000
,
000001
000000
000010
000010
,
001000
000000
001000
001000
,
100000
000000
010000
010000
,
000100
000100
000100
000100
,
000010
000010
001000
001000
,
100000
100000
000100
000100
,
000001
001000
100000
000010
,
000001
001000
100000
000100
,
000100
000000
000000
000000
000000
000000
100000
000100
,
001000
000000
000010
000000
000010
000000
100000
000100
,
001000
000000
000010
000000
000010
000000
100000
000100
,
001000
000000
001000
000000
100000
000100
001000
000000
,
001000
000000
000100
000000
000010
100000
001000
000000
,
000100
000000
001000
000000
100000
000001
001000
000000
,
000010
001100
001000
001000
,
100001
011000
001010
000000
,
100000
000000
000001
000000
000100
001000
010000
000000
,
000001
000000
100000
000000
000100
001000
000010
000000
,
100000
001100
001000
001000
,
100001
001010
011000
000000
,
000001
000001
001000
001000
,
000100
000000
100000
000000
100000
001000
000010
000000
,
100000
100000
001000
001000
,
000100
000000
000001
000000
000001
001000
010000
000000
,
100000
000001
000000
010000
,
000010
000000
000000
100000
,
000100
000100
000001
000001
,
001000
001000
100000
100000
,
000100
001000
000010
001000
,
000100
001000
010000
001000
,
000100
001000
000010
001000
,
100000
001000
010000
001000
,
000100
101000
000001
001000
,
000100
001001
100000
001000
,
010000
000001
001000
100000
,
000010
000001
001000
100000
,
000100
000000
000000
000000
;

//---------------dance-solo - ----------------
#NOTES:
     dance-solo:
     :
     Medium:
     6:
     :
000000
000000
000000
000000
,
000000
000000
000000
000000
,
000000
000000
000000
000000
,
000000
000100
000000
000100
,
010010
101000
001001
000000
,
100010
000000
000001
000000
000100
001000
010000
000000
,
000101
000000
010000
000000
000100
001000
000010
000000
,
000100
010001
101000
001000
,
100001
001010
011000
000000
,
000001
000000
100000
000000
000001
000100
100000
000000
,
000001
000000
100000
000000
000001
001000
100000
000000
,
000010
000000
010000
000000
000001
000100
100000
000000
,
000001
001000
100000
000000
000010
001000
010000
000000
,
000001
000100
001000
100000
,
010000
001000
000100
000010
,
000001
001000
100000
000100
,
000001
001000
100000
000100
,
000100
000000
000000
000000
000000
000000
100000
000100
,
001000
000000
000010
000100
001000
000000
010000
000100
,
001000
000000
000001
000100
001000
000000
100000
000100
,
001000
000010
001000
000100
100000
000010
001000
000000
,
100100
000000
000001
000000
000100
001000
010000
000000
,
000101
000000
100000
000000
000100
001000
000010
000000
,
000100
010001
101000
001000
,
100001
001001
101000
000000
,
000101
000000
100000
000000
000100
001000
000010
000000
,
100100
000000
000001
000000
000100
001000
010000
000000
,
000001
100100
001001
001000
,
100001
011000
001010
000000
,
000100
000100
001001
101000
,
000100
000000
000001
000000
010000
001000
000010
000000
,
000100
000100
101000
001001
,
000100
000000
100000
000000
000010
001000
010000
000000
,
100000
000001
000000
100000
,
000000
000100
000000
001000
,
000010
001000
100000
000100
,
000010
001000
100000
000100
,
000100
000000
001000
000000
000100
100000
001000
000000
,
010000
000000
001000
000000
000100
000001
001000
000000
,
000010
001000
000001
001000
,
100000
001000
010000
001000
,
000100
101000
000101
001000
,
000100
001010
100100
001000
,
000100
000001
011000
100001
,
000100
010000
001100
100001
,
001000
000000
000000
000000
;

//---------------dance-solo - ----------------
#NOTES:
     dance-solo:
     :
     Hard:
     7:
     :
000000
000000
000000
000000
,
000000
000000
000000
000000
,
000000
000000
000000
000000
,
000010
100000
001000
000000
000001
001000
001001
000000
,
100001
011000
001010
000000
,
000001
001000
100010
000000
001000
000100
100000
000000
,
000000
001000
000100
100000
000010
000000
000001
000000
,
000100
000001
001000
000000
100000
001000
011000
000000
,
100001
001010
011000
000000
,
001000
000000
000001
001000
010000
000001
001000
000000
,
000001
000000
100000
001000
000001
010000
100000
000000
,
000100
000000
100000
000100
000001
001000
100000
000000
,
000001
001000
100000
001000
000001
001000
010000
000000
,
000001
000100
001000
010000
010000
001000
000100
000001
,
000001
000100
001000
100000
100000
001000
000100
000001
,
010000
001000
000100
000010
000010
000100
001000
010000
,
010000
001000
000100
000001
000001
000100
001000
100000
,
001000
000000
000000
000000
000000
000000
001000
000100
,
100000
000000
001000
010000
000001
000000
001000
000010
,
100000
000000
001000
000100
000001
000000
001000
000100
,
100000
000010
100000
000100
001000
000100
100000
000000
,
100000
000100
001010
000000
000100
001000
000001
000000
,
000000
000100
001000
000001
010000
000000
100000
000000
,
000100
000001
001000
000000
000100
100000
101000
000000
,
100001
001010
011000
000000
,
000001
000100
011000
000000
000100
001000
100000
000000
,
000000
000100
001000
100000
000010
000000
000001
000000
,
000100
100000
001000
000000
000100
000001
001001
000000
,
100001
011000
001010
000000
,
000100
000100
001001
101000
,
000100
000000
000000
000000
000000
000001
000000
001000
010000
000000
000000
001000
000000
000010
000000
000000
,
000100
000100
011000
001001
,
000100
000000
000000
000000
000000
100000
000000
001000
000010
000000
000000
001000
000000
010000
000000
000000
,
100000
000000
000001
000001
000000
000000
100000
100000
,
000000
000000
000100
000100
000000
000000
001000
001000
,
000001
100000
000100
001000
000001
100000
000010
001000
,
000100
100000
000010
001000
000001
100000
000100
001000
,
010000
001000
000001
000100
100000
000010
000001
000000
,
100000
000100
000001
001000
010000
001000
000010
000000
,
100000
001000
000001
000100
100000
000010
000001
000000
,
000100
100000
000010
000001
000100
100000
010000
000000
,
001000
100000
101000
000000
000101
000001
010000
000000
,
001000
000001
001001
000000
100100
100000
000010
000000
,
000100
000001
100000
000100
000100
001000
100001
000000
,
000100
010000
000001
001000
001000
000100
100001
000000
,
001000
000000
000000
000000
;
