
//----- song ID: smok -----//
#TITLE:Smoke;
#ARTIST:Mr.Ed Jumps The Gun;
#BANNER:Smoke.png;
#BACKGROUND:Smoke-bg.png;
#CDTITLE:./CDTitles/Dancemania Winters.png;
#MUSIC:Smoke.ogg;
#SAMPLESTART:48.258;
#SAMPLELENGTH:15;
#DISPLAYBPM:135;
#BPMS:0=26.239,4=134.979;

//---------------dance-single - ----------------
#NOTES:
     dance-single:
     :
     Beginner:
     2:
     :
0000
0000
0000
0000
,
0000
0000
0000
0000
,
0000
0000
0000
0000
,
0000
0000
0000
0000
,
0000
0000
0000
0000
,
0000
0000
0000
0000
,
0010
0010
0010
0010
,
0010
0000
1000
0000
,
0001
0001
0000
0000
,
1000
0000
0001
0000
,
1000
1000
0000
0000
,
1001
0000
0000
0000
,
0001
0001
0001
0000
,
0010
0000
0100
0000
,
0010
0000
0100
0000
,
0010
0010
0010
0000
,
0000
0000
0000
0000
,
1000
1000
1000
0000
,
0000
0000
0000
0000
,
0010
0000
1000
0000
,
0010
0000
1000
0000
,
0010
0010
0000
0000
,
1001
0000
0000
0000
,
0000
1000
0000
0000
,
0000
0001
0001
0000
,
1000
1000
0000
0000
,
0010
0010
0000
0000
,
0000
1000
0000
0000
,
0000
0010
0010
0000
,
1001
0000
0000
0000
,
0001
0001
0000
0000
,
1000
1000
1000
0000
,
0010
0000
0100
0000
,
0001
0000
1000
0000
,
0010
0010
0000
0000
,
1000
0000
0100
0000
,
0001
0001
0000
0000
,
0000
1000
0000
1000
,
0000
0010
0000
0100
,
0000
0001
0000
0000
,
1000
1000
0000
0000
;

//---------------dance-single - ----------------
#NOTES:
     dance-single:
     :
     Easy:
     6:
     :
0000
0000
0000
0000
,
0000
0000
0000
0000
,
0000
0000
0000
0000
,
0000
1000
0000
1000
,
0000
0010
0000
0100
,
1000
1000
0010
0100
,
0001
0001
0001
1001
,
0010
0010
0010
0010
,
0010
0001
0010
0001
,
0010
0010
0010
0010
,
0010
1000
0010
1000
,
0010
0100
0000
0000
0001
1000
0000
0000
,
0101
1100
0101
0000
,
0010
0001
0100
1000
,
0010
0010
0100
1001
,
0010
0001
0100
0000
,
0010
1000
0100
0000
0100
0000
0000
0000
,
0010
0000
0001
0000
0100
0000
0010
1000
,
0100
1000
0010
0000
,
0010
0010
0001
1000
,
0001
0110
1000
0110
,
0001
0010
1000
0010
,
0110
1001
0110
0000
,
0010
0001
0010
1000
,
0110
0001
0110
1000
,
0000
0001
0000
1000
,
0001
1000
0110
1001
,
0000
0010
0010
0100
,
1001
0100
0010
0100
,
1001
0010
0001
0100
,
0001
0001
0100
0001
,
1000
0010
1000
0100
,
1000
1000
0100
1000
,
0001
1100
0001
1100
,
0001
0001
1100
0011
,
1000
0101
1000
0101
,
1000
1000
0101
1010
,
0000
1000
0000
1000
,
0000
0010
0000
0100
,
1000
1000
0010
0100
,
0001
0001
0001
0000
;

//---------------dance-single - ----------------
#NOTES:
     dance-single:
     :
     Medium:
     7:
     :
0000
0000
0000
0000
,
0000
0000
0000
0000
,
0000
0000
0000
0000
,
1000
1000
1000
1000
,
0010
0010
0100
0100
,
1000
1000
0010
0100
,
0110
1001
1100
1001
,
0010
0010
0001
0010
,
1000
0010
1000
0010
,
0110
1000
0110
0001
,
0110
1000
1000
0110
,
0010
0100
0010
0000
0001
1000
0001
0000
,
0010
1000
0001
1001
,
1000
0101
1000
0101
,
1000
1000
0101
0101
,
0010
0001
0100
1001
,
0010
1000
0100
0000
0110
0000
0010
0000
,
1001
0000
0100
0000
1001
0000
0010
1000
,
0100
0001
1000
0100
,
0010
0010
0001
1000
,
0001
1100
1000
0101
,
0010
1001
0010
1001
,
0110
1001
0110
0000
,
0010
0010
1000
0001
,
0010
1100
0010
1100
,
0001
0000
1000
0000
0001
0001
0001
0000
,
1000
0000
0001
0000
1000
1000
1000
0000
,
0000
0010
0010
0100
,
0011
0100
0011
0100
,
1001
0110
1000
0001
,
0110
1000
1000
0001
,
0100
1000
1100
0001
,
1010
0101
1000
0100
,
1001
0110
0001
1000
,
0110
0001
0001
1000
,
0100
0001
0101
1000
,
0011
1100
0001
0100
,
1000
1000
1000
1000
,
0010
0010
0100
0100
,
1000
1000
0010
0100
,
0001
0001
0001
0000
;

//---------------dance-single - ----------------
#NOTES:
     dance-single:
     :
     Hard:
     9:
     :
0000
0000
0000
0000
,
0000
0000
0000
0000
,
0000
0000
0000
0000
,
0010
0010
0010
0010
,
0001
0001
0100
0100
,
0010
0010
0001
0100
,
1010
0011
1010
1001
,
1100
0001
0100
0001
0001
1000
0010
0000
,
0101
1000
0100
1000
1000
0001
0010
0000
,
1000
0100
0101
0010
1000
1000
0010
0000
,
0001
0100
1100
0010
0001
0001
0010
0000
,
0100
0010
0100
0000
1000
0001
1000
0000
,
0100
0010
0100
0001
1000
0000
0000
0000
,
1000
0100
0001
0100
0001
0100
1000
0010
,
0010
0010
0010
0100
0100
0000
1001
0000
,
0001
0100
1000
0010
0001
0000
1001
0000
,
0001
0100
0101
0000
0100
0100
0100
0000
,
1000
0100
1000
0010
0001
0000
1000
0100
,
0001
1000
0010
0100
,
0010
0010
0010
0000
0001
1000
0001
0001
,
0001
0110
1000
0110
,
1000
1000
0100
0000
0001
0001
0100
0000
,
0110
1001
0110
0000
,
0010
0000
0010
0000
0001
1000
0010
0000
,
0010
0100
0001
0100
1000
0100
0001
0000
,
0010
0100
0100
0000
0001
0100
1000
0000
,
0010
0001
1000
0100
1000
0001
0100
0000
,
0000
0000
0010
0000
0010
0010
0100
0000
,
0010
1000
0001
0100
1000
0100
0100
0000
,
1000
0001
0100
0010
1000
0001
0001
0000
,
0010
0000
0100
0000
1000
0000
1000
0000
1000
0000
0000
1000
0000
0000
0100
0000
,
0001
0001
1000
0100
1000
0001
0001
0000
,
1000
0010
0100
0001
1001
0001
0100
0000
,
0001
1000
0100
0010
0001
1000
1000
0000
,
0010
0000
0100
0000
0001
0000
0001
0000
0001
0000
0000
0001
0000
0000
0100
0000
,
1000
1000
0001
0100
0001
1000
1000
0000
,
0001
0010
0100
1000
1001
1000
0100
0000
,
0010
0010
0010
0010
,
0001
0001
0100
0100
,
0010
0010
0001
0100
,
1010
0011
1010
0000
;

//---------------dance-single - ----------------
#NOTES:
     dance-single:
     :
     Challenge:
     10:
     :
0000
0000
0000
0000
,
0000
0000
0000
0000
,
0000
0000
0000
0000
,
0011
0110
1100
MMMM
,
2002
0000
0000
0000
,
0000
0000
3003
MMMM
,
0110
MMMM
1001
MMMM
,
1010
0000
1001
0001
1000
0100
0010
0000
,
1001
1000
0010
0001
0010
0000
0000
0000
,
1010
0000
0101
0001
0010
1000
0010
0000
,
0001
0100
1000
0100
0001
0000
0000
0000
,
0110
MMMM
1001
MMMM
,
0110
0000
1000
0100
0010
0000
0000
0000
,
1001
0000
0110
0010
0100
0010
0001
0010
,
0100
1000
0100
0000
0110
0000
MMMM
0000
,
0000
1001
0000
0101
0000
0011
0000
0101
,
0000
1010
0000
1001
0000
1100
0000
1001
,
0000
0011
0000
0110
0000
0011
0000
0110
,
0000
1100
0000
0110
0000
1100
0000
0110
,
1000
1000
0100
0100
0001
0001
0100
0100
,
0010
0010
0001
0001
0100
0000
MMMM
0000
,
0001
0001
0010
0010
0100
0100
1000
0000
,
0011
1001
0110
MMMM
,
0200
1000
0001
1000
,
0010
0000
0010
0000
1000
1000
1300
0000
,
MMMM
1001
1001
0110
,
MMMM
1000
0010
1000
0010
1000
0010
1000
,
0020
0001
1000
0001
,
0100
0000
0100
0000
1000
1000
1030
0000
,
1001
0000
0011
0000
1010
0000
MMMM
0100
,
0000
1100
0000
0020
0130
0000
MMMM
0000
,
1001
0000
1010
0000
0011
0000
MMMM
0010
,
0000
0220
0000
0000
0330
0000
MMMM
0000
,
1001
0000
0101
0000
1100
0000
MMMM
0100
,
0000
1100
0000
0020
0130
0000
MMMM
0000
,
1001
0000
1100
0000
0101
0000
MMMM
0010
,
0000
0220
0000
0000
0000
0000
0330
0000
,
MMMM
1001
MMMM
0110
,
MMMM
1001
MMMM
0110
,
MMMM
1001
MMMM
0110
,
MMMM
1001
MMMM
0000
;

//---------------dance-double - ----------------
#NOTES:
     dance-double:
     :
     Easy:
     6:
     :
00000000
00000000
00000000
00000000
,
00000000
00000000
00000000
00000000
,
00000000
00000000
00000000
00000000
,
00000000
00000001
00000000
00000010
,
00000000
00000100
00000000
00001000
,
00010000
00100000
01000000
10000000
,
00010000
00010000
00010000
10010000
,
00100000
10010000
01000000
10010000
,
00011000
01010000
00011000
00001100
,
00000001
00000001
00001000
00000001
,
00001001
00000110
00001000
00010000
,
10000000
01000000
00000000
00000000
00100000
00010000
00000000
00000000
,
01100000
01010000
00011000
00000000
,
00001001
00000100
00001001
00000100
,
00000110
00000001
00000001
00000011
,
00000100
00001000
00010000
00000000
,
01000000
00010000
00001000
00000000
00000100
00000000
00000000
00000000
,
00000110
00000000
00001001
00000000
00011000
00000000
00100000
01000000
,
00100000
00010000
00001000
00000000
,
00000010
00001100
00000010
00000101
,
00000100
00000011
00000100
00001010
,
00000001
00000001
00001000
00001000
,
01000000
10000000
00010000
00000000
,
10010000
11000000
10010000
11000000
,
00010000
00001000
01000000
00001000
,
01000000
10000000
00010000
00001000
,
00000100
00000100
00000001
00001000
,
00001001
00000101
00001001
00000101
,
00001000
00010000
00000100
00010000
,
01000000
10000000
01010000
11000000
,
01000000
01000000
00010000
00001000
,
00000100
00000001
00000010
00000100
,
00000001
00000100
00001000
00010000
,
01000000
10000000
01010000
11000000
,
01000000
01000000
00010000
00001000
,
00000100
00000001
00000010
00000100
,
00000001
00000100
00001000
00000010
,
00000000
00000001
00000000
00000010
,
00000000
00000100
00000000
00001000
,
00010000
00100000
01000000
10000000
,
00010000
00010000
00010000
00000000
;

//---------------dance-double - ----------------
#NOTES:
     dance-double:
     :
     Medium:
     8:
     :
00000000
00000000
00000000
00000000
,
00000000
00000000
00000000
00000000
,
00000000
00000000
00000000
00000000
,
00000001
00000001
00000010
00000100
,
00001000
00001000
00010000
00010000
,
00100000
01000000
10000000
10000000
,
00010000
00010000
00010000
10010000
,
11000000
10010000
01010000
00000100
,
00000001
00001000
00000001
00001100
,
00000001
00000101
00001000
00000101
,
00001000
01000000
10000000
11000000
,
10000000
01000000
00010000
00000000
10000000
00010000
00001000
00000000
,
00000110
00001000
00000001
00000110
,
00001000
00010000
10000000
01100000
,
00010000
10000000
01010000
10010000
,
00100000
00010000
00001000
00000110
,
00001000
00010000
10000000
00000000
01100000
00000000
10010000
00000000
,
00100000
00000000
00010000
00000000
00001000
00000000
00000100
00001000
,
00010000
01000000
11000000
00010000
,
00100000
10010000
01000000
10010000
,
10100000
11000000
00010000
00001000
,
00010100
00011000
00010010
00001010
,
00000011
00000110
00001100
00000000
,
00000010
00000101
00001000
00010000
,
01000000
00010000
00001000
00000100
,
00000001
00000010
00000100
00000000
00001000
00010000
10000000
00000000
,
10000000
00100000
01000000
00000000
00010000
00001000
00000001
00000000
,
00000001
00000110
00001000
00010000
,
01100000
10000000
10010000
01010000
,
10000000
00100000
00010000
00001000
,
00000001
00001010
00000001
00001100
,
00000100
00001000
00010000
10000000
,
01010000
00100000
01000000
10000000
,
00100000
01000000
10010000
01100000
,
00010000
00001000
00000001
00000110
,
00000100
00001100
00000011
00000100
,
00001000
00001010
00000101
00001001
,
00000001
00000001
00000010
00000100
,
00001000
00001000
00010000
00010000
,
00100000
01000000
10000000
10000000
,
00010000
00010000
00010000
00000000
;

//---------------dance-double - ----------------
#NOTES:
     dance-double:
     :
     Hard:
     9:
     :
00000000
00000000
00000000
00000000
,
00000000
00000000
00000000
00000000
,
00000000
00000000
00000000
00000000
,
00100000
00001000
00010000
00000000
00000010
00010000
00001000
00000000
,
10010000
00000000
00000000
00000000
,
00100000
00001000
00010000
00000000
00000010
00001000
00000001
00000000
,
00011000
10010000
01100000
10010000
,
00100000
00000000
00001000
00000000
00010000
00000100
00000010
00000000
,
00000001
00000100
00000010
00001000
00000000
00000000
00000000
00000000
,
00000100
00000000
00010000
00000000
00001000
00100000
00010000
00000000
,
10000000
01000000
00100000
00010000
00000000
00000000
00000000
00000000
,
00011000
00000000
00001001
00000000
,
00000010
00000100
00010000
00000000
,
00001000
01000000
00010000
00000000
10000000
01000000
00100000
00000000
,
00001000
00010000
00000100
00000010
00000001
00000000
00000000
00000000
,
00001000
00000100
00010000
00000000
00101000
00000000
00000000
00000000
,
10000000
00000000
01000000
00000000
00100000
00010000
01000000
00000000
,
00001000
00010000
00000010
00000000
00001001
00000000
00000000
00000000
,
00000010
00000000
00000100
00000000
00010000
00001000
00010000
00000000
,
00000010
00001000
00000100
00010000
00001000
01000000
00100000
10000000
,
01000000
00100000
00001000
00000000
00010010
00000000
00000000
00000000
,
00001000
00000100
00010000
00001000
00100000
00010000
01000000
00000000
,
10100000
11000000
00110000
00000000
,
01000000
00000000
00001000
00000000
00010000
00000100
00000010
00000000
,
00000001
00000000
00000100
00000000
00000010
00010000
00001000
00000000
,
00100000
01000000
10000000
00010000
01000000
00001000
00010000
00000000
,
00000000
00000100
00000010
00000001
,
00001000
00000000
00000100
00000000
00010000
00001000
00100000
00000000
,
01000000
00000000
10000000
00000000
00010000
01000000
00001000
00000000
,
00010000
00000000
00000100
00000000
00000010
00000000
00000001
00000100
,
00000000
00000010
00000000
00001000
00001000
00000000
00011000
00000000
,
00100000
00000000
01000000
00000000
10000000
00000000
00000000
00100000
,
00000000
01010000
00000000
00000000
00011000
00000000
00001001
00000000
,
00000100
00000000
00010000
00000000
00001000
00000000
00100000
01000000
,
00000000
10000000
00000000
00010000
00010000
00000000
01001000
00000000
,
00010000
00000000
00000100
00000000
00000010
00000000
00000000
00000001
,
00000000
00001100
00000000
00000000
00011000
00000000
10010000
00000000
,
01000000
00000000
00100000
00000000
00001000
00000000
00000000
00010000
,
00000000
00000100
00000000
00000010
00000010
00000000
00000000
00000000
,
00000001
00000000
00000100
00000000
00000010
00000000
00000000
00010000
,
00000000
00001000
00000000
00000000
00000000
00000000
00000000
00000000
;

//---------------dance-double - ----------------
#NOTES:
     dance-double:
     :
     Challenge:
     10:
     :
00000000
00000000
00000000
00000000
,
00000000
00000000
00000000
00000000
,
00000000
00000000
00000000
00000000
,
00011000
00110000
01100000
MMMMMMMM
,
20020000
00000000
00000000
00000000
,
00000000
00000000
30030000
MMMMMMMM
,
01100000
MMMMMMMM
10010000
MMMMMMMM
,
10100000
00000000
10010000
00010000
10000000
01000000
00010000
00000000
,
00011000
00001000
00000100
00000001
00000100
00000000
00000000
00000000
,
00000011
00000000
00000101
00000001
00000010
00001000
00000010
00000000
,
00000001
00000100
00001000
00010000
00100000
00000000
00000000
00000000
,
01100000
MMMMMMMM
10010000
MMMMMMMM
,
01100000
00000000
10000000
01000000
00010000
00000000
00000000
00000000
,
00011000
00000000
00001010
00000010
00000100
00000010
00000001
00000010
,
00000100
00001000
00000100
00000000
00000110
00000000
MMMMMMMM
00000000
,
00000000
00001001
00000000
00000101
00000000
00000011
00000001
00001000
,
00000000
00001100
00000000
00001001
00000000
00001010
00000010
00010000
,
00000000
00011000
00000000
00110000
00000000
01010000
00010000
10000000
,
00000000
11000000
00000000
01100000
00000000
11000000
10000000
00100000
,
20000000
32000000
03020000
00032000
,
00003020
00000032
00000103
MMMMMMMM
,
00000002
00000023
00000230
00001300
,
00010010
00011000
01001000
MMMMMMMM
,
00020000
01000000
10000000
00130000
,
00002000
00000100
00000001
00003010
,
MMMMMMMM
00011000
00001001
00000110
,
MMMMMMMM
00001000
00000010
00001000
00000010
00001000
00000010
00001000
,
00020000
01000000
10000000
00130000
,
00002000
00000100
00000001
00003010
,
00011000
00000000
00110000
00000000
10100000
00000000
MMMMMMMM
01000000
,
00000000
11000000
00000000
00200000
01300000
00000000
MMMMMMMM
00000000
,
00011000
00000000
00001010
00000000
00000011
00000000
MMMMMMMM
00000100
,
00000000
00002200
00000000
00000000
00003300
00000000
MMMMMMMM
00000000
,
00011000
00000000
01010000
00000000
11000000
00000000
MMMMMMMM
01000000
,
00000000
11000000
00000000
00200000
01300000
00000000
MMMMMMMM
00000000
,
00011000
00000000
00001100
00000000
00000101
00000000
MMMMMMMM
00000100
,
00000000
00002200
00000000
00000000
00000000
00000000
00003300
00000000
,
MMMMMMMM
00001001
MMMMMMMM
00000110
,
MMMMMMMM
00011000
MMMMMMMM
01100000
,
MMMMMMMM
10010000
MMMMMMMM
01100000
,
MMMMMMMM
00011000
MMMMMMMM
00000000
;

//---------------dance-couple - ----------------
#NOTES:
     dance-couple:
     :
     Easy:
     3:
     :
00000000
00000000
00000000
00000000
,
00000000
00000000
00000000
00000000
,
00000000
00000000
00000000
00000000
,
00000000
10001000
00000000
10001000
,
00000000
00100010
00000000
01000100
,
10001000
10001000
00100010
01000100
,
00010001
00010001
00010001
10011001
,
00100010
00100010
00100010
00100010
,
00100010
00010001
00100010
00010001
,
00100010
00100010
00100010
00100010
,
00100010
10001000
00100010
10001000
,
01100000
00000110
10010000
00001001
,
01010101
11001100
01010101
00000000
,
00100010
00010001
01000100
10001000
,
00100010
00100010
01000100
10011001
,
00000010
00000001
00000100
00000000
,
00100000
10000000
01000000
00000000
01000000
00000000
00000000
00000000
,
00100000
00000000
00010000
00000000
01000000
00000000
00000010
00001000
,
00000100
00001000
00000010
00000000
,
00100010
00100010
00011000
10000001
,
00011000
01100110
10000001
01100110
,
00011000
00100010
10000001
00100010
,
01100110
10011001
01100110
00000000
,
00100010
00010001
00100010
10001000
,
01100110
00010001
01100110
10001000
,
00000001
00010000
00001000
10000000
,
00010001
10001000
01100110
10011001
,
00000000
00100010
00100010
01000100
,
10011001
01000100
00100010
01000100
,
10011001
00000010
00010001
00000100
,
00010001
00000001
00010100
00000001
,
10001000
00100000
10001000
01000000
,
10001000
10000000
01001000
10000000
,
00010001
00001100
00010001
00001100
,
00010001
00000001
00011100
00000011
,
10001000
01010000
10001000
01010000
,
10001000
10000000
01011000
10100000
,
00000000
10001000
00000000
10001000
,
00000000
00100010
00000000
01000100
,
10001000
10001000
00100010
01000100
,
00010001
00010001
00010001
00000000
;

//---------------dance-couple - ----------------
#NOTES:
     dance-couple:
     :
     Medium:
     4:
     :
00000000
00000000
00000000
00000000
,
00000000
00000000
00000000
00000000
,
00000000
00000000
00000000
00000000
,
10001000
10001000
10001000
10001000
,
00100010
00100010
01000100
01000100
,
10001000
10001000
00100010
01000100
,
01100110
10011001
11001100
10011001
,
00100010
00100010
00010001
00100010
,
10001000
00100010
10001000
00100010
,
01100110
10001000
01100110
00010001
,
01100110
10001000
10001000
01100110
,
00100000
01000000
00100000
00000000
00000001
00001000
00000001
00000000
,
00100010
10001000
00010001
10011001
,
00011000
11000101
00011000
11000101
,
00011000
00011000
11000101
11000101
,
00000010
00000001
00000100
00001001
,
00100000
10000000
01000000
00000000
01100000
00000000
00000010
00000000
,
00001001
00000000
00000100
00000000
00001001
00000000
00100000
10000000
,
01000000
00010000
10000000
01000100
,
00100010
00100010
00011000
10000001
,
00011000
11000101
10000001
01011100
,
00100010
10011001
00100010
10011001
,
01100110
10011001
01100110
00000000
,
00100010
00100010
10001000
00010001
,
00100010
11001100
00100010
11001100
,
00000001
00000000
10001000
00000000
00000001
00000001
00010001
00000000
,
10000000
00000000
00010001
00000000
10000000
10000000
10001000
00000000
,
00000000
00100010
00100010
01000100
,
00110011
01000100
00110011
01000100
,
10011001
01100001
10000001
00010001
,
01100110
10000100
10000100
00010100
,
01000100
10001000
11000100
00011000
,
10101010
01010010
10000010
01000010
,
10011001
00010110
00010001
00011000
,
01100110
01000001
01000001
01001000
,
01000100
10000001
01000101
10001000
,
10100011
00101100
00100001
00100100
,
10001000
10001000
10001000
10001000
,
00100010
00100010
01000100
01000100
,
10001000
10001000
00100010
01000100
,
00010001
00010001
00010001
00000000
;

//---------------dance-couple - ----------------
#NOTES:
     dance-couple:
     :
     Hard:
     6:
     :
00000000
00000000
00000000
00000000
,
00000000
00000000
00000000
00000000
,
00000000
00000000
00000000
00000000
,
00100010
00100010
00100010
00100010
,
00010001
00010001
01000100
01000100
,
00100010
00100010
00010001
01000100
,
10101010
00110011
10101010
10011001
,
11000101
00011000
01000100
00011000
00011000
10000001
00100010
00000000
,
01011100
10000001
01000100
10000001
10000001
00011000
00100010
00000000
,
10000001
01000100
01011100
00100010
10000001
10000001
00100010
00000000
,
00011000
01000100
11000101
00100010
00011000
00011000
00100010
00000000
,
01000100
00100010
01000100
00000000
10000001
00011000
10000001
00000000
,
01000100
00100010
01000100
00011000
10000001
00000000
00000000
00000000
,
00011000
01000100
10000001
01000100
10000001
01000100
00011000
00100010
,
00100010
00100010
00100010
01000100
01000100
00000000
10011001
00000000
,
00010000
01000000
10000000
00100000
00010000
00000000
10010000
00000000
,
00001000
00000100
00001100
00000000
00000100
00000100
00000100
00000000
,
10000000
01000000
10000000
00100000
00010000
00000000
00001000
00000100
,
00000001
00001000
00000010
01000100
,
00100010
00100010
00100010
00000000
00011000
10000001
00011000
00011000
,
00011000
01100110
10000001
01100110
,
00011000
00011000
01000100
00000000
10000001
10000001
01000100
00000000
,
01100110
10011001
01100110
00000000
,
00100010
00000000
00100010
00000000
00010001
10001000
00100010
00000000
,
00100010
01000100
00010001
01000100
10001000
01000100
00010001
00000000
,
00000010
00000100
00000100
00000000
00000001
00000100
00001000
00000000
,
00100000
00010000
10000000
01000000
10000000
00010000
01000000
00000000
,
00000000
00000000
00100010
00000000
00100010
00100010
01000100
00000000
,
00100010
10001000
00010001
01000100
10001000
01000100
01000100
00000000
,
10000001
00010001
01000001
00100001
10000001
00010001
00010001
00000000
,
00100010
00000000
01000010
00000000
10000010
00000000
10000010
00000000
10000010
00000000
00000000
10000010
00000000
00000010
01000000
00000000
,
00010100
00010100
10000100
01000100
10000100
00010100
00010100
00000000
,
10001000
00101000
01001000
00011000
10011000
00011000
01001000
00000000
,
00010001
00011000
00010100
00010010
00010001
00011000
00011000
00000000
,
00100010
00000000
00100100
00000000
00100001
00000000
00100001
00000000
00100001
00000000
00000000
00100001
00000000
00000000
00100100
00000000
,
01001000
01001000
01000001
01000100
01000001
01001000
01001000
00000000
,
10000001
10000010
10000100
10001000
10001001
10001000
10000100
00000000
,
00100010
00100010
00100010
00100010
,
00010001
00010001
01000100
01000100
,
00100010
00100010
00010001
01000100
,
10101010
00110011
10101010
00000000
;

//---------------dance-couple - ----------------
#NOTES:
     dance-couple:
     :
     Challenge:
     4:
     :
00000000
00000000
00000000
00000000
,
00000000
00000000
00000000
00000000
,
00000000
00000000
00000000
00000000
,
00100010
00100010
00100010
00100010
,
00010001
00010001
01000100
01000100
,
00100010
00100010
00010001
01000100
,
10011001
01000100
01000100
10011001
,
00000010
10000010
00000001
10000010
,
00001000
10000010
00001000
10000010
,
00100000
00100001
00010000
00100001
,
10000000
00100001
10000000
00100001
,
00000010
00000100
10000010
00000000
00000001
00001000
10000001
00000000
,
00000010
10001000
00000001
10001001
,
00100000
01000000
00100001
00000000
00010000
10000000
00010001
00000000
,
00100000
10000001
00010000
10010001
,
00001000
00000101
00001000
00000101
,
00010000
11000000
00010000
11000000
,
00001001
00000000
10000100
00000000
00001001
00000000
10000010
00001000
,
00000100
10000001
00001000
10000100
,
10010000
00000000
01000001
00000000
10010000
00000000
00100001
10000000
,
01000000
00010001
10000000
01000001
,
10001000
10001000
01000100
00000000
00010001
00010001
01000100
00000000
,
01101001
10010110
01101001
00000000
,
00000010
00000000
10000010
00000000
00000001
00001000
10000010
00000000
,
00000010
00000100
10000001
00000100
00001000
00000100
10000001
00000000
,
00010001
00000000
10001000
00000000
00010001
00010001
00010001
00000000
,
10001000
00000000
00010001
00000000
10001000
10001000
10001000
00000000
,
00100000
00000000
00100001
00000000
00010000
10000000
00100001
00000000
,
00100000
01000000
00010001
01000000
10000000
01000000
00010001
00000000
,
00001001
10000110
00001000
10000001
,
00000110
10001000
00001000
10000001
,
00000100
10001000
00001100
10000001
,
00001010
10000101
00001000
10000100
,
10010000
01100001
10000000
00010001
,
01100000
10000001
10000000
00010001
,
01000000
10000001
11000000
00010001
,
10100000
01010001
10000000
01000001
,
10000001
10000001
10000001
10000001
,
00100010
00100010
01000100
01000100
,
10000001
10000001
00100010
01000100
,
00011000
00011000
00011000
00000000
;

//---------------dance-solo - ----------------
#NOTES:
     dance-solo:
     :
     Easy:
     4:
     :
000000
000000
000000
000000
,
000000
000000
000000
000000
,
000000
000000
000000
000000
,
010000
000000
000010
000000
,
000100
000000
001000
000000
,
100000
100000
000100
001000
,
000001
000001
000001
100001
,
000010
000010
000010
000010
,
010000
001000
000100
000001
,
010000
010000
010000
010000
,
000100
100000
001000
000100
,
000001
100000
000000
000000
000100
001000
000000
000000
,
100010
010001
100010
000000
,
000100
001000
010000
000001
,
001000
001000
000100
100001
,
000100
000010
100000
000000
,
000100
010000
001000
000000
000001
000000
000000
000000
,
000100
000010
100000
000000
,
001000
000100
000001
000000
010000
000000
000000
000000
,
000100
000100
000010
000100
,
000001
001100
100000
001100
,
000001
010000
000010
001000
,
001100
100001
001100
000000
,
010000
000001
000100
001000
,
100001
000100
100001
001000
,
000100
000000
010000
000000
,
000001
100000
001100
100001
,
000000
010000
010000
001000
,
100001
001000
000100
001000
,
100001
010000
000010
001000
,
000001
000001
001000
000010
,
100000
000100
010000
001000
,
100000
100000
001000
100000
,
000001
011000
000001
001100
,
000001
000001
011000
001010
,
100000
001010
100000
001010
,
100000
100000
001001
100100
,
010000
000000
010000
000000
,
000100
000000
001000
000000
,
100000
100000
000100
001000
,
000010
000010
000010
000000
;

//---------------dance-solo - ----------------
#NOTES:
     dance-solo:
     :
     Medium:
     5:
     :
000000
000000
000000
000000
,
000000
000000
000000
000000
,
000000
000000
000000
000000
,
010000
010000
010000
010000
,
000100
000100
001000
001000
,
100000
100000
000010
001000
,
001100
100001
011000
100001
,
000100
000100
000001
010000
,
100000
000010
100000
000100
,
001100
100000
001100
000001
,
001100
100000
100000
001100
,
000010
001000
000010
000000
000001
100000
000001
000000
,
000100
100000
000001
100001
,
010000
001010
100000
001001
,
100000
100000
001010
001010
,
100000
001000
000100
100001
,
000100
010000
000001
000000
001100
000000
000100
000000
,
100001
000000
001000
000000
100001
000000
000100
010000
,
001000
000001
100000
001000
,
000100
000100
000001
010000
,
000001
100010
010000
001100
,
000001
100010
000100
100001
,
001100
100001
001100
000000
,
000100
000100
100000
000010
,
000100
011000
000001
101000
,
000001
000000
100000
000000
000010
000010
000010
000000
,
100000
000000
000001
000000
010000
010000
010000
000000
,
000000
000100
000100
001000
,
000101
001000
000101
001000
,
100001
001100
100000
000001
,
001100
010000
010000
000001
,
001000
100000
011000
000001
,
100010
001001
100000
001000
,
100001
001100
000001
100000
,
001100
000001
000001
100000
,
001000
000001
001010
100000
,
010001
101000
000001
001000
,
100000
100000
100000
100000
,
000010
000010
001000
001000
,
000100
000100
100000
010000
,
000001
000001
000001
000000
;

//---------------dance-solo - ----------------
#NOTES:
     dance-solo:
     :
     Hard:
     6:
     :
000000
000000
000000
000000
,
000000
000000
000000
000000
,
000000
000000
000000
000000
,
000100
000100
000100
000100
,
000010
000010
001000
001000
,
000100
000100
000001
001000
,
100010
010001
000110
100001
,
010000
000010
000100
000001
000001
100000
000100
000000
,
000010
010000
000100
100000
100000
000001
000100
000000
,
100000
001000
001000
000100
010000
010000
000100
000000
,
000001
001000
001000
000100
000010
000010
000100
000000
,
001000
000100
001000
000000
100000
000001
100000
000000
,
001000
000100
001000
000010
100000
000000
000000
000000
,
010000
001000
000010
001000
000100
001000
010000
000001
,
000001
000001
000001
001000
001000
000000
100010
000000
,
000001
001000
100000
000100
000010
000000
100001
000000
,
000001
001000
001001
000000
001000
001000
001000
000000
,
100000
001000
100000
000100
000001
000000
100000
001000
,
000010
010000
000100
001000
,
000100
000100
000100
000000
000010
100000
000001
000001
,
000001
001100
100000
001100
,
100000
100000
001000
000000
000010
000010
001000
000000
,
001100
100001
001100
000000
,
000100
000000
000100
000000
000001
100000
000100
000000
,
000100
001000
000001
001000
100000
001000
000010
000000
,
000100
001000
001000
000000
000010
001000
100000
000000
,
000100
000001
100000
001000
010000
000001
001000
000000
,
000000
000000
000010
000000
000100
000100
001000
000000
,
000100
100000
000001
001000
100000
001000
001000
000000
,
010000
000001
001000
000100
100000
000001
000001
000000
,
000100
000000
001000
000000
100000
000000
100000
000000
100000
000000
000000
100000
000000
000000
001000
000000
,
000001
000001
010000
001000
010000
000001
000001
000000
,
100000
000100
001000
000010
000010
000010
001000
000000
,
000001
100000
001000
000100
000001
010000
010000
000000
,
000100
000000
001000
000000
000001
000000
000001
000000
000001
000000
000000
000001
000000
000000
001000
000000
,
100000
100000
000010
001000
000010
100000
100000
000000
,
000001
000100
001000
010000
010000
010000
001000
000000
,
000100
000100
000100
000100
,
000001
000001
001000
001000
,
000010
000010
010000
001000
,
100001
000110
010001
000000
;
