
//----- song ID: puty -----//
#TITLE:PUT YOUR FAITH IN ME;
#ARTIST:UZI-LAY;
#BANNER:PUT YOUR FAITH IN ME.png;
#BACKGROUND:PUT YOUR FAITH IN ME-bg.png;
#CDTITLE:./CDTITLES/DANCE DANCE REVOLUTION 2NDMIX.PNG;
#MUSIC:PUT YOUR FAITH IN ME.ogg;
#SAMPLESTART:9.5;
#SAMPLELENGTH:15;
#BPMS:0=120;
#BGSTAGE:1;
#NOTES:
     dance-single:
     :
     Beginner:
     3:
     :
0000
0000
0000
0000
,
0000
0000
0000
0000
,
0000
0000
0000
0000
,
0000
0000
0000
0000
,
0000
0000
0000
0000
,
0000
0000
0000
0000
,
0000
0000
0000
0000
,
0000
0001
0000
0001
,
0000
0001
0000
0001
,
0001
0000
0010
0000
,
0100
0100
0100
0000
,
1000
0000
0010
0000
,
0100
0100
0100
0000
,
1000
1000
0000
0000
,
1000
1000
0000
0000
,
0100
0100
0000
0000
,
0100
0100
0000
0000
,
1001
0000
0000
0000
,
1001
0000
0000
0000
,
0001
0001
0000
0000
,
0001
0001
0000
0000
,
0010
0000
0000
0000
,
0010
0000
0010
0000
,
0100
0000
0000
0000
,
0100
0000
0100
0000
,
0001
0001
0000
0000
,
0001
0001
0000
0000
,
0010
0010
0000
0000
,
1001
0000
0000
0000
,
0100
0000
0000
0000
,
0100
0100
0100
0000
,
1000
1000
0000
0000
,
1000
1000
0000
0000
,
1000
0000
1000
0000
,
1000
0000
0010
0000
,
0100
0100
0100
0000
,
0010
0000
0010
0000
,
0100
0000
0100
0000
,
0001
0000
0010
0000
,
0100
0100
0100
0000
,
0010
0000
0010
0000
,
0100
0000
0100
0000
,
0100
0000
0000
0000
,
0000
0000
0000
0000
;
#NOTES:
     dance-single:
     :
     Easy:
     5:
     :
0000
0000
0000
0000
,
0000
0000
0000
0000
,
0000
0000
0000
0000
,
0000
0000
0000
0000
,
0000
0000
0000
0000
,
0000
0000
0000
0000
,
0000
0000
0000
0000
,
0000
0001
0000
0001
,
0000
0100
0000
0100
,
0010
0100
1000
0001
,
0010
0010
0010
0010
,
0100
0010
0001
1000
,
0100
0100
0100
0100
,
1000
0010
0100
0001
,
0001
0010
0100
1000
,
0001
0100
0001
0100
,
1000
0100
0001
0100
,
0010
1000
0100
0000
0000
0000
0100
0000
,
0010
0001
0100
1000
,
0001
1000
0100
0100
,
0001
0010
1000
0100
,
0001
0100
0000
0100
,
0000
0010
0000
0010
,
0000
1000
0000
1000
,
0000
0100
0000
0100
,
0010
1000
0100
0000
0001
0000
1000
0000
,
0001
0010
1000
0010
,
0001
1000
0001
1000
,
0101
0000
1000
0100
,
0000
0010
1000
0001
0100
0000
0100
0000
,
1000
0100
0101
0000
,
0001
0010
0100
1000
,
1000
0010
0100
0001
,
0000
0001
0000
0001
,
0010
0100
1000
0001
,
1000
0100
0100
0001
,
0010
0001
0100
0100
,
0010
0001
0100
1000
,
0010
0100
1000
0001
,
1000
0100
0100
0001
,
0010
0001
0100
0100
,
0010
0001
0100
1000
,
0010
0000
0000
0000
,
0000
0000
0000
0000
;
#NOTES:
     dance-single:
     :
     Medium:
     6:
     :
0000
0000
0000
0000
,
0000
0000
0000
0000
,
0000
0000
0000
0000
,
0000
0000
0000
0000
,
0000
0000
0000
0000
,
0000
0000
0000
0000
,
0000
0000
0000
0000
,
0000
0001
0000
0001
,
0000
0100
0000
0100
,
0010
0100
0001
0000
1000
0000
0100
0000
,
0100
1000
0010
0010
,
0100
0001
0100
1000
,
0100
0001
0010
0010
,
0010
1000
0100
0000
0001
0000
0100
0000
,
0010
0001
0100
0000
1000
0000
0100
0000
,
0001
0100
0001
0100
,
1000
0100
0001
0100
,
0010
1000
0001
0000
0100
0000
0100
0000
,
0010
0001
0100
1000
,
0001
1100
0100
0100
,
0001
0010
1000
0100
,
0001
0010
0100
0010
,
0001
0001
1000
1000
,
1000
0010
0100
0010
,
1000
1000
0001
0001
,
0010
1000
0100
0000
0001
0100
1000
0000
,
0011
0100
1100
0010
,
0001
0100
1000
0000
0001
0000
1000
0000
,
0101
0000
0000
0000
1000
0001
0100
0000
,
0000
0010
1000
0001
0100
0000
0100
0000
,
1000
0011
1100
0000
,
0010
0000
1000
0000
0010
0100
0001
0000
,
1000
0100
0001
0100
,
0000
0001
0000
0001
,
0010
1000
0100
0000
0001
0000
0100
0000
,
1000
0010
0001
0100
,
1000
0100
0001
0100
,
0010
0001
1100
0101
,
0010
1000
0100
0000
0001
0000
0100
0000
,
1000
0010
0001
0100
,
1000
0100
0001
0100
,
0010
0001
1100
0101
,
0010
0000
0000
0000
,
0000
0000
0000
0000
;
#NOTES:
     dance-single:
     :
     Hard:
     9:
     :
0000
0000
0000
0000
,
0000
0000
0000
0000
,
0000
0000
0000
0000
,
0000
0000
0000
0000
,
0000
0000
0000
0000
,
0000
0000
0000
0000
,
0000
0000
0000
0000
,
0000
0001
0000
0001
,
0000
0100
0000
0100
,
0010
0100
0001
0100
1000
0100
0100
0000
,
0100
1000
1000
0000
0010
0010
0001
0000
,
0100
0010
0001
0010
0100
0010
1000
0000
,
0100
0001
0001
0000
0010
0010
1000
0000
,
0010
1000
0100
0010
0001
0100
0100
0000
,
0010
0001
0100
0010
1000
0100
0100
0000
,
0001
0010
1000
0000
0001
0010
1000
0000
,
0001
0100
1000
0000
0001
0010
1000
0000
,
0010
1000
0001
0000
0100
0010
0100
0000
,
0010
0001
0001
0000
0100
0100
1000
0000
,
0001
1000
0100
0000
0100
0010
0100
0000
,
0001
0010
0010
0000
1000
1000
0100
0000
,
0001
0010
0100
0010
0001
0010
0100
0000
,
0001
0000
0001
0010
1000
0000
1000
0000
,
1000
0010
0100
0010
1000
0010
0100
0000
,
1000
0000
1000
0010
0001
0000
0001
0000
,
0010
1000
0100
0010
0001
0100
1000
0000
,
0011
1100
0011
1100
,
0001
0100
1000
0010
0001
0010
1000
0000
,
0101
0000
0000
0000
1000
0001
0100
0000
,
0000
0010
1000
0001
0100
0100
0100
0000
,
0010
0010
1000
0000
0101
0000
0000
0000
,
0010
0100
1000
0000
0010
0100
0001
0000
,
1000
0001
0100
0000
0001
1000
0100
0000
,
0000
0001
0000
0001
,
0010
0100
0001
0100
1000
0100
0100
0000
,
0100
1000
1000
0000
0010
0010
0001
0000
,
0100
0010
0001
0010
0100
0010
1000
0000
,
0100
0000
0001
0100
1000
0001
0100
0000
,
0010
0100
1000
0100
0001
0100
0100
0000
,
0100
0001
0001
0000
0010
0010
1000
0000
,
0100
0010
1000
0010
0100
0010
0001
0000
,
0100
0000
1000
0100
0001
1000
0100
0000
,
0010
0000
0000
0000
,
0000
0000
0000
0000
;
#NOTES:
     dance-single:
     :
     Challenge:
     13:
     :
0000
0000
0000
0000
,
0000
0000
0000
0000
,
0000
0000
0000
0000
,
0000
0000
0000
0000
,
0000
0000
0000
0000
,
0000
0000
0000
0000
,
0000
0000
0000
0000
,
1000
1000
1000
0001
,
0001
0000
0000
0000
0001
0000
0000
1000
0001
0000
1001
0000
0001
0010
0001
0000
,
1000
0000
0010
0000
0100
0000
0001
0000
1000
0000
0100
0000
0010
0100
0000
0001
,
0100
0000
1000
0010
0100
0000
0001
0000
1000
0010
1000
0010
1000
0000
0001
0000
,
0100
1000
0000
0100
0001
0000
1000
0000
0100
0000
0010
0000
0001
0000
1000
0000
,
0200
0000
0010
0000
0310
0000
0100
1000
0002
0000
0100
0000
0103
0010
1000
0000
,
0001
0010
0001
0010
0100
0000
1000
0000
0010
0100
0010
1000
0000
0001
0000
0000
,
1000
0100
1000
0100
0000
0010
0001
0010
0001
0000
1000
0001
0000
1000
0000
0000
,
0001
0010
0000
0001
0000
1000
0000
0010
0100
0010
0000
1000
0000
0001
0000
1000
,
0100
0000
0010
0100
0000
1000
0000
0001
0100
0000
0010
0100
0000
0001
0000
0000
,
1001
0000
1000
0010
0000
0100
0000
0001
0000
0010
0100
0010
0000
0001
0000
0000
,
0100
0010
0100
0010
0000
1000
0000
0001
0000
0100
0000
0010
0100
0010
0000
0000
,
0200
1000
0010
0302
1000
0023
0100
2030
,
3001
0000
0000
0000
0000
0000
0110
0000
1000
0000
0001
0100
0000
0110
0000
0000
,
1010
0000
0001
0100
0001
0000
1000
0000
1100
0000
0001
0010
0001
0000
0100
0000
,
0010
1000
0010
1000
0010
0000
0100
0000
0001
0000
1000
0100
1000
0100
1000
0000
,
0101
0000
1000
0010
1000
0000
0001
0000
0011
0000
1000
0100
1000
0000
0010
0000
,
0100
0001
0100
0001
0100
0000
0010
0000
1000
0000
0001
0010
0001
0010
0001
0000
,
1000
0000
0100
0010
0100
0000
0010
0001
0010
0001
1000
0000
0010
0100
0010
0000
,
0100
0000
0001
0100
0001
0100
0001
0100
0010
1000
0010
1000
0001
1000
0001
0000
,
1000
0100
1000
0100
0010
0001
0010
0001
1000
0010
1000
0010
0100
0001
0100
0000
,
1001
0000
0000
0000
0000
0000
0001
0010
0001
0000
0010
0100
0000
0010
0001
0000
,
0000
0000
1000
0010
1000
0010
0100
0000
0001
0000
1000
0100
0000
0000
1000
0000
,
0000
0001
0100
0001
1000
0000
0100
0010
0100
0000
0010
0000
0001
1000
0000
0000
,
0001
1000
0001
1000
0010
0100
0010
0100
0001
1000
0001
1000
0100
0000
0010
0000
,
0001
0000
1000
0000
0010
0000
0100
0010
0100
0010
0100
0000
0001
0000
1000
0000
,
2002
0000
0000
3003
,
1000
0000
0100
0000
0010
0000
0001
0000
1000
0000
0010
0000
0100
0010
0000
1000
,
0001
1000
0001
1000
0100
0000
0010
0000
0001
0100
0001
0100
0010
0000
1000
0000
,
0100
0001
0000
0100
1000
0000
0001
0000
0100
0000
0010
0000
1000
0000
0001
0010
,
0100
0000
0010
0000
0001
0000
1000
0010
0100
0000
0010
0000
1000
0100
1000
0100
,
0010
0000
0001
0000
1000
0000
0100
0000
0010
0000
0001
0000
1000
0001
0000
0010
,
0100
0010
0100
0010
0001
0000
1000
0000
0010
0100
0010
0100
0010
0000
1000
0000
,
0001
0010
0000
1000
0010
0000
0001
0000
1000
0000
0010
0000
0100
0000
0001
1000
,
0001
0000
0100
0000
0010
1000
0100
0010
0001
0100
0010
1000
0100
0010
0001
0000
,
1000
0000
0000
0000
,
0000
0000
0000
0000
;
#NOTES:
     dance-double:
     :
     Easy:
     6:
     :
00000000
00000000
00000000
00000000
,
00000000
00000000
00000000
00000000
,
00000000
00000000
00000000
00000000
,
00000000
00000000
00000000
00000000
,
00000000
00000000
00000000
00000000
,
00000000
00000000
00000000
00000000
,
00000000
00000000
00000000
00000000
,
00000000
00001000
00000000
00001000
,
00000000
01000000
00000000
01000000
,
10000000
01000000
00010000
01000000
,
00010000
00010000
00010000
00010000
,
00001000
00000100
00010000
01000000
,
00010000
00010000
10000000
01000000
,
00100000
00010000
10000000
01000000
,
00010000
00001000
00000100
00010000
,
00000100
00010000
00000100
00010000
,
00100000
00001000
00100000
00001000
,
00000100
00001000
00010000
00000000
00100000
00000000
10000000
00000000
,
01000000
00010000
01000000
10000000
,
01000000
01000000
00010000
00001000
,
00000100
00000001
00001000
00000001
,
00000000
00000100
00000000
00001000
,
00000000
00010000
00000000
10000000
,
00000000
00001000
00000000
00000100
,
00000000
01000000
00000000
10000000
,
00100000
10000000
01000000
00000000
00010000
01000000
10000000
00000000
,
00010000
00001000
00000100
00010000
,
00000100
00000001
00001000
00000010
,
00000001
00000000
00000001
00000001
,
00000000
00001000
00010000
01000000
10000000
00000000
10000000
00000000
,
00100000
01000000
00010000
00000000
,
10000000
01000000
00010000
00001000
,
00000010
00001000
00000100
00000001
,
00000000
00000100
00000000
00000100
,
00000010
00001000
00000001
00000000
00000100
00000000
00001000
00000000
,
00010000
01000000
01000000
11000000
,
01000000
00010000
00001000
00000000
00000100
00000001
00000010
00000000
,
00001000
00010000
01000000
10000000
,
00100000
00010000
10000000
00000000
01000000
00000000
00010000
00000000
,
00001000
00000100
00000100
00000101
,
00000100
00001000
00010000
00000000
01000000
10000000
00100000
00000000
,
00010000
00001000
00000100
00000001
,
00000010
00000000
00000000
00000000
,
00000000
00000000
00000000
00000000
;
#NOTES:
     dance-double:
     :
     Medium:
     8:
     :
00000000
00000000
00000000
00000000
,
00000000
00000000
00000000
00000000
,
00000000
00000000
00000000
00000000
,
00000000
00000000
00000000
00000000
,
00000000
00000000
00000000
00000000
,
00000000
00000000
00000000
00000000
,
00000000
00000000
00000000
00000000
,
00000000
01000000
00000000
00001000
,
00000000
00000100
00000000
00010000
,
00010000
00100000
10000000
00000000
00010000
00000000
10000000
00000000
,
00100000
00010000
00001000
00000100
,
00000010
00000001
00000100
00001000
00010000
01000000
10000000
00000000
,
00100000
01000000
00100000
00010000
,
10000000
01000000
00010000
00000000
10000000
00100000
00010000
00000000
,
00010000
00001000
00000100
00000000
00000100
00001000
00010000
00000000
,
01000000
00001000
01000000
00001000
,
00000100
00010000
00000100
00010000
,
00000100
00000001
00000010
00000000
00001000
00000000
00010000
00000000
,
01000000
10000000
00010000
10000000
,
00100000
01000000
00010000
00001000
,
00000010
00000001
00000100
00001000
,
00000000
00000001
00000000
00000010
,
00000000
00001000
00000000
00100000
,
00000000
00010000
00000000
00000100
,
00000000
01000000
00000000
10000000
,
00100000
10000000
01000000
00000000
00100000
00010000
01000000
00000000
,
00100000
01000000
00010000
01000000
,
00100000
00010000
00001000
00000100
,
00000001
00000000
00000001
00000001
,
00000000
00000100
00001000
00010000
01000000
00000000
01000000
00000000
,
00100000
01000000
11000000
00000000
,
10000000
01000000
00100000
00010000
,
00001000
00000100
00000010
00000001
,
00000000
00000100
00000000
00000100
,
00000010
00001000
00000001
00000000
00000100
00000010
00000100
00000000
,
00001000
00010000
01000000
11000000
,
01000000
00010000
00001000
00000100
00001000
00010000
01000000
00000000
,
00001000
01000000
10000000
00010000
,
00100000
00010000
10000000
00000000
01000000
00100000
01000000
00000000
,
00010000
00001000
00000100
00000101
,
00000100
00001000
00010000
01000000
00010000
00001000
00000100
00000000
,
00010000
00000100
00000001
00001000
,
00000010
00000000
00000000
00000000
,
00000000
00000000
00000000
00000000
;
#NOTES:
     dance-double:
     :
     Hard:
     8:
     :
00000000
00000000
00000000
00000000
,
00000000
00000000
00000000
00000000
,
00000000
00000000
00000000
00000000
,
00000000
00000000
00000000
00000000
,
00000000
00000000
00000000
00000000
,
00000000
00000000
00000000
00000000
,
00000000
00000000
00000000
00000000
,
01000000
00000000
01000000
00000000
00100000
00010000
10000000
00000000
,
01000000
00001000
00000100
00000001
,
00000100
00000000
00001000
00000000
00000010
00010000
00000100
00000000
,
00001000
00000010
00010000
00001000
,
00100000
01000000
10000000
00000000
00100000
01000000
00010000
00000000
,
00011000
00001010
00000101
00001100
,
00010000
00000000
00000010
00001000
00000100
00010000
00001000
00000000
,
00100000
00010000
01000000
00001000
00010000
00000000
00110000
00000000
,
00001000
01000000
00010000
00000000
00100000
00000000
00001000
00000000
,
00010000
00000000
00000100
00000000
00000010
00000001
00000100
00000000
,
00000000
00000010
00010000
00000000
00001000
00000000
00100000
00000000
,
00000000
01000000
10000000
00000000
00010000
00000000
01000000
00000000
,
00001000
00100000
00010000
00000000
01000000
00001000
00010000
00000000
,
00000010
00001000
00000100
00000010
00000001
00000100
00000010
00000000
,
00000000
00000000
00001000
00001000
00000000
00000000
00000100
00000000
,
00000000
00000000
00010000
00010000
00000000
00000000
00000010
00000000
,
00000000
00000000
00001000
00001000
00000000
00000000
00000100
00000000
,
00010000
00000000
00001000
10010000
,
00100000
01000000
00010000
00100000
00100000
00000000
00001000
00000000
,
00010000
00000100
00000010
00000001
00000100
00000000
00000010
00000000
,
00010000
00001000
00001000
00000000
00000000
00100000
01000000
00000000
,
10000000
00000000
00010000
00000000
01000000
00001000
00010000
00000000
,
00000000
00000100
00001000
00000010
00010000
00000000
00001000
00000000
,
00000000
00100000
00010000
01000000
00001000
00000000
00010000
00000000
,
00000100
00000010
00000001
00000000
00001000
00000010
00010000
00000000
,
00001000
00100000
01000000
00000000
10000000
00010000
01000000
00000000
,
00001000
00010000
00001000
00000000
,
00000010
00000000
00000001
00000000
00000100
00000010
00001000
00000000
,
00000100
00010000
00001000
00100000
,
00010000
10000000
01000000
00000000
00100000
00001000
01000000
00000000
,
00010010
00001001
00000110
00011000
,
00000010
00000000
00000100
00000000
00000001
00001000
00000100
00000000
,
00010000
00000000
00001000
00000000
00100000
01000000
10000000
00000000
,
00010000
01000000
00001000
00000000
00010000
00000100
00000010
00000000
,
00001001
00011000
10010000
00101000
,
00010100
00000000
00000000
00000000
,
00000000
00000000
00000000
00000000
;
#NOTES:
     dance-double:
     :
     Challenge:
     13:
     :
00000000
00000000
00000000
00000000
,
00000000
00000000
00000000
00000000
,
00000000
00000000
00000000
00000000
,
00000000
00000000
00000000
00000000
,
00000000
00000000
00000000
00000000
,
00000000
00000000
00000000
00000000
,
00000000
00000000
00000000
00000000
,
10000000
10000000
10000000
00010000
,
00010000
00000000
00000000
00000000
00010000
00000000
00000000
10000000
00010000
00000000
01010000
00000000
01000000
00000000
00001000
00000000
,
00010000
00000000
00000010
00000000
00001000
00000000
00000001
00000000
00000010
00000000
00001000
00000000
00010000
00001000
00000000
00000100
,
00000010
00000000
00001000
00000000
00000100
00000000
00010000
00000000
00001000
00000000
00100000
00010000
00100000
00000000
00010000
00000000
,
10000000
01000000
00000000
00010000
01000000
00000000
10000000
00000000
00100000
00000000
00010000
00000000
00001000
00000000
00000100
00000000
,
00000002
00000000
00001000
00000000
00001003
00000000
00000001
00001000
00000200
00000000
00010000
00000000
00010300
00000000
00000100
00000000
,
00010000
00001000
00010000
00001000
01000000
00000000
00010000
00000000
10000000
00100000
00000000
01000000
00000000
00010000
00000000
00000000
,
01000000
00001000
01000000
00001000
00000000
00010000
00000100
00010000
00000100
00000000
00001000
00000001
00000000
00001000
00000000
00000000
,
00000001
00000010
00000000
00000100
00000000
00001000
00000000
00000100
00010000
00000100
00000000
00010000
00000000
00001000
00000000
00100000
,
00010000
00000000
00100000
01000000
00000000
10000000
00000000
00100000
01000000
00000000
00010000
01000000
00000000
00001000
00000000
00000000
,
00011000
00000000
00010000
00000010
00000000
00001000
00000000
00000100
00000000
00010000
00001000
00010000
00000000
00001000
00000000
00000000
,
01000000
00010000
01000000
00010000
00000000
00100000
00000000
00001000
00000000
00010000
00000000
00001000
00010000
00001000
00000000
00000000
,
00020000
00100000
00001000
00100000
00032000
00000010
00010000
00000010
,
00023000
01000000
00032000
00003200
00000301
00000010
00000100
00001000
,
00001001
00000000
00000001
00000100
00000001
00000000
00001000
00000000
00001100
00000000
00000100
00010000
00000100
00000000
00010000
00000000
,
00001000
01000000
00001000
01000000
00001000
00000000
01000000
00000000
00010000
00000000
10000000
01000000
10000000
01000000
10000000
00000000
,
10010000
00000000
10000000
00100000
10000000
00000000
00010000
00000000
00110000
00000000
00100000
00001000
00100000
00000000
00001000
00000000
,
00010000
00000010
00010000
00000010
00010000
00000000
00000010
00000000
00001000
00000000
00000001
00000010
00000001
00000010
00000001
00000000
,
00001000
00000000
00000001
00000100
00000001
00000000
00000100
00000000
00001000
00000000
00010000
00000000
00100000
00000000
10000000
00000000
,
00010000
00000000
10000000
01000000
10000000
01000000
00100000
00010000
10000000
00000000
01000000
00000000
00010000
00000000
00001000
00000000
,
00000010
00000000
00000001
00000000
00001000
00000010
00001000
00000010
00010000
00001000
00010000
00001000
00010000
00000000
00001000
00000000
,
01000000
00000000
00000000
00000000
00000000
00000000
00010000
01000000
00010000
00000000
10000000
00100000
00000000
00010000
00001000
00000000
,
00000000
00000000
00010000
00000000
00001000
00000000
00000010
00000000
00000001
00000000
00000100
00000010
00000000
00000000
00001000
00000000
,
00000000
00000100
00010000
00000100
00010000
00000000
00001000
01000000
00001000
00000000
00010000
00000000
00001000
00100000
00000000
00000000
,
00010000
10000000
00010000
10000000
00000000
00010000
00000000
01000000
00000000
00100000
10000000
00000000
00010000
00000000
10000000
00000000
,
00100000
00000000
00010000
00000000
00001000
00010000
00001000
00000000
00010000
00000000
00001000
00000000
00000100
00000000
00000001
00000000
,
00002002
00000000
00000000
00003003
,
00000001
00000000
00000010
00000000
00001000
00000000
00010000
00000000
00001000
00000000
00100000
00000000
00010000
01000000
00000000
00010000
,
10000000
01000000
10000000
01000000
10000000
00000000
00100000
00000000
00010000
00000000
00001000
00000000
00000100
00000000
00000001
00000000
,
00001000
00000010
00000000
00000001
00000010
00000000
00001000
00000000
00000100
00000000
00010000
00000000
00001000
00000000
00100000
00010000
,
00100000
00000000
00010000
00000000
10000000
00000000
00100000
01000000
00010000
00000000
00100000
00000000
00010000
10000000
00010000
00000000
,
10000000
00000000
01000000
00000000
00010000
00000000
00001000
00000000
00010000
00000000
00000100
00000000
00001000
00000010
00000000
00001000
,
00000001
00000010
00000001
00000010
00000001
00000000
00000100
00000000
00001000
00000000
00010000
00000000
00100000
00000000
10000000
00000000
,
00010000
01000000
00000000
10000000
01000000
00000000
00010000
00000000
00100000
00000000
00001000
00000000
00010000
00000000
00000100
00001000
,
00000100
00000000
00001000
00000000
00000001
00000010
00000100
00001000
00000010
00010000
00001000
00100000
00010000
01000000
00100000
00000000
,
10000000
00000000
00000000
00000000
,
00000000
00000000
00000000
00000000
;
