
//----- song ID: puty2 -----//
#TITLE:PUT YOUR FAITH IN ME (Jazzy Groove);
#ARTIST:UZI-LAY;
#BANNER:PUT YOUR FAITH IN ME (Jazzy Groove).png;
#BACKGROUND:PUT YOUR FAITH IN ME (Jazzy Groove)-bg.png;
#CDTITLE:./CDTitles/DanceDanceRevolution 2ndMIX.png;
#MUSIC:PUT YOUR FAITH IN ME (Jazzy Groove).ogg;
#SAMPLESTART:47.975;
#SAMPLELENGTH:15;
#DISPLAYBPM:120;
#BPMS:0=30,4=120.08;

//---------------dance-single - ----------------
#NOTES:
     dance-single:
     :
     Beginner:
     2:
     :
0000
0000
0000
0000
,
0000
0000
0000
0000
,
0000
0000
0000
0000
,
0000
0000
0000
0000
,
0000
0000
0000
0100
,
0000
1000
0000
1000
,
0000
0010
0000
1000
,
0000
0001
0000
1000
,
0000
0001
0001
0000
,
0001
0000
0110
0000
,
0001
0000
0100
0000
,
0010
0000
0010
0000
,
0010
0000
0100
0100
,
0100
0000
0010
0000
,
1000
0000
0100
0000
,
0010
0000
0010
0000
,
0010
0000
0100
0000
,
0010
0000
0010
0000
,
0010
0000
0010
0000
,
0010
0000
0001
0000
,
0010
0000
1000
0000
,
0001
0000
0100
0000
,
0001
0000
0100
0000
,
1000
0000
0010
0000
,
1000
0000
0100
0000
,
0010
0000
0100
0000
,
0010
0000
0100
0000
,
0001
0000
0100
0000
,
0001
0000
0100
0000
,
1000
0000
0110
0000
,
1000
0000
0100
0000
,
0100
0000
0100
0000
,
0010
0000
1000
0000
,
0001
0000
0110
0000
,
0001
0000
0100
0000
,
0010
0000
0010
0000
,
0010
0000
0010
0010
;

//---------------dance-single - ----------------
#NOTES:
     dance-single:
     :
     Easy:
     6:
     :
0000
0000
0000
0000
,
0000
0000
0000
0000
,
0000
0000
0000
0000
,
0000
0001
0000
0001
0000
0001
0000
0001
,
0000
0001
0000
0001
0000
0000
0100
0000
,
0001
1000
0110
1000
,
0001
0010
0100
1000
,
0100
0001
0100
1000
,
0010
0000
0001
0000
0001
0100
1000
0000
,
0001
1000
0110
1000
,
0001
0010
0100
1000
,
0010
1000
0100
0000
0010
0001
0100
0000
,
0010
1000
0100
0000
0100
0000
0100
0000
,
0100
0001
0010
0100
,
1000
0010
0100
1001
,
0010
0001
0010
0001
,
0010
1000
0100
1001
,
0010
1000
0100
0000
0010
0000
0100
0000
,
0010
0001
0100
0000
0010
0000
0100
0000
,
0010
1000
0100
0000
0001
0000
0100
0000
,
0010
0001
0100
0000
1000
0000
0100
0000
,
0001
0010
0100
0010
,
0001
1000
0100
0001
,
1000
0100
0010
0100
,
1000
0001
0100
1000
,
0010
0001
0100
0001
,
0010
1000
0100
1000
,
0001
1000
0100
1000
,
0001
1000
0100
1000
,
1000
0001
0110
0001
,
1000
0010
0100
0001
,
0100
1000
0100
0001
,
0010
0000
1000
0000
1000
0100
0001
0000
,
0001
1000
0110
1000
,
0001
0010
0100
1000
,
0010
1000
0100
0000
0010
0001
0100
0000
,
0010
1000
0100
0000
0010
0100
0010
0000
,
0100
0000
0000
0000
;

//---------------dance-single - ----------------
#NOTES:
     dance-single:
     :
     Medium:
     7:
     :
0000
0000
0000
0000
,
0000
0000
0000
0000
,
0000
0000
0000
0000
,
0000
0001
0000
0100
0000
1000
0000
0100
,
0000
0001
0000
0001
0000
0000
0100
0000
,
0010
0110
0101
1001
,
0010
0001
0010
1000
,
0010
0001
0100
0000
0010
0100
0001
0000
,
0010
1000
0100
0000
0010
0100
1000
0000
,
0010
0110
0101
1001
,
0010
0001
0010
1000
,
0010
0001
0100
0001
0010
0100
1000
0000
,
0010
1000
0100
1000
0010
0100
0001
0000
,
0001
0010
0100
0000
1000
0000
0100
0000
,
1000
0010
0100
0000
0001
0000
0100
0000
,
0001
0010
1000
0000
0001
0000
1000
0000
,
0001
0100
1000
0000
0001
0000
1001
0000
,
1000
0001
0010
0100
0000
0000
0100
0000
,
0000
0100
0000
0100
,
0001
0100
0001
0000
1000
0000
0100
0000
,
1000
0010
1000
0000
0001
0000
0010
0000
,
1000
0010
0100
0000
0010
0100
0001
0000
,
0001
0010
0100
0000
0010
0100
1000
0000
,
0001
1000
0100
0100
,
0001
1000
0100
0100
1000
0001
0100
0000
,
0000
0001
0000
0100
0000
1000
0000
0100
,
0100
0100
0000
0001
0000
0010
0000
1000
,
0010
0001
0000
0010
0000
1000
0000
0001
,
0000
0000
0000
0100
,
0010
0110
0101
1001
,
0010
0001
0010
1000
,
0010
0001
0100
0000
0010
0100
0001
0000
,
0010
1000
0100
0000
0010
0100
1000
0000
,
0010
0110
0101
1001
,
0010
0001
0010
1000
,
0010
0001
0100
0001
0010
0100
1000
0000
,
0010
1000
0100
1000
0010
0100
0001
0000
,
0100
0000
0000
0000
;

//---------------dance-single - ----------------
#NOTES:
     dance-single:
     :
     Hard:
     9:
     :
0000
0000
0000
0000
,
0000
0000
0000
0000
,
0000
0000
0000
0000
,
0010
0000
0000
0001
0000
0000
0100
0000
0000
0000
1000
0000
0000
0000
0100
0000
,
0010
0000
0100
0000
0010
0010
0010
0000
,
1000
0001
0001
0000
1000
0010
1001
0000
,
0010
0010
1000
0000
0100
0010
0001
0000
,
0010
0001
0000
0000
0100
1000
0000
0100
,
0001
0100
1000
0100
0001
0010
1000
0000
,
1000
0001
0001
0000
1000
0010
1001
0000
,
0010
0010
1000
0000
0100
0010
0001
0000
,
0010
0001
0010
1000
0010
0001
0100
0000
,
0010
1000
0010
0001
0010
1000
0100
0000
,
1000
0100
0010
0100
0001
1000
1000
0000
,
0010
1000
0010
1000
0100
0001
0001
0000
,
0001
0100
1000
0010
0001
0010
0010
0000
,
0100
0001
0010
0100
1000
0010
0010
0000
,
0001
1000
0010
0100
0100
0000
0001
0000
,
1000
0001
0010
0100
0100
0000
1000
0000
,
0010
1000
0010
0000
0001
0100
0001
0000
,
1000
0010
1000
0000
0100
0001
0100
0000
,
1000
0010
0100
0001
0010
0100
0001
0000
,
1000
0100
0010
0001
0100
0010
0001
0000
,
1000
0100
0010
0001
0100
0010
0001
0000
,
0001
0100
0010
1000
0100
0010
1000
0000
,
0000
0100
0000
0001
0000
0010
0000
1000
,
0010
0001
0000
0100
0000
0001
0000
0100
,
0001
1000
0000
0010
0000
0001
0000
0100
,
0000
0100
0010
1001
,
1000
0001
0001
0000
1000
0010
1001
0000
,
0010
0010
1000
0000
0100
0010
0001
0000
,
0010
0001
0000
0000
0100
1000
0000
0100
,
0001
0100
1000
0100
0001
0010
1000
0000
,
1000
0001
0001
0000
1000
0010
1001
0000
,
0010
0010
1000
0000
0100
0010
0001
0000
,
0010
0001
0010
1000
0010
0001
0100
0000
,
0010
0001
0010
0100
0010
1000
0010
0000
,
0100
0000
0000
0000
;

//---------------dance-single - ----------------
#NOTES:
     dance-single:
     :
     Challenge:
     11:
     :
0000
0000
0000
0000
,
0000
0000
0000
0000
,
0000
0000
0000
0000
,
0001
0000
0000
1000
0000
0000
0200
0000
0000
0000
0000
0000
0000
0000
0000
0000
,
1300
0000
0001
1000
0000
0010
0100
0000
1001
0000
1001
0000
0000
0000
0000
0000
,
1001
1000
0101
0000
0110
0010
1001
0000
,
0101
0100
1010
0000
1001
0000
0110
0000
,
0200
0000
0001
0000
0000
0001
0000
0000
0001
0000
0000
1000
0000
0000
0301
0000
,
0101
0001
0010
0100
1000
0001
0100
0010
,
0000
1000
1010
0000
1100
1000
0011
0000
,
0110
0000
0010
0000
1001
0000
0000
1000
0100
0000
0001
0000
0100
0000
0000
0000
,
0110
0100
1001
0000
0011
0001
0101
0000
,
0110
0000
0010
0000
1000
0000
0100
0000
0001
0000
0100
0000
0010
0100
0000
0000
,
1000
1000
0002
0000
0100
0100
0100
0003
,
0000
0001
0000
0000
0010
0000
0010
0000
0001
0000
1000
0001
0000
0000
0100
0000
,
0000
0020
0100
0000
1000
1000
1000
0030
,
0000
0010
0000
0000
1000
0000
1000
0000
0010
0000
1000
0100
0000
0000
0010
0000
,
0001
1000
0100
0010
0000
0100
0000
0000
0010
0000
0000
0000
1001
0000
0000
0000
,
0000
0001
0000
0000
0010
0000
0010
0000
0001
0000
1000
0001
0000
0000
0100
0000
,
0000
0000
0001
1000
0100
0000
0100
0000
0100
1000
0100
0010
0000
0100
0000
0000
,
0000
0000
0001
1000
0100
0000
0100
0000
0100
1000
0100
0010
0000
0000
0000
0000
,
1000
0100
0010
0000
0100
0000
0010
0000
0001
0010
0001
0000
0100
0000
0020
0000
,
0000
0000
0000
0000
0000
0000
1030
0001
0000
0010
0000
0100
1000
0000
0001
0000
,
0000
0200
0000
0000
0000
0000
0000
0000
0000
0000
0000
0000
0000
0000
0000
0000
,
0300
0000
0010
1000
0100
0000
0001
0000
0100
0000
0020
0000
0000
0031
0000
0000
,
1000
0100
1000
0001
0000
0200
0000
0000
0300
0000
1000
0100
0001
0200
0000
0000
,
0300
0000
0010
1000
0100
0000
1000
0000
0001
0000
0010
0000
0100
0000
1000
0010
,
0000
0000
0100
0000
0000
0001
0000
0002
0000
0000
0000
0000
0003
1000
0001
1000
,
0000
0000
0100
0010
0100
0010
0100
0010
0100
0000
0000
0000
1000
0000
0100
0000
,
0110
0000
0010
0000
1001
0000
0000
0000
1100
0000
0000
0000
0001
0010
0000
0000
,
1000
0100
0010
0001
1000
0000
0101
0000
,
0020
0000
0001
0000
0000
0001
0000
0000
0001
0000
0000
1000
0000
0000
0031
0000
,
0000
0000
1000
0100
1000
0000
0010
0000
0100
0000
0001
0000
1000
0000
0010
0100
,
0000
0000
0100
0000
0001
0010
0100
1000
0000
1000
0001
0000
0010
0000
0000
0000
,
1100
1000
1001
0000
1010
0010
0110
0000
,
0100
1000
0000
0100
0001
0000
1000
0000
0010
0000
0001
0000
0010
1000
0000
0000
,
0101
0000
0000
0000
0110
0000
0000
0000
1001
0000
0000
0000
0010
0100
0000
0000
,
2002
0000
0000
3003
;

//---------------dance-double - ----------------
#NOTES:
     dance-double:
     :
     Easy:
     7:
     :
00000000
00000000
00000000
00000000
,
00000000
00000000
00000000
00000000
,
00000000
00000000
00000000
00000000
,
00000000
00010000
00000000
00010000
00000000
00010000
00000000
00010000
,
00000000
00010000
00000000
00010000
00000000
00000000
01000000
00000000
,
00100000
10000000
01000000
00010000
,
00001000
00000100
00000001
00001000
,
00000001
00000001
00000010
00000010
,
00001000
00000000
00000010
00000000
00000001
00000100
00001000
00000000
,
00000010
00000001
00000100
00001000
,
00010000
01000000
10000000
00010000
,
10000000
00100000
00010000
00000000
10000000
00100000
00010000
00000000
,
10000000
00010000
10000000
00000000
01000000
00000000
01000000
00000000
,
10000000
01000000
00010000
00001000
,
00000100
00010000
01000000
00001000
,
00000100
00000001
00001000
00000001
,
00000010
00000100
00000010
00000100
,
00000100
00001000
00010000
00000000
01000000
00000000
10000000
00000000
,
01000000
00010000
00001000
00000000
00000100
00000000
00000001
00000000
,
00000010
00001000
00010000
00000000
00100000
00000000
10000000
00000000
,
01000000
00010000
00001000
00000000
00000010
00000000
00000001
00000000
,
00000001
00000010
00000100
00001000
,
00000010
00001000
00010000
01000000
,
00010000
00010000
01000000
10000000
,
00010000
01000000
10000000
01000000
,
00010000
00100000
10000000
01000000
,
00100000
00010000
00001000
00000100
,
00000001
00000001
00000100
00001000
,
00000010
00001000
00010000
01000000
,
00100000
10000000
01000000
00010000
,
00001000
00000100
00000001
00001000
,
00000001
00000001
00000010
00000010
,
00001000
00000000
00000010
00000000
00000001
00000100
00001000
00000000
,
00000010
00000001
00000100
00001000
,
00010000
01000000
10000000
00010000
,
10000000
00100000
00010000
00000000
00100000
10000000
00100000
00000000
,
10000000
01000000
00010000
00000000
00010000
01000000
10000000
00000000
,
00010000
00000000
00000000
00000000
;

//---------------dance-double - ----------------
#NOTES:
     dance-double:
     :
     Medium:
     8:
     :
00000000
00000000
00000000
00000000
,
00000000
00000000
00000000
00000000
,
00000000
00000000
00000000
00000000
,
00000000
00010000
00000000
01000000
00000000
10000000
00000000
01000000
,
00000000
00010000
00000000
00010000
00000000
00000000
01000000
00000000
,
00100000
01000000
01100000
10010000
,
01000000
10000000
00100000
00010000
,
00001000
00000100
00000001
00000000
00000001
00001000
00000100
00000000
,
00000010
00001000
00000001
00000000
00000100
00000010
00000100
00000000
,
00000010
00000100
00001000
00010000
,
00000100
00000001
00000010
00001000
,
00010000
01000000
10000000
00100000
00010000
00100000
10000000
00000000
,
10000000
01000000
00010000
00001000
00000100
00000001
00000001
00000000
,
00000010
00000001
00000100
00000000
00001000
00000000
00000100
00000000
,
00000001
00000010
00000100
00000000
00001000
00000000
00001000
00000000
,
00000010
00001000
00010000
00000000
00100000
00010000
00001000
00000000
,
00000100
00001000
00010000
00000000
01000000
00010000
00001000
00000000
,
00001000
00000100
00000001
00000001
00000001
00000101
00001000
00000000
,
00000001
00001000
00000100
00000001
,
00000100
00001000
00010000
01000000
10000000
00010000
00100000
00000000
,
00100000
00100000
01000000
00000000
01000000
10000000
00010000
00000000
,
00100000
00010000
10000000
00000000
01000000
00010000
10000000
00000000
,
10000000
01000000
00010000
00000000
00001000
00000100
00000001
00000000
,
00000100
00000010
00000001
00000000
00000100
00000010
00000100
00000000
,
00000100
00001000
00000100
00000010
00000100
00000001
00000100
00000000
,
00000000
00000001
00000000
00000010
00000000
00000100
00000000
00001000
,
00010000
01000000
00000000
10000000
00000000
00010000
00000000
00100000
,
00010000
00001000
00000000
00000100
00000000
00000010
00000000
00001000
,
00000000
00000001
00000010
00000100
,
00000010
00000100
00000110
00001001
,
00000100
00000001
00000010
00001000
,
00010000
01000000
10000000
00000000
10000000
00010000
01000000
00000000
,
00100000
00010000
10000000
00000000
01000000
00100000
01000000
00000000
,
00100000
01000000
00010000
00001000
,
01000000
10000000
00100000
00010000
,
00001000
00000100
00000001
00000010
00001000
00000010
00000001
00000000
,
00000001
00000100
00001000
00010000
01000000
10000000
10000000
00000000
,
10000000
00000000
00000000
00000000
;

//---------------dance-double - ----------------
#NOTES:
     dance-double:
     :
     Hard:
     11:
     :
00000000
00000000
00000000
00000000
,
00000000
00000000
00000000
00000000
,
00000000
00000000
00000000
00000000
,
00000000
00010000
00000000
01000000
00000000
00001000
00000000
00010000
,
00000000
00000100
00000010
00000001
00000100
00000000
00000001
00000100
,
00000010
00000000
00000000
00000000
00001000
00000000
00000000
00000000
00000100
00000000
00000000
00000000
00010000
00001000
00000000
00100000
,
00000000
00010000
00000000
00000000
00100000
01000000
10000000
01000000
,
00100000
00000000
00010000
01000000
00000000
00000000
00000000
00000000
,
00001000
00010000
00000100
00000010
00000001
00000100
00000010
00001000
,
00000100
00000000
00000000
00000000
00010000
00000000
00000000
00000000
00001000
00000000
00000000
00000000
00100000
00010000
00000000
00100000
,
00000000
01000000
00000000
00000000
10000000
00010000
01000000
00000000
,
00100000
10000000
00000000
01000000
00100000
00000000
00010000
00000000
01000000
00000000
00000000
00000000
00000000
00000000
00000000
00000000
,
00001000
00010000
00000100
00000010
,
00000001
00000000
00000100
00000000
00000010
00000000
00001000
00000000
00000100
00000000
00000000
00010000
00000000
00001000
00000000
00000000
,
01000000
00000000
00100000
00000000
10000000
00000000
01000000
00000000
00100000
00000000
00000000
00001000
00000000
00010000
00000000
00000000
,
00000100
00000000
00000010
00000000
00000001
00000000
00001000
00000000
00000010
00000000
00000000
00010000
00000000
00001000
00000000
00000000
,
00100000
00000000
01000000
00000000
10000000
00000000
00010000
00000000
01000000
00000000
00000000
00001000
00000000
00010000
00000000
00000000
,
00000100
00000010
00000001
00000000
,
00000100
00000010
00001000
00000100
00010000
00000000
00000000
00000000
,
00000000
00000000
00010000
00000000
00001000
00000000
00100000
00000000
00010000
10000000
00010000
10000000
01100000
00000000
00000000
00000000
,
00000000
00000000
10000000
00000000
01000000
00000000
00100000
00000000
00001000
00010000
00001000
00010000
00000000
00000000
00000000
00000000
,
00000100
00000010
00000001
00000100
00000010
00001000
00000100
00010000
,
00001000
00000000
01000000
00000000
00100000
10000000
00100000
00000000
,
01000000
00000000
00001000
00000000
00010000
00000100
00001000
00000000
,
00000001
00000100
00000010
00001000
00000100
00000000
00011000
00000000
,
00100000
00010000
00100000
00010000
00000000
00000000
00000000
00000000
10000000
01000000
10000000
01000000
00000000
00000000
00000000
00000000
,
00100000
00001000
00010000
00000100
00000000
00000000
00000000
00000000
00000010
00010000
00001000
01000000
00000000
00000000
00000000
00000000
,
00100000
10000000
01000000
00100000
,
00000000
00001000
00010000
00000100
00000010
00000000
00000001
00000100
,
00000010
00000000
00000000
00000000
00001000
00000000
00000000
00000000
00000100
00000000
00000000
00000000
00010000
00001000
00000000
00100000
,
00000000
00010000
00000000
00000000
10000000
01000000
00100000
00010000
,
01000000
00000000
00001000
00010000
00000000
00000000
00000000
00000000
,
00000100
00000010
00000001
00000100
00000010
00001000
00000100
00010000
,
00001000
00000000
00000000
00000000
00100000
00000000
00000000
00000000
01000000
00000000
00000000
00000000
10000000
00010000
00000000
01000000
,
00000000
00001000
00000000
00000000
00010000
00000100
00000010
00000000
,
00000001
00000100
00000000
00000010
00001000
00000000
00000100
00000000
00010000
00000000
00000000
00000000
00000000
00000000
00000000
00000000
,
00001000
00000000
00100000
00000000
00010000
10000000
00010000
00000000
,
00011000
00000000
00000000
00000000
;

//---------------dance-double - ----------------
#NOTES:
     dance-double:
     :
     Challenge:
     11:
     :
00000000
00000000
00000000
00000000
,
00000000
00000000
00000000
00000000
,
00000000
00000000
00000000
00000000
,
00000001
00000000
00000000
00000010
00000000
00000000
00002000
00000000
00000000
00000000
00000000
00000000
00000000
00000000
00000000
00000000
,
00013000
00000000
01000000
10000000
00000000
00010000
01000000
00000000
00100000
00000000
10100000
00000000
00000000
00000000
00000000
00000000
,
10010000
10000000
01010000
00000000
01001000
01000000
00011000
00000000
,
00010010
00010000
00001010
00000000
00001001
00000000
00000110
00000000
,
00001001
00000001
00001010
00000000
00010010
00000010
00011000
00000000
,
01001000
00001000
00010000
01000000
10000000
00010000
01000000
00010000
,
00000000
01000000
01001000
00000000
00011000
00010000
00010100
00000000
,
00000110
00000000
00000010
00000000
00001001
00000000
00000000
00001000
00000100
00000000
00000001
00000000
00000100
00000000
00000000
00000000
,
00000110
00000100
00001001
00000000
00001010
00000010
00011000
00000000
,
00110000
00000000
00100000
00000000
10000000
00000000
01000000
00000000
00010000
00000000
01000000
00000000
00100000
01000000
00000000
00000000
,
10000000
01000000
00010000
01000000
00010000
00001000
00000010
00000000
,
00000001
00000000
00000010
00000000
00001000
00000000
00000010
00000000
00000100
00000000
00001000
00000100
00000000
00000100
00000000
00000000
,
00010000
01000000
10000000
00100000
01000000
00010000
01000000
00000000
,
00001000
00010000
00000010
00001000
00000001
00000100
00001000
00000100
,
00000001
00000100
00000010
00001000
00000000
00000100
00000000
00000000
00000010
00000000
00000000
00000000
00001001
00000000
00000000
00000000
,
00000001
00000010
00001000
00000000
00010000
01000000
10010000
00000000
,
00000000
00000000
00010000
10000000
01000000
00000000
01000000
00000000
00100000
00010000
00100000
01000000
00000000
01000000
00000000
00000000
,
00000000
00000000
00010000
00001000
00010000
00000000
00010000
00000000
00000010
00001000
00000010
00000100
00000000
00000000
00000000
00000000
,
00000001
00001000
00000001
00000000
00000010
00000000
00001000
00000000
00010000
00001000
00010000
00000000
00000010
00000000
00000200
00000000
,
00000000
00000000
00000000
00000000
00000000
00000000
00000301
00001000
00000000
00000010
00000000
00000100
00001000
00000000
00010000
00000000
,
00000000
02000000
00000000
00000000
00000000
00000000
00000000
00000000
00000000
00000000
00000000
00000000
00000000
00000000
00000000
00000000
,
03000000
00000000
10000000
01000000
00100000
00000000
01000000
00000000
00010000
00000000
00002000
00000000
00000000
00003010
00000000
00000000
,
00000001
00001000
00000100
00010000
00000000
02000000
00000000
00000000
03000000
00000000
10000000
01000000
00010000
02000000
00000000
00000000
,
03000000
00000000
10000000
00100000
01000000
00000000
00001000
00000000
00010000
00000000
00000010
00000000
00001000
00000000
00000001
00000010
,
00000000
00000000
00001000
00000000
00000000
00010000
00000000
00010000
00000000
00000000
00000000
00000000
00000000
10000000
00010000
10000000
,
00000000
00000000
01000000
00100000
01000000
00100000
01000000
00100000
01000000
00000000
00000000
00000000
10000000
00000000
01000000
00000000
,
01100000
00000000
00100000
00000000
10010000
00000000
00000000
00000000
00101000
00000000
00000000
00000000
00000100
00010000
00000000
00000000
,
00010000
00000100
00000010
00000001
00001000
00000000
00000101
00000000
,
00000110
00000100
00001100
00000000
00011000
00010000
01010000
00000000
,
10000000
00000000
00010000
00100000
00010000
00000000
00100000
00000000
01000000
00000000
10000000
00000000
00100000
00000000
00010000
00001000
,
00000000
00000000
00100000
00000000
00010000
00100000
01000000
10000000
00000000
10000000
00010000
00000000
00100000
00000000
00000000
00000000
,
00011000
00001000
00010100
00000000
00001010
00000010
00000110
00000000
,
00000100
00000010
00000000
00010000
00001000
00000000
00000010
00000000
00000001
00000000
00000010
00000000
00001000
00010000
00000000
00000000
,
00010100
00101000
10010000
01100000
,
20020000
00000000
00000000
30030000
;

//---------------dance-couple - ----------------
#NOTES:
     dance-couple:
     :
     Easy:
     4:
     :
00000000
00000000
00000000
00000000
,
00000000
00000000
00000000
00000000
,
00000000
00000000
00000000
00000000
,
00000000
00010001
00000000
00010001
00000000
00010001
00000000
00010001
,
00000000
00010001
00000000
00010001
00000000
00000000
01000100
00000000
,
00010001
10001000
01100110
10001000
,
00010001
00100010
01000100
10001000
,
01000100
00010001
01000100
10001000
,
00100010
00000000
00010001
00000000
00010001
01000100
10001000
00000000
,
00010001
10001000
01100110
10001000
,
00010001
00100010
01000100
10001000
,
00100010
10001000
01000100
00000000
00100010
00010001
01000100
00000000
,
00100010
10001000
01000100
00000000
01000100
00000000
01000100
00000000
,
01000000
00010100
00100000
01000001
,
10000000
00100100
01000000
10011000
,
00100000
00010100
00100000
00010010
,
00100000
10001000
01000000
10010100
,
00100010
10000001
01000100
00000000
00100010
00000000
01000100
00000000
,
00100010
00011000
01000100
00000000
00100010
00000000
01000100
00000000
,
00100010
10000001
01000100
00000000
00011000
00000000
01000100
00000000
,
00100010
00011000
01000100
00000000
10000001
00000000
01000100
00000000
,
00000001
01000010
00000100
10000010
,
00000001
01001000
00000100
00010001
,
00001000
01000100
00000010
00100100
,
00001000
00010001
00000100
01001000
,
00100010
00010001
01000100
00010001
,
00100010
10001000
01000100
10001000
,
00010001
10001000
01000100
10001000
,
00010001
10001000
01000100
10001000
,
10000001
00011000
01100110
00011000
,
10000001
00100010
01000100
00011000
,
01000100
10000001
01000100
00011000
,
00100010
00000000
10000001
00000000
10000001
01000100
00011000
00000000
,
00011000
10000001
01100110
10000001
,
00011000
00100010
01000100
10000001
,
00100010
10000001
01000100
00000000
00100010
00011000
01000100
00000000
,
00100010
10000001
01000100
00000000
00100010
01000100
00100010
00000000
,
01000100
00000000
00000000
00000000
;

//---------------dance-couple - ----------------
#NOTES:
     dance-couple:
     :
     Medium:
     5:
     :
00000000
00000000
00000000
00000000
,
00000000
00000000
00000000
00000000
,
00000000
00000000
00000000
00000000
,
00000000
00010001
00000000
01000100
00000000
10001000
00000000
01000100
,
00000000
00010001
00000000
00010001
00000000
00000000
01000100
00000000
,
00100010
01100110
01010101
10011001
,
00100010
00010001
00100010
10001000
,
00100010
00010001
01000100
00000000
00100010
01000100
00010001
00000000
,
00100010
10001000
01000100
00000000
00100010
01000100
10001000
00000000
,
00100010
01100110
01010101
10011001
,
00100010
00010001
00100010
10001000
,
00100010
00010001
01000100
00010001
00100010
01000100
10001000
00000000
,
00100010
10001000
01000100
10001000
00100010
01000100
00010001
00000000
,
00010000
00100000
01000100
00000000
10000000
00000000
01001001
00000000
,
10000000
00100000
01000010
00000000
00010000
00000000
01000100
00000000
,
00000001
00000010
01001000
00000000
00000001
00000000
10011000
00000000
,
00000001
00000100
00101000
00000000
00000001
00000000
01001001
00000000
,
10001000
00010001
00100010
01000100
00000000
00000000
01000100
00000000
,
00000000
01000100
00000000
01000100
,
00010001
01000100
00010001
00000000
10001000
00000000
01000100
00000000
,
10001000
00100010
10001000
00000000
00010001
00000000
00100010
00000000
,
10000000
00100000
01000100
00000000
00100000
01000000
00010001
00000000
,
00001000
00000010
01000100
00000000
00000010
00000100
00010001
00000000
,
00010001
10001000
01000100
01000100
,
00010001
10001000
01000100
01000100
10001000
00010001
01000100
00000000
,
00000000
00010000
00000000
01000000
00000000
10000000
00000000
01000000
,
01000000
01000000
00000000
00000001
00000000
00000010
00000000
00001000
,
00000010
00000001
00000000
00100010
00000000
10001000
00000000
00010001
,
00000000
00000000
00000000
01000100
,
00100010
01100110
01011100
10011001
,
00100010
00011000
00100010
10000001
,
00100010
00011000
01000100
00000000
00100010
01000100
00011000
00000000
,
00100010
10000001
01000100
00000000
00100010
01000100
10000001
00000000
,
00100010
01100110
01011100
10011001
,
00100010
00011000
00100010
10000001
,
00100010
00011000
01000100
00011000
00100010
01000100
10000001
00000000
,
00100010
10000001
01000100
10000001
00100010
01000100
00011000
00000000
,
01000100
00000000
00000000
00000000
;

//---------------dance-couple - ----------------
#NOTES:
     dance-couple:
     :
     Hard:
     6:
     :
00000000
00000000
00000000
00000000
,
00000000
00000000
00000000
00000000
,
00000000
00000000
00000000
00000000
,
00100010
00000000
00000000
00010001
00000000
00000000
01000100
00000000
00000000
00000000
10001000
00000000
00000000
00000000
01000100
00000000
,
00100010
00000000
01000100
00000000
00100010
00100010
00100010
00000000
,
10001000
00010001
00010001
00000000
10001000
00100010
10011001
00000000
,
00100010
00100010
10001000
00000000
01000100
00100010
00010001
00000000
,
00100000
00010000
00000000
00000000
00000100
00001000
00000000
01000100
,
00010001
01000100
10001000
01000100
00010001
00100010
10001000
00000000
,
10001000
00010001
00010001
00000000
10001000
00100010
10011001
00000000
,
00100010
00100010
10001000
00000000
01000100
00100010
00010001
00000000
,
00100010
00010000
00100010
10000000
00100010
00010000
01000100
00000000
,
00100010
00001000
00100010
00000001
00100010
00001000
01000100
00000000
,
10001000
00000100
00100010
00000100
00010001
00001000
10001000
00000000
,
00100010
10000000
00100010
10000000
01000100
00010000
00010001
00000000
,
00010001
00000100
10001000
00000010
00010001
00000010
00100010
00000000
,
01000100
00010000
00100010
01000000
10001000
00100000
00100010
00000000
,
00010001
10001000
00100010
01000100
01000100
00000000
00010001
00000000
,
10001000
00010001
00100010
01000100
01000100
00000000
10001000
00000000
,
00100010
10001000
00100010
00000000
00010001
01000100
00010001
00000000
,
10001000
00100010
10001000
00000000
01000100
00010001
01000100
00000000
,
10000001
00100010
01000100
00011000
00100010
01000100
00011000
00000000
,
10000001
01000100
00100010
00011000
01000100
00100010
00011000
00000000
,
10000001
01000100
00100010
00011000
01000100
00100010
00011000
00000000
,
00011000
01000100
00100010
10000001
01000100
00100010
10000001
00000000
,
00000000
01000100
00000000
00011000
00000000
00100010
00000000
10000001
,
00100010
00011000
00000000
01000100
00000000
00011000
00000000
01000100
,
00011000
10000001
00000000
00100010
00000000
00011000
00000000
01000100
,
00000000
01000100
00100010
10011001
,
10001000
00010001
00010001
00000000
10001000
00100010
10011001
00000000
,
00100010
00100010
10001000
00000000
01000100
00100010
00010001
00000000
,
00100010
00010001
00000000
00000000
01000100
10001000
00000000
01000100
,
00010001
01000100
10001000
01000100
00010001
00100010
10001000
00000000
,
10001000
00010001
00010001
00000000
10001000
00100010
10011001
00000000
,
00100010
00100010
10001000
00000000
01000100
00100010
00010001
00000000
,
00100010
00010001
00100010
10001000
00100010
00010001
01000100
00000000
,
00100010
00010001
00100010
01000100
00100010
10001000
00100010
00000000
,
01000100
00000000
00000000
00000000
;

//---------------dance-couple - ----------------
#NOTES:
     dance-couple:
     :
     Challenge:
     2:
     :
00000000
00000000
00000000
00000000
,
00000000
00000000
00000000
00000000
,
00000000
00000000
00000000
00000000
,
00000000
00010001
00000000
01000100
00000000
10001000
00000000
01000100
,
00000000
00010001
00000000
00010001
00000000
00000000
01000100
00000000
,
00100001
01100000
01010001
10010000
,
00100001
00010000
00100001
10000000
,
00100001
00010000
01000000
00000000
00100001
01000000
00010000
00000000
,
00100001
10000000
01000000
00000000
00100001
01000000
10000000
00000000
,
10000010
00000110
10000101
00001001
,
10000010
00000001
10000010
00001000
,
10000010
00000001
00000100
00000000
10000010
00000100
00000001
00000000
,
10000010
00001000
00000100
00000000
10000010
00000100
00001000
00000000
,
01000000
00010001
00100000
01000001
,
10000000
00100001
01000000
10010001
,
00000100
10000001
00000010
10000100
,
00001000
10000010
00000100
10001001
,
10001000
00010001
00100010
01000100
00000000
00000000
01000100
00000000
,
00000000
01000100
00000000
01000100
,
00100000
10000000
00100000
00000000
00010000
01000000
00010000
00000000
,
00000010
00000001
00000010
00000000
00001000
00000100
00001000
00000000
,
10000001
01000000
00100000
00010000
01000001
00100000
00010000
00000000
,
00010001
01000000
00100000
10000000
01000001
00100000
10000000
00000000
,
10000001
00000100
00000010
00001000
10000100
00000010
00001000
00000000
,
10001000
00000100
00000010
00000001
10000100
00000010
00000001
00000000
,
00000000
01000000
00000000
00010000
00000000
00100000
00000000
10000000
,
00000000
00000100
00000000
00000001
00000000
00000010
00000000
00001000
,
00000000
10001000
00000000
00100010
00000000
00010001
00000000
01000100
,
00000000
00000000
00000000
00000000
,
10000001
00010000
00010000
00000000
10000001
00100000
10010000
00000000
,
00100001
00100000
10000000
00000000
01000001
00100000
00010000
00000000
,
00100001
00010000
00000000
00000000
01000001
10000000
00000000
01000000
,
00010001
01000000
10000000
01000000
00010001
00100000
10000000
00000000
,
10000001
00001000
00001000
00000000
10000001
00000010
00001001
00000000
,
10000010
00000010
00000001
00000000
10000100
00000010
00001000
00000000
,
10000010
00001000
00000000
00000000
10000100
00000001
00000000
00000100
,
10001000
00000100
00000001
00000100
10001000
00000010
00000001
00000000
;

//---------------dance-solo - ----------------
#NOTES:
     dance-solo:
     :
     Easy:
     5:
     :
000000
000000
000000
000000
,
000000
000000
000000
000000
,
000000
000000
000000
000000
,
000000
000010
000000
000010
000000
000010
000000
000010
,
010000
000000
000000
001000
,
000001
100000
001100
010000
,
000010
000100
001000
100000
,
001000
000010
001000
010000
,
000100
000000
100000
000000
000010
001000
100000
000000
,
000001
100000
001100
100000
,
000010
000100
001000
100000
,
000100
010000
001000
000000
000100
000001
001000
000000
,
000100
010000
001000
000000
001000
000000
001000
000000
,
001000
000001
000100
001000
,
010000
000100
001000
100001
,
000100
000010
000100
000010
,
000100
100000
001000
010001
,
000010
100000
001000
000000
000100
000000
001000
000000
,
000100
000001
001000
000000
000100
000000
001000
000000
,
000100
010000
001000
000000
000001
000000
001000
000000
,
000010
000000
000000
000000
,
000001
000100
001000
010000
,
000001
100000
001000
000001
,
010000
001000
000100
001000
,
100000
000001
001000
100000
,
000100
000001
001000
000010
,
010000
001000
000100
000001
,
100000
000001
001000
100000
,
000001
010000
001000
100000
,
100000
000001
001100
000010
,
010000
000100
001000
000001
,
001000
100000
001000
000001
,
000100
000000
010000
000000
000010
100000
001000
000000
,
000001
000100
001100
010000
,
000001
100000
000010
001000
,
000100
100000
001000
000000
000100
000001
001000
000000
,
000100
010000
001000
000000
000100
001000
000100
000000
,
001000
000000
000000
000000
;

//---------------dance-solo - ----------------
#NOTES:
     dance-solo:
     :
     Medium:
     6:
     :
000000
000000
000000
000000
,
000000
000000
000000
000000
,
000000
000000
000000
000000
,
000000
000001
000000
001000
000000
010000
000000
001000
,
000100
000000
000000
001000
,
000010
100100
001001
100010
,
010000
000001
000100
001000
,
000100
000001
001000
000000
000010
100000
000100
000000
,
000100
100000
001000
000000
010000
001000
000100
000000
,
000100
001010
011000
100001
,
000100
000010
000100
010000
,
000100
100000
001000
010000
000001
000100
000010
000000
,
010000
001000
000100
000001
000010
001000
000100
000000
,
000001
010000
000010
000000
100000
000000
000100
000000
,
100000
000100
001000
000000
000001
000000
001000
000000
,
000010
000100
001000
000000
000001
000000
100000
000000
,
000100
001000
000010
000000
100000
000000
010001
000000
,
000100
001000
010000
000001
000000
000000
001000
000000
,
000000
001000
000000
001000
,
000010
001000
000010
000000
100000
000000
001000
000000
,
010000
000001
010000
000000
000001
000000
000100
000000
,
001000
010000
000001
000000
100000
000010
001000
000000
,
000100
100000
001000
000000
000100
000001
001000
000000
,
000010
100000
001000
001000
,
010000
000001
000100
000100
000010
010000
000100
000000
,
000000
000001
000000
100000
000000
001000
000000
000100
,
000100
000100
000000
000001
000000
000100
000000
100000
,
000100
010000
000000
000010
000000
000100
000000
001000
,
000000
000000
000000
001000
,
000100
001100
010001
100010
,
001000
000100
100000
000001
,
000100
001000
010000
000000
000100
001000
000010
000000
,
100000
001000
000100
000000
000001
001000
000100
000000
,
100000
001010
100001
001100
,
000010
000001
010000
100000
,
000100
000001
001000
000010
000100
000001
100000
000000
,
000100
010000
000010
000100
000001
001000
000100
000000
,
001000
000000
000000
000000
;

//---------------dance-solo - ----------------
#NOTES:
     dance-solo:
     :
     Hard:
     6:
     :
000000
000000
000000
000000
,
000000
000000
000000
000000
,
000000
000000
000000
000000
,
010000
000000
000000
000001
000000
000000
001000
000000
000000
000000
100000
000000
000000
000000
001000
000000
,
000010
000000
001000
000000
010000
010000
010000
000000
,
001000
000010
000010
000000
100000
001000
000100
000000
,
000001
000001
100000
000000
001000
000100
000001
000000
,
010000
000010
000000
000000
001000
100000
000000
001000
,
000010
001000
100000
001000
000010
000100
001000
000000
,
100000
000001
000001
000000
100000
000100
001000
000000
,
000010
000010
100000
000000
001000
000100
000001
000000
,
010000
000010
100000
000100
100000
000001
001000
000000
,
000100
100000
010000
100000
000010
010000
001000
000000
,
000100
000001
010000
000100
100000
000010
010000
000000
,
000100
100000
000100
100000
001000
000001
000001
000000
,
000001
001000
100000
000100
000001
000010
000010
000000
,
001000
000001
000100
001000
010000
000100
000100
000000
,
000001
100000
000100
001000
001000
000000
000010
000000
,
100000
001000
000100
000001
000001
000000
010000
000000
,
000100
100000
000100
000000
000001
001000
000001
000000
,
100000
000100
100000
000000
001000
000001
001000
000000
,
100000
000100
001000
000001
000100
001000
000010
000000
,
001000
010000
000100
001000
000001
000100
000001
000000
,
100000
001000
000100
000001
000010
001000
000100
000000
,
000001
001000
000100
100000
001000
010000
000001
000000
,
000000
001000
000000
000010
000000
100000
000000
001000
,
000100
000001
000000
001000
000000
000100
000000
100000
,
000010
010000
000000
000100
000000
001000
000000
000001
,
000000
100000
001000
000101
,
010000
000010
000010
000000
001000
000100
100000
000000
,
001000
001000
010000
000000
000001
000100
001000
000000
,
000100
000001
000000
000000
001000
010000
000000
001000
,
000010
001000
100000
001000
000001
000100
100000
000000
,
100000
000010
000010
000000
010000
000100
001000
000000
,
000010
000010
100000
000000
001000
000100
000001
000000
,
000100
000001
010000
100000
000100
000001
001000
000000
,
000010
000001
000100
001000
010100
100000
000100
000000
,
001000
000000
000000
000000
;
