
//----- song ID: getu -----//
#TITLE:GET UP'N MOVE;
#ARTIST:S&K;
#BANNER:GET UP'N MOVE.png;
#BACKGROUND:GET UP'N MOVE-bg.png;
#CDTITLE:./CDTITLES/DANCEMANIA BASS#2.PNG;
#MUSIC:GET UP'N MOVE.ogg;
#SAMPLESTART:30.373;
#SAMPLELENGTH:15;
#DISPLAYBPM:132;
#BPMS:0=48.518,4=132.029;

//---------------dance-single - ----------------
#NOTES:
     dance-single:
     :
     Beginner:
     2:
     :
0000
0000
0000
0000
,
0000
0000
0000
0000
,
0000
0000
0000
0000
,
0001
0001
0001
0000
,
0001
0000
0001
0000
,
0010
0010
0010
0000
,
0010
0000
0010
0000
,
1000
1000
1000
0000
,
1000
0000
1000
0000
,
0010
0010
0010
0000
,
0010
0000
0010
0000
,
0001
0000
0100
0000
,
0001
0000
0100
0000
,
1000
0000
1000
0000
,
1000
0000
1001
0000
,
0001
0000
0000
0000
,
0001
0000
1001
0000
,
0110
0000
0000
0000
,
0010
0000
1001
0000
,
1000
0000
0000
0000
,
1000
0000
1001
0000
,
0110
0000
0000
0000
,
0010
0000
1001
0000
,
0010
0000
0000
0000
,
0001
0000
1000
0000
,
0100
0000
0000
0000
,
0010
0000
1001
0000
,
0100
0000
0100
0000
,
0100
0000
0100
0000
,
0001
0000
0000
0000
,
0001
0000
1001
0000
,
0110
0000
0000
0000
,
0010
0000
1001
0000
,
1000
0000
0000
0000
,
1000
0000
1001
0000
,
0110
0000
0000
0000
,
0010
0000
1001
0000
,
0001
0000
0000
0000
,
0001
0000
1001
0000
,
0110
0000
0000
0000
,
0010
0000
1001
0000
;

//---------------dance-single - ----------------
#NOTES:
     dance-single:
     :
     Easy:
     7:
     :
0000
0000
0000
0000
,
0000
0000
0000
0000
,
0000
0000
0000
0000
,
1001
0010
0001
0100
,
1001
0100
1000
0100
,
0001
0001
0010
0001
,
0001
0001
1000
0100
,
1000
1000
0010
1000
,
0001
0001
0010
0001
,
0010
1000
0001
0100
,
0001
0000
0010
0000
1000
0100
0001
0000
,
1000
0100
0001
0100
,
0010
0000
1000
0000
0001
0100
1000
0000
,
0001
1000
0100
0001
,
1000
0000
0000
0001
0000
0000
1000
0100
1000
0100
0000
0000
,
1000
1000
0001
0001
,
0010
0000
0010
0000
0010
0010
0010
0000
,
1010
0000
1000
0000
1000
0100
0001
0000
,
1000
0000
0100
0000
0010
1000
0100
0000
,
1000
0000
0010
0000
0010
1000
0100
0000
,
1000
0000
0010
0000
0010
1000
0100
0000
,
0001
0000
0100
0000
0010
0001
0100
0000
,
0001
0000
0010
0000
0010
0001
0100
0000
,
0001
0000
1000
0000
0001
0001
0001
0000
,
1000
0000
0001
0000
1000
1000
1000
0000
,
0110
0000
1001
0000
0110
1000
0100
0000
,
0001
0000
1000
0000
0110
0001
0100
0000
,
0010
1000
0001
0010
,
0010
0000
0000
0100
0000
0000
0001
0100
0001
0100
0000
0000
,
1000
0001
1000
1000
,
0001
1000
0001
0001
,
1001
0000
0000
0000
0001
0100
1000
0000
,
1001
0000
0000
0000
1000
0100
0001
0000
,
1001
0000
0001
0000
0010
1000
0100
0000
,
0001
0000
1000
0000
0010
0001
0100
0000
,
0010
0000
0000
0000
0110
0010
1000
0000
,
1000
0000
0001
0000
0100
1000
0010
0000
,
0010
0010
0100
0100
,
0010
1010
0100
0101
,
0001
0000
0001
0000
0001
1000
1000
0000
,
0010
0000
0000
1000
0000
0000
0001
0100
0001
0100
0000
0000
;

//---------------dance-single - ----------------
#NOTES:
     dance-single:
     :
     Medium:
     9:
     :
0000
0000
0000
0000
,
0000
0000
0000
0000
,
0000
0000
0000
0000
,
1000
0001
0000
0001
0000
0001
0000
0001
,
1000
0001
0000
0001
0000
0001
0000
0001
,
0010
0001
0000
1000
0000
0001
0000
1000
,
0010
0001
0000
0001
0000
1000
1000
0000
,
0100
0001
0000
0001
0100
1000
0000
1000
,
0100
0001
0000
0001
0100
1000
0000
1000
,
0000
0001
0000
1000
0000
0100
0000
0010
,
0000
0001
0000
1000
0000
0010
0010
0000
,
0000
0100
0000
0001
0000
0010
0000
1100
,
0000
0001
0000
1000
0000
0001
0000
0101
,
0000
0001
0000
0010
0000
0100
0000
0010
,
0000
0000
0000
1000
0000
0000
0000
0000
0000
0001
0000
0000
1000
0000
0010
0000
1000
0000
0100
0000
0000
0000
0000
0000
,
1000
0000
0100
0000
0100
0000
0000
0000
0100
0000
0000
0100
0000
0000
0100
0000
,
0000
0000
0001
0000
0001
0000
0000
0000
0010
0000
0000
0010
0000
0000
0010
0000
,
0000
0000
1000
0000
1000
0000
0000
0000
0100
0000
0000
0100
0000
0000
0100
0000
,
0000
0000
0001
0000
0001
0000
0000
0000
0100
0000
0000
0100
0000
0000
0100
0000
,
0000
0000
0010
0000
0010
0000
0000
0000
1000
0000
0000
1000
0000
0000
1001
0000
,
0000
0000
0001
0000
1000
0000
0000
0000
0010
0000
0000
0100
0000
0000
0100
0000
,
0000
0000
0010
0000
0100
0000
0000
0000
0001
0000
0000
1000
0000
0000
0000
0001
,
0000
0000
0100
0000
0100
0000
0000
0000
0010
0000
0000
0010
0000
0000
0010
0000
,
0000
0010
0000
1000
0000
0100
0000
0001
,
0000
0010
0000
1000
0000
0100
0000
0101
,
0000
0100
0000
1000
0000
0010
0000
0001
,
0000
1100
0000
1001
0000
0100
0100
0000
,
0000
1000
0000
0001
0000
0010
0000
0100
,
0000
0000
0000
0010
0000
0000
0000
0000
0000
0010
0000
0000
1000
0000
0010
0000
1000
0000
0100
0000
0000
0000
0000
0000
,
0000
0000
0100
0000
0100
0000
0000
0000
0100
0000
0000
0100
0000
0000
0100
0000
,
0000
0000
0001
0000
0001
0000
0000
0000
1000
0000
0000
0001
0000
0000
1000
0000
,
0000
0000
1000
0000
1000
0000
0000
0000
0010
0000
0000
0001
0000
0000
0101
0000
,
0000
0000
0001
0000
0001
0000
0000
0000
0010
0000
0000
0100
0000
0000
1100
0000
,
0000
0000
0010
0000
0010
0000
0000
0000
1000
0000
0000
0001
0000
0000
1001
0000
,
0000
0000
0100
0000
0100
0000
0000
0000
0010
0000
0000
0100
0000
0000
1001
0000
,
0000
0100
0000
0100
0000
1000
0000
1000
,
0000
0000
0000
0001
0000
0000
0000
0000
0000
0000
0000
0000
1000
0000
0010
0000
1000
0000
0100
0000
0000
0000
0000
0000
,
0000
0000
0001
0000
0001
0000
0000
0000
0010
0000
0000
0100
0000
0000
1000
0000
,
0000
0000
1000
0000
1000
0000
0000
0000
0001
0000
0000
0100
0000
0000
0001
0000
,
0000
0000
0001
0000
0001
0000
0000
0000
0001
0000
0000
0100
0000
0000
0100
0000
,
0000
0001
0001
0000
0101
0000
1001
0000
;

//---------------dance-single - ----------------
#NOTES:
     dance-single:
     :
     Hard:
     11:
     :
0000
0000
0000
0000
,
0000
0000
0000
0000
,
0000
0000
0000
0000
,
0000
0100
1000
0100
0001
0100
0001
0100
,
1000
0001
1000
0001
1000
0100
1000
0100
,
0010
0001
1000
0100
0010
0001
0010
1000
,
0010
0001
0100
0001
0010
1000
0001
0010
,
0100
0001
1000
0001
0100
1000
0010
1000
,
0100
0001
0010
0001
0100
1000
0010
1000
,
0100
0001
0010
1000
0001
0100
1000
0010
,
0100
0001
1000
1000
0100
0010
1001
0000
,
0001
0100
1000
0001
1000
0010
0100
1000
,
0010
0001
0001
1000
1000
0001
0010
0100
,
0100
0001
0010
0010
1000
0100
1000
0010
,
0001
0000
0000
1000
0000
0000
0100
0000
0000
0001
0000
0000
1000
0000
0010
0000
1000
0000
0100
0000
0000
0000
0000
0000
,
1000
0000
0100
0000
0100
0000
0000
0000
1001
0000
0000
0100
0000
0000
0100
0000
,
0000
0000
1001
0000
0001
0000
0000
0000
0010
0000
0000
1000
0000
0000
0100
0000
,
0000
0000
1100
0000
0001
0000
0000
0000
1000
0000
0000
0001
0000
0000
0101
0000
,
0000
0000
1100
0000
0100
0000
0000
0000
0001
0000
0000
0110
0000
0000
0001
0000
,
0000
0000
0010
0000
1100
0000
0000
0000
1001
0000
0000
0100
0000
0000
0001
0000
,
0000
0000
0001
0000
1000
0000
0000
0000
0110
0000
0000
0100
0000
0000
1100
0000
,
0000
0000
0110
0000
0110
0000
0000
0000
1001
0000
0000
1000
0000
0000
0101
0000
,
0000
0000
0100
0000
1100
0000
0000
0000
0010
0000
0000
0001
0000
0000
0101
0000
,
1000
0010
0100
1000
0001
0100
0100
0001
,
0100
0010
0100
1000
0001
0100
1000
0001
,
0010
0100
0001
1000
1000
0010
0100
0001
,
0100
1100
0001
1001
1000
0100
0100
0000
,
0010
1000
1000
0001
0100
0010
0001
0100
,
1000
0000
0000
0010
0000
0000
0001
0000
0000
0010
0000
0000
1000
0000
0010
0000
1000
0000
0100
0000
0000
0000
0000
0000
,
1001
0000
0100
0000
0100
0000
0000
0000
1000
0000
0000
0001
0000
0000
0100
0000
,
1000
0000
0001
0000
0001
0000
0000
0000
1000
0000
0000
0010
0000
0000
0101
0000
,
0001
0000
1000
0000
1000
0000
0000
0000
0010
0000
0000
0001
0000
0000
0101
0000
,
1000
0000
0001
0000
0100
0000
0000
0000
0010
0000
0000
0100
0000
0000
1100
0000
,
0010
0000
0001
0000
0100
0000
0000
0000
1000
0000
0000
0001
0000
0000
1001
0000
,
0010
0000
0100
0000
0100
0000
0000
0000
0011
0000
0000
0100
0000
0000
1001
0000
,
0010
0100
0001
0100
0100
1000
0100
1000
,
0010
0000
0000
0001
0000
0000
0100
0000
0000
0000
0000
0000
1000
0000
0010
0000
1000
0000
0100
0000
0000
0000
0000
0000
,
1010
0000
0001
0000
0001
0000
0000
0000
0011
0000
0000
0100
0000
0000
1100
0000
,
0010
0000
1000
0000
1000
0000
0000
0000
0101
0000
0000
0100
0000
0000
0001
0000
,
1000
0000
0001
0000
0001
0000
0000
0000
1100
0000
0000
0001
0000
0000
0100
0000
,
0010
0001
0100
0000
0101
0000
1001
0000
;

//---------------dance-single - ----------------
#NOTES:
     dance-single:
     :
     Challenge:
     12:
     :
0000
0000
0000
0000
,
0000
0000
0000
0000
,
0000
0000
0000
0000
,
0010
0000
0001
0000
1000
0000
0100
0000
0000
0010
0001
0000
0001
0000
0000
0000
,
1000
0000
0010
0000
0100
0000
0001
0000
0000
1000
0100
0000
0100
0000
0000
0000
,
0010
0000
0001
0000
1000
0100
1000
0000
0001
0000
0100
0000
1000
0000
0100
0000
,
0010
0000
1000
0000
0001
0010
0001
0000
0100
0000
0001
0000
1000
0000
0100
0000
,
0000
0000
0010
0000
0001
0000
1000
0000
0010
0100
0010
0000
1000
0000
0000
0000
,
0100
0010
0110
0000
1000
0001
1001
0000
,
0000
0000
0001
0000
0010
0000
1000
0000
0010
0001
0010
0000
0100
0000
0000
0000
,
1000
0000
0100
0000
0001
0000
0100
0000
0000
0100
0010
0000
1001
0000
0000
0000
,
0010
0001
0011
0000
1000
0100
1100
0000
,
1000
0000
0010
0000
0100
0000
0001
0000
0000
0010
0100
0000
0100
0000
0000
0000
,
1000
0010
1010
0000
0100
0001
0101
0000
,
0001
0000
0000
0010
0000
0000
1000
0000
0000
0010
0000
0000
0001
0000
0100
0000
0001
0000
0100
0000
0000
0000
0000
0000
,
0000
0000
0010
0000
0010
0001
0000
0001
0010
0000
0010
0100
0000
0100
1000
0000
,
0000
0000
1000
0000
1000
0010
0000
0010
0001
0000
0001
0010
0000
0010
0100
0000
,
0000
0000
0010
0000
0010
1000
0000
1000
0001
0000
0001
0100
0000
0100
0010
0000
,
0000
0000
1000
0000
1000
0100
0000
0100
0010
0000
0010
0001
0000
0001
0100
0000
,
0000
0000
0001
0000
0001
0010
0000
0010
0001
0000
0001
1000
0000
1000
0100
0000
,
0000
0000
0001
0000
0001
0100
0000
0100
1000
0000
1000
0001
0000
0001
0010
0000
,
0000
0000
0100
0000
0100
0010
0000
0010
0001
0000
0001
1000
0000
1000
0001
0000
,
0000
0000
0100
0000
0100
0001
0000
0001
1000
0000
1000
0010
0000
0010
0001
0000
,
0000
0000
0100
0000
0010
0000
0100
0000
1000
0100
0001
0000
0001
0000
0000
0000
,
0010
0000
0001
0000
0100
0000
1000
0000
0100
0001
0010
0000
0010
0000
0000
0000
,
0010
0000
0001
0000
1000
0000
0100
0000
0001
0100
1000
0000
1000
0000
0000
0000
,
0001
0000
0010
0000
1000
0000
0010
0000
0001
1000
0100
0000
0100
0000
0000
0000
,
0100
0010
0110
0000
1000
0001
1001
0000
,
0001
0000
0000
0010
0000
0000
1000
0000
0000
0010
0000
0000
0001
0000
0100
0000
0001
0000
0100
0000
0000
0000
0000
0000
,
0000
0000
0020
0000
0000
0032
0000
0000
0023
0000
0000
0230
0000
0000
1300
0000
,
0000
0000
2000
0000
0000
3020
0000
0000
0032
0000
0000
0023
0000
0000
0130
0000
,
0000
0000
0020
0000
0000
2030
0000
0000
3002
0000
0000
0203
0000
0000
0310
0000
,
0000
0000
2000
0000
0000
3200
0000
0000
0320
0000
0000
0032
0000
0000
0103
0000
,
0000
0000
1000
0000
1000
0001
0000
0001
0100
0000
0100
0010
0000
0010
0001
0000
,
0000
0000
0100
0000
0100
0010
0000
0010
1000
0000
1000
0100
0000
0100
0001
0000
,
0000
0001
0100
1000
0010
1000
0100
0001
,
0000
0000
0000
0000
0000
0000
0000
0000
0010
1000
0000
1000
0010
0000
0000
0000
,
0000
0000
0001
0000
0001
0010
0000
0010
0100
0000
0100
1000
0000
1000
0010
0000
,
0000
0000
1000
0000
1000
0100
0000
0100
0001
0000
0001
0100
0000
0100
0010
0000
,
0001
1000
0100
0001
0100
1000
0010
0000
,
0001
0000
0000
0000
0100
0000
0000
0000
1000
0000
0000
0000
0100
0000
0000
0000
0001
0000
0000
0000
0100
0000
0000
0000
0010
0000
0000
1000
0000
0000
0000
0000
0000
1000
0000
0000
0010
0000
0000
0000
0000
0000
0000
0000
0000
0000
0000
0000
;

//---------------dance-double - ----------------
#NOTES:
     dance-double:
     :
     Easy:
     7:
     :
00000000
00000000
00000000
00000000
,
00000000
00000000
00000000
00000000
,
00000000
00000000
00000000
00000000
,
00011000
00100000
10000000
01000000
,
00011000
00000010
00000001
00000100
,
00001010
00001000
00010000
01000000
,
00110000
00010000
00001000
00000100
,
00000001
00000010
00001000
00010000
,
00100000
00010000
00001000
00000010
,
00000001
00000100
00010000
10000000
,
00010000
00000000
00001000
00000000
00010000
00001000
00000100
00000000
,
00001000
00000001
00000100
00000001
,
00000010
00000000
00010000
00000000
00100000
00010000
00001000
00000000
,
00100000
01000000
00001000
00000001
,
00000010
00001000
00000001
00000001
,
00000010
00000010
00000001
00010000
,
00100000
00000000
00100000
00000000
00100000
00010000
00001000
00000000
,
00000101
00000000
00000010
00000000
00010000
00001000
00000010
00000000
,
00000001
00000000
00000100
00000000
00001000
00010000
00100000
00000000
,
10000000
00000000
00100000
00000000
00010000
00001000
00000010
00000000
,
00000001
00000000
00001000
00000000
00010000
01000000
10000000
00000000
,
01000000
00000000
00010000
00000000
00100000
00010000
00001000
00000000
,
00100000
00000000
01000000
00000000
00010000
01000000
10000000
00000000
,
10000000
00010000
00001000
00000001
,
00000001
00001000
00010000
10000000
,
10010000
00000000
00000001
00000100
,
00001001
00000000
10000000
01000000
,
00010000
00010000
01000000
01000000
,
00011000
00011000
00000100
00000100
,
00000001
00000100
00001000
00010000
,
00100000
00010000
10000000
01000000
,
10010000
00000000
00000000
00000000
00001000
00000100
00000001
00000000
,
00001001
00000000
00000000
00000000
00010000
01000000
10000000
00000000
,
00100000
00000000
00010000
00000000
00100000
00010000
00001000
00000000
,
00000010
00000000
00010000
00000000
00100000
00010000
00001000
00000000
,
00000101
00000000
00000000
00000000
00000100
00001000
00010000
00000000
,
00100000
00000000
10000000
00000000
01000000
00010000
00001000
00000000
,
00000010
00000010
00000001
00000001
,
00000100
00001000
01000000
00100000
,
00010000
00000000
10000000
00000000
01000000
00010000
00001000
00000000
,
00000001
00000100
00001000
00010000
;

//---------------dance-double - ----------------
#NOTES:
     dance-double:
     :
     Medium:
     9:
     :
00000000
00000000
00000000
00000000
,
00000000
00000000
00000000
00000000
,
00000000
00000000
00000000
00000000
,
00010000
00000100
00000000
00000100
00000000
00000100
00000000
00000100
,
00001000
00100000
00000000
00100000
00000000
00100000
00000000
00100000
,
00010000
00000010
00000000
00001000
00000000
00000010
00000000
00001000
,
00010000
00100000
00000000
00100000
00000000
00001000
00001000
00000000
,
00010000
00001000
00000000
00000100
00001000
00010000
00000000
01000000
,
00010000
00001000
00000000
00000100
00001000
00010000
00000000
01000000
,
00000000
00001000
00000000
00000001
00000000
00000100
00000000
00010000
,
00000000
10000000
00000000
01000000
00000000
00010000
00010000
00000000
,
00000000
00001000
00000000
00010000
00000000
00000100
00000000
00000001
,
00000000
00001000
00000000
00000100
00000000
00010000
00000000
00100000
,
00000000
10000000
00000000
01000000
00000000
00010000
00000000
00001000
,
00000000
00000000
00000000
00000010
00000000
00000000
00000000
00000000
00000000
00001000
00000000
00000000
00000001
00000000
00000100
00000000
00000001
00000000
00000100
00000000
00000000
00000000
00000000
00000000
,
00001000
00000000
00000100
00000000
00000100
00000000
00000000
00000000
00000100
00000000
00000000
00000100
00000000
00000000
00000100
00000000
,
00000000
00000000
00001000
00000000
00001000
00000000
00000000
00000000
00010000
00000000
00000000
00010000
00000000
00000000
00010000
00000000
,
00000000
00000000
01000000
00000000
01000000
00000000
00000000
00000000
00100000
00000000
00000000
10000000
00000000
00000000
01000000
00000000
,
00000000
00000000
00010000
00000000
00001000
00000000
00000000
00000000
00000010
00000000
00000000
00000001
00000000
00000000
00000100
00000000
,
00000000
00000000
00000001
00000000
00000001
00000000
00000000
00000000
00000010
00000000
00000000
00000100
00000000
00000000
00001000
00000000
,
00000000
00000000
00001000
00000000
00001000
00000000
00000000
00000000
00010000
00000000
00000000
01000000
00000000
00000000
00010000
00000000
,
00000000
00000000
00100000
00000000
00100000
00000000
00000000
00000000
00001000
00000000
00000000
00010000
00000000
00000000
00000100
00000000
,
00000000
00000000
00000100
00000000
00000100
00000000
00000000
00000000
00001000
00000000
00000000
00010000
00000000
00000000
01000000
00000000
,
00000000
00100000
00000000
10000000
00000000
01000000
00000000
00010000
,
00000000
00001000
00000000
00000010
00000000
00000001
00000000
00000100
,
00000000
00001000
00000000
01000000
00000000
10000000
00000000
01000000
,
00000000
01010000
00000000
00110000
00000000
00001000
00001000
00000000
,
00000000
00000010
00000000
00000100
00000000
00010000
00000000
00100000
,
00000000
00000000
00000000
10000000
00000000
00000000
00000000
00000000
00000000
00010000
00000000
00000000
10000000
00000000
01000000
00000000
10000000
00000000
01000000
00000000
00000000
00000000
00000000
00000000
,
00000000
00000000
00010000
00000000
00010000
00000000
00000000
00000000
01000000
00000000
00000000
01000000
00000000
00000000
01000000
00000000
,
00000000
00000000
00001000
00000000
00001000
00000000
00000000
00000000
00000010
00000000
00000000
00000010
00000000
00000000
00000010
00000000
,
00000000
00000000
00000001
00000000
00000001
00000000
00000000
00000000
00000100
00000000
00000000
00001000
00000000
00000000
00011000
00000000
,
00000000
00000000
01000000
00000000
01000000
00000000
00000000
00000000
00010000
00000000
00000000
00100000
00000000
00000000
11000000
00000000
,
00000000
00000000
00100000
00000000
00010000
00000000
00000000
00000000
00001000
00000000
00000000
00000010
00000000
00000000
00000101
00000000
,
00000000
00000000
00000010
00000000
00001000
00000000
00000000
00000000
00010000
00000000
00000000
00100000
00000000
00000000
11000000
00000000
,
00000000
00010000
00000000
00001000
00000000
00000100
00000000
00000001
,
00000000
00000000
00000000
00000010
00000000
00000000
00000000
00000000
00000000
00000000
00000000
00000000
00000001
00000000
00000100
00000000
00000001
00000000
00000100
00000000
00000000
00000000
00000000
00000000
,
00000000
00000000
00000001
00000000
00000001
00000000
00000000
00000000
00001000
00000000
00000000
00000100
00000000
00000000
00000001
00000000
,
00000000
00000000
00010000
00000000
00010000
00000000
00000000
00000000
00001000
00000000
00000000
01000000
00000000
00000000
01000000
00000000
,
00000000
00000000
10000000
00000000
01000000
00000000
00000000
00000000
00010000
00000000
00000000
00001000
00000000
00000000
00001000
00000000
,
00000000
00000010
00001000
00000000
00010000
00000000
00000101
00000000
;

//---------------dance-double - ----------------
#NOTES:
     dance-double:
     :
     Hard:
     10:
     :
00000000
00000000
00000000
00000000
,
00000000
00000000
00000000
00000000
,
00000000
00000000
00000000
00000000
,
00010000
00000010
00001000
00000100
00000000
00000010
00000000
00000010
,
00000001
00000100
00000010
00001000
00000000
00000100
00000100
00000000
,
00010000
00001000
00100000
00010000
00000000
10000000
00000000
10000000
,
01000000
00100000
00010000
01000000
00000000
00001000
00001000
00000000
,
00010000
00000100
00001000
00000010
00000000
00000100
00000000
00000100
,
00000001
00000010
00000100
00001000
00000000
00000010
00000010
00000000
,
00010000
00001000
01000000
00010000
00000000
10000000
00000000
10000000
,
00100000
01000000
00010000
00100000
00000000
00000000
00011000
00000000
,
00000010
00000010
00000000
00001000
00000000
00000100
00000010
00000001
,
00001000
00001000
00000000
00000100
00000000
00010000
00001000
00100000
,
00010000
10000000
00000000
01000000
00000000
00100000
00010000
01000000
,
00001000
00000000
00000000
00010000
00000000
00000000
00000000
00000000
00000000
00000100
00000000
00000000
00001000
00000000
00000010
00000000
00001000
00000000
00000010
00000000
00000000
00000000
00000000
00000000
,
00000000
00000000
00000100
00000000
00000000
00000001
00000000
00000000
00001000
00000000
00000000
00000100
00000000
00000000
00010000
00000000
,
00000000
00000000
00001000
00000000
00000000
00100000
00000000
00000000
00010000
00000000
00000000
10000000
00000000
00000000
01000000
00000000
,
00000000
00000000
00100000
00000000
00000000
00001000
00000000
00000000
00010000
00000000
00000000
00000100
00000000
00000000
00000010
00000000
,
00000000
00000000
00000001
00000000
00000000
00000100
00000000
00000000
00000010
00000000
00000000
00001000
00000000
00000000
00000100
00000000
,
00010000
00000000
00001000
00000000
00000000
00100000
00000000
00000000
00010000
00000000
00000000
10000000
00000000
00000000
01000000
00000000
,
00100000
00000000
00010000
00000000
00000000
01000000
00000000
00000000
00001000
00000000
00000000
00010000
00000000
00000000
00000010
00000000
,
00001000
00000000
00000100
00000000
00000000
00000010
00000000
00000000
00000001
00000000
00000000
00000100
00000000
00000000
00000010
00000000
,
00001000
00000000
00000100
00000000
00000000
00010000
00000000
00000000
00001000
00000000
00000000
00100000
00000000
00000000
00010000
00000000
,
10000000
01000000
10000000
00000000
00010000
01000000
00010000
00000000
,
00100000
00001000
00100000
00000000
00000010
00010000
00000010
00000000
,
00001000
00000100
00001000
00000000
00000001
00000100
00000001
00000000
,
00001000
00000010
00001000
00000000
00000100
00010000
00000100
00000000
,
01000000
00001000
01000000
00000000
00010000
00100000
00010000
00000000
,
10000000
00000000
00000000
00100000
00000000
00000000
10000000
00000000
00000000
00000000
00000000
00000000
00010000
00000000
00100000
00000000
00010000
00000000
00100000
00000000
00000000
00000000
00000000
00000000
,
00001000
00001000
00001000
00010000
00000000
00000100
00000010
00000001
,
00000100
00000100
00000100
00000010
00000000
00001000
00000100
00010000
,
00001000
00001000
00001000
00100000
00000000
00010000
01000000
00100000
,
10000000
10000000
10000000
01000000
00000000
00100000
00010000
01000000
,
00000000
00000000
00001000
00000000
00000000
00010000
00000000
00000000
00000100
00000000
00000000
00000010
00000000
00000000
00000001
00000000
,
00000000
00000000
00000100
00000000
00000000
00000010
00000000
00000000
00001000
00000000
00000000
00000100
00000000
00000000
00010000
00000000
,
00001000
01000000
00010000
00000000
10000000
01000000
00100000
00000000
,
10010000
00000000
00000000
00011000
00000000
00000000
00000010
00001000
00000010
00001000
00000000
00000000
,
00000000
00000000
00000100
00000000
00000000
00000010
00000000
00000000
00000001
00000000
00000000
00000100
00000000
00000000
00000010
00000000
,
00000000
00000000
00001000
00000000
00000000
00000100
00000000
00000000
00010000
00000000
00000000
00001000
00000000
00000000
00100000
00000000
,
00010000
01000000
00100000
00000000
10000000
10000000
10000000
00000000
,
00010000
01000000
00001000
01000000
00010000
01000000
00001000
01000000
00010000
01000000
00000000
00000000
;

//---------------dance-double - ----------------
#NOTES:
     dance-double:
     :
     Challenge:
     12:
     :
00000000
00000000
00000000
00000000
,
00000000
00000000
00000000
00000000
,
00000000
00000000
00000000
00000000
,
00010000
00000000
00000010
00000000
00001000
00000000
00000100
00000000
00000000
00000010
00000001
00000000
00000001
00000000
00000000
00000000
,
00000001
00000000
00000100
00000000
00000010
00000000
00010000
00000000
00000000
00001000
01000000
00000000
01000000
00000000
00000000
00000000
,
01000000
00000000
00010000
00000000
10000000
00100000
10000000
00000000
00010000
00000000
01000000
00000000
00001000
00000000
00010000
00000000
,
00000001
00000000
00000010
00000000
00001000
00010000
00001000
00000000
00000010
00000000
00000001
00000000
00001000
00000000
00000100
00000000
,
00000000
00000000
00000100
00000000
00010000
00000000
00001000
00000000
01000000
00010000
01000000
00000000
00100000
00000000
00000000
00000000
,
10000000
01000000
11000000
00000000
00010000
00001000
00011000
00000000
,
00000000
00000000
00000001
00000000
00000010
00000000
00001000
00000000
00010000
00001000
00010000
00000000
01000000
00000000
00000000
00000000
,
10000000
00000000
01000000
00000000
00010000
00000000
00001000
00000000
00000000
00000010
00000100
00000000
00001001
00000000
00000000
00000000
,
00000010
00010000
00010010
00000000
00001000
01000000
01001000
00000000
,
10000000
00000000
00100000
00000000
01000000
00000000
00010000
00000000
00000000
00100000
01000000
00000000
01000000
00000000
00000000
00000000
,
00001000
00100000
00101000
00000000
00010000
00000100
00010100
00000000
,
00000001
00000000
00000000
00000010
00000000
00000000
00001000
00000000
00000000
00000010
00000000
00000000
00000001
00000000
00000100
00000000
00000001
00000000
00000100
00000000
00000000
00000000
00000000
00000000
,
00000000
00000000
00000100
00000000
00000100
00000001
00000000
00000001
00001000
00000000
00001000
00000100
00000000
00000100
00010000
00000000
,
00000000
00000000
00001000
00000000
00001000
00100000
00000000
00100000
00010000
00000000
00010000
10000000
00000000
10000000
01000000
00000000
,
00000000
00000000
00100000
00000000
00100000
00001000
00000000
00001000
00010000
00000000
00010000
00000100
00000000
00000100
00000010
00000000
,
00000000
00000000
00000001
00000000
00000001
00000100
00000000
00000100
00000010
00000000
00000010
00001000
00000000
00001000
00000100
00000000
,
00020000
00000000
00031000
00000000
00001000
00100000
00000000
00100000
00010000
00000000
00010000
10000000
00000000
10000000
01000000
00000000
,
00200000
00000000
00310000
00000000
00010000
01000000
00000000
01000000
00001000
00000000
00001000
00010000
00000000
00010000
00000010
00000000
,
00002000
00000000
00003100
00000000
00000100
00000010
00000000
00000010
00000001
00000000
00000001
00000100
00000000
00000100
00000010
00000000
,
00002000
00000000
00003100
00000000
00000100
00010000
00000000
00010000
00001000
00000000
00001000
00100000
00000000
00100000
00010000
00000000
,
01000000
00000000
00001000
00000000
00000100
00000000
00000001
00000000
00001000
00000010
00000001
00000000
00000001
00000000
00000000
00000000
,
00000010
00000000
00010000
00000000
00001000
00000000
00100000
00000000
00010000
10000000
01000000
00000000
01000000
00000000
00000000
00000000
,
00100000
00000000
00010000
00000000
01000000
00000000
00100000
00000000
10000000
01000000
00010000
00000000
00001000
00000000
00010000
00000000
,
00000100
00000000
00000010
00000000
00000100
00000000
00001000
00000000
00000001
00001000
00000100
00000000
00010000
00000000
00001000
00000000
,
01000000
00100000
01100000
00000000
00001000
00010000
00011000
00000000
,
00000001
00000000
00000000
00000100
00000000
00000000
00001000
00000000
00000000
00010000
00000000
00000000
00001000
00000000
00000100
00000000
00001000
00000000
00000100
00000000
00000000
00000000
00000000
00000000
,
00000000
00000000
00000200
00000000
00000000
00000302
00000000
00000000
00002003
00000000
00000000
00003200
00000000
00000000
00020300
00000000
,
00000000
00000000
00032000
00000000
00000000
00203000
00000000
00000000
00320000
00000000
00000000
20030000
00000000
00000000
31000000
00000000
,
00000000
00000000
00200000
00000000
00000000
00302000
00000000
00000000
00023000
00000000
00000000
00030200
00000000
00000000
00000320
00000000
,
00000000
00000000
00000032
00000000
00000000
00002003
00000000
00000000
00003020
00000000
00000000
00000230
00000000
00000000
00001300
00000000
,
00000000
00000000
00001000
00000000
00001000
00010000
00000000
00010000
00000100
00000000
00000100
00000010
00000000
00000010
00000001
00000000
,
00000000
00000000
00000100
00000000
00000100
00000010
00000000
00000010
00001000
00000000
00001000
00000100
00000000
00000100
00010000
00000000
,
00000100
00000000
00010000
00000000
01000000
00000000
10000000
01000000
10000000
00000000
00010000
00000000
00100000
00000000
00001000
00000000
,
00000000
00000000
00000000
00000000
00000000
00000000
00000000
00000000
00010000
00000100
00000000
00000100
00010000
00000000
00000000
00000000
,
00000000
00000000
00000100
00000000
00000100
00000010
00000000
00000010
00000001
00000000
00000001
00000100
00000000
00000100
00000010
00000000
,
00000000
00000000
00001000
00000000
00001000
00000100
00000000
00000100
00010000
00000000
00010000
00001000
00000000
00001000
00100000
00000000
,
00010000
10000000
01000000
00010000
01000000
10000000
00100000
00000000
,
10000000
00000000
00000000
00000000
01000000
00000000
00000000
00000000
10000000
00000000
00000000
00000000
00010000
00000000
00000000
00000000
00100000
00000000
00000000
00000000
00010000
00000000
00000000
00000000
00100000
00000000
00000000
00001000
00000000
00000000
00000000
00000000
00000000
01000000
00000000
00000000
00010000
00000000
00000000
00000000
00000000
00000000
00000000
00000000
00000000
00000000
00000000
00000000
;

//---------------dance-couple - ----------------
#NOTES:
     dance-couple:
     :
     Easy:
     5:
     :
00000000
00000000
00000000
00000000
,
00000000
00000000
00000000
00000000
,
00000000
00000000
00000000
00000000
,
10010000
00100000
00010000
11000000
,
00001001
00000010
00001000
00000101
,
00011000
00011000
00100010
00011000
,
00011000
00011000
10000001
01000100
,
10000001
10000001
00100010
10000001
,
00011000
00011000
00100010
00011000
,
00100010
10000001
00011000
01000100
,
00010000
00000000
00001000
00000000
10000001
01000100
00011000
00000000
,
10000001
01000100
00011000
01000100
,
00100010
00000000
10000001
00000000
00011000
01000100
10000001
00000000
,
00011000
10000001
01000100
00011000
,
10000001
00000000
00000000
00000000
00000000
00000000
00000000
00000000
00000000
00000000
00000000
00000000
00000000
00000000
00000000
00000000
00011000
00000000
00000000
00000000
00000000
00000000
00000000
00000000
00000000
00000000
00000000
00000000
00000000
00000000
00000000
00000000
10000001
00000000
00000000
00000000
00000000
01000100
00000000
00000000
00000000
00000000
00000000
10000001
00000000
00000000
00000000
00000000
01000100
00000000
00000000
00000000
00000000
00000000
00000000
00000000
00000000
00000000
00000000
00000000
00000000
00000000
00000000
00000000
,
00010000
00010000
00001000
00001000
,
00100100
00000000
00100100
00000000
00100100
00100100
00100100
00000000
,
10100011
00000000
10000001
00000000
10000001
01000100
00011000
00000000
,
10000001
00000000
01000100
00000000
00100010
10000001
01000100
00000000
,
10000001
00000000
00100010
00000000
00100010
10000001
01000100
00000000
,
10000001
00000000
00100010
00000000
00100010
10000001
01000100
00000000
,
00011000
00000000
01000100
00000000
00100010
00011000
01000100
00000000
,
00011000
00000000
00100010
00000000
00100010
00011000
01000100
00000000
,
00011000
00000000
10000001
00000000
00011000
00011000
00011000
00000000
,
10000001
00000000
00011000
00000000
10000001
10000001
10000001
00000000
,
01100110
00000000
10011001
00000000
01100110
10000001
01000100
00000000
,
00011000
00000000
10000001
00000000
01100110
00011000
01000100
00000000
,
00100010
10000001
00011000
00100010
,
00100010
00000000
00000000
00000000
00000000
00000000
00000000
00000000
00000000
00000000
00000000
00000000
00000000
00000000
00000000
00000000
01000100
00000000
00000000
00000000
00000000
00000000
00000000
00000000
00000000
00000000
00000000
00000000
00000000
00000000
00000000
00000000
00011000
00000000
00000000
00000000
00000000
01000100
00000000
00000000
00000000
00000000
00000000
00011000
00000000
00000000
00000000
00000000
01000100
00000000
00000000
00000000
00000000
00000000
00000000
00000000
00000000
00000000
00000000
00000000
00000000
00000000
00000000
00000000
,
10000001
00011000
10000001
10000001
,
00011000
10000001
00011000
00011000
,
10011001
00000000
00000000
00000000
00011000
01000100
10000001
00000000
,
10011001
00000000
00000000
00000000
10000001
01000100
00011000
00000000
,
10011001
00000000
00011000
00000000
00100010
10000001
01000100
00000000
,
00011000
00000000
10000001
00000000
00100010
00011000
01000100
00000000
,
00100010
00000000
00000000
00000000
01100110
00100010
10000001
00000000
,
10000001
00000000
00011000
00000000
01000100
10000001
00100010
00000000
,
00100010
00100010
01000100
01000100
,
00100010
10100011
01000100
01011100
,
00011000
00000000
00011000
00000000
00011000
10000001
10000001
00000000
,
00100010
00000000
00000000
00000000
00000000
00000000
00000000
00000000
00000000
00000000
00000000
00000000
00000000
00000000
00000000
00000000
10000001
00000000
00000000
00000000
00000000
00000000
00000000
00000000
00000000
00000000
00000000
00000000
00000000
00000000
00000000
00000000
00011000
00000000
00000000
00000000
00000000
01000100
00000000
00000000
00000000
00000000
00000000
00011000
00000000
00000000
00000000
00000000
01000100
00000000
00000000
00000000
00000000
00000000
00000000
00000000
00000000
00000000
00000000
00000000
00000000
00000000
00000000
00000000
;

//---------------dance-couple - ----------------
#NOTES:
     dance-couple:
     :
     Medium:
     7:
     :
00000000
00000000
00000000
00000000
,
00000000
00000000
00000000
00000000
,
00000000
00000000
00000000
00000000
,
10000001
00011000
00000000
00011000
00000000
00011000
00000000
00011000
,
10000001
00011000
00000000
00011000
00000000
00011000
00000000
00011000
,
00100010
00011000
00000000
10000001
00000000
00011000
00000000
10000001
,
00100010
00011000
00000000
00011000
00000000
10000001
10000001
00000000
,
01000000
00010000
00000000
00010000
00000100
00001000
00000000
00001000
,
01000000
10000000
00000000
10000000
00000100
00000001
00000000
00000001
,
00000000
00011000
00000000
10000001
00000000
01000100
00000000
00100010
,
00000000
00011000
00000000
10000001
00000000
00100010
00100010
00000000
,
00000000
01000100
00000000
00011000
00000000
00100010
00000000
11000101
,
00000000
00011000
00000000
10000001
00000000
00011000
00000000
01011100
,
00000000
00011000
00000000
00100010
00000000
01000100
00000000
00100010
,
00000000
00000000
00000000
00000000
00000000
00000000
00000000
00000000
10000001
00000000
00000000
00000000
00000000
00000000
00000000
00000000
00000000
00000000
00000000
00000000
00000000
00000000
00000000
00000000
00011000
00000000
00000000
00000000
00000000
00000000
00000000
00000000
10000001
00000000
00000000
00000000
00000000
00100010
00000000
00000000
00000000
00000000
00000000
10000001
00000000
00000000
00000000
00000000
01000100
00000000
00000000
00000000
00000000
00000000
00000000
00000000
00000000
00000000
00000000
00000000
00000000
00000000
00000000
00000000
,
10000001
00000000
01000100
00000000
01000100
00000000
00000000
00000000
01000100
00000000
00000000
01000100
00000000
00000000
01000100
00000000
,
00000000
00000000
00010000
00000000
00010000
00000000
00000000
00000000
00000010
00000000
00000000
00000010
00000000
00000000
00000010
00000000
,
00000000
00000000
00000001
00000000
00000001
00000000
00000000
00000000
01000000
00000000
00000000
01000000
00000000
00000000
01000000
00000000
,
00000000
00000000
00010000
00000000
00010000
00000000
00000000
00000000
00000100
00000000
00000000
00000100
00000000
00000000
00000100
00000000
,
00000000
00000000
00000010
00000000
00000010
00000000
00000000
00000000
10000001
00000000
00000000
10000001
00000000
00000000
10011001
00000000
,
00000000
00000000
00011000
00000000
10000001
00000000
00000000
00000000
00100010
00000000
00000000
01000100
00000000
00000000
01000100
00000000
,
00000000
00000000
00100010
00000000
01000100
00000000
00000000
00000000
00011000
00000000
00000000
10000001
00000000
00000000
00000000
00011000
,
00000000
00000000
01000100
00000000
01000100
00000000
00000000
00000000
00100010
00000000
00000000
00100010
00000000
00000000
00100010
00000000
,
00000000
00100010
00000000
10000001
00000000
01000100
00000000
00011000
,
00000000
00100010
00000000
10000001
00000000
01000100
00000000
01011100
,
00000000
01000100
00000000
10000001
00000000
00100010
00000000
00011000
,
00000000
11000101
00000000
10011001
00000000
01000100
01000100
00000000
,
00000000
10000001
00000000
00011000
00000000
00100010
00000000
01000100
,
00000000
00000000
00000000
00000000
00000000
00000000
00000000
00000000
00100010
00000000
00000000
00000000
00000000
00000000
00000000
00000000
00000000
00000000
00000000
00000000
00000000
00000000
00000000
00000000
00100010
00000000
00000000
00000000
00000000
00000000
00000000
00000000
10000001
00000000
00000000
00000000
00000000
00100010
00000000
00000000
00000000
00000000
00000000
10000001
00000000
00000000
00000000
00000000
01000100
00000000
00000000
00000000
00000000
00000000
00000000
00000000
00000000
00000000
00000000
00000000
00000000
00000000
00000000
00000000
,
00000000
00000000
01000100
00000000
01000100
00000000
00000000
00000000
01000100
00000000
00000000
01000100
00000000
00000000
01000100
00000000
,
00000000
00000000
00011000
00000000
00011000
00000000
00000000
00000000
10000001
00000000
00000000
00011000
00000000
00000000
10000001
00000000
,
00000000
00000000
10000001
00000000
10000001
00000000
00000000
00000000
00100010
00000000
00000000
00011000
00000000
00000000
01011100
00000000
,
00000000
00000000
00011000
00000000
00011000
00000000
00000000
00000000
00100010
00000000
00000000
01000100
00000000
00000000
11000101
00000000
,
00000000
00000000
00100010
00000000
00100010
00000000
00000000
00000000
10000001
00000000
00000000
00011000
00000000
00000000
10011001
00000000
,
00000000
00000000
01000100
00000000
01000100
00000000
00000000
00000000
00100010
00000000
00000000
01000100
00000000
00000000
10011001
00000000
,
00000000
01000100
00000000
01000100
00000000
10000001
00000000
10000001
,
00000000
00000000
00000000
00000000
00000000
00000000
00000000
00000000
00011000
00000000
00000000
00000000
00000000
00000000
00000000
00000000
00000000
00000000
00000000
00000000
00000000
00000000
00000000
00000000
00000000
00000000
00000000
00000000
00000000
00000000
00000000
00000000
10000001
00000000
00000000
00000000
00000000
00100010
00000000
00000000
00000000
00000000
00000000
10000001
00000000
00000000
00000000
00000000
01000100
00000000
00000000
00000000
00000000
00000000
00000000
00000000
00000000
00000000
00000000
00000000
00000000
00000000
00000000
00000000
,
00000000
00000000
00011000
00000000
00011000
00000000
00000000
00000000
00100010
00000000
00000000
01000100
00000000
00000000
10000001
00000000
,
00000000
00000000
10000001
00000000
10000001
00000000
00000000
00000000
00011000
00000000
00000000
01000100
00000000
00000000
00011000
00000000
,
00000000
00000000
00011000
00000000
00011000
00000000
00000000
00000000
00011000
00000000
00000000
01000100
00000000
00000000
01000100
00000000
,
00000000
00011000
00011000
00000000
01011100
00000000
10011001
00000000
;

//---------------dance-couple - ----------------
#NOTES:
     dance-couple:
     :
     Hard:
     8:
     :
00000000
00000000
00000000
00000000
,
00000000
00000000
00000000
00000000
,
00000000
00000000
00000000
00000000
,
00000000
01000100
10000001
01000100
00011000
01000100
00011000
01000100
,
10000001
00011000
10000001
00011000
10000001
01000100
10000001
01000100
,
00100010
00011000
10000001
01000100
00100010
00011000
00100010
10000001
,
00100010
00011000
01000100
00011000
00100010
10000001
00011000
00100010
,
01000100
00011000
10000001
00011000
01000100
10000001
00100010
10000001
,
01000100
00011000
00100010
00011000
01000100
10000001
00100010
10000001
,
01000100
00011000
00100010
10000001
00011000
01000100
10000001
00100010
,
01000100
00011000
10000001
10000001
01000100
00100010
10011001
00000000
,
00011000
01000100
10000001
00011000
10000001
00100010
01000100
10000001
,
00100010
00011000
00011000
10000001
10000001
00011000
00100010
01000100
,
01000100
00011000
00100010
00100010
10000001
01000100
10000001
00100010
,
00011000
00000000
00000000
00000000
00000000
00000000
00000000
00000000
10000001
00000000
00000000
00000000
00000000
00000000
00000000
00000000
01000100
00000000
00000000
00000000
00000000
00000000
00000000
00000000
00011000
00000000
00000000
00000000
00000000
00000000
00000000
00000000
10000001
00000000
00000000
00000000
00000000
00100010
00000000
00000000
00000000
00000000
00000000
10000001
00000000
00000000
00000000
00000000
01000100
00000000
00000000
00000000
00000000
00000000
00000000
00000000
00000000
00000000
00000000
00000000
00000000
00000000
00000000
00000000
,
10000001
00000000
01000100
00000000
01000100
00000000
00000000
00000000
10011001
00000000
00000000
01000100
00000000
00000000
01000100
00000000
,
00000000
00000000
10011001
00000000
00011000
00000000
00000000
00000000
00100010
00000000
00000000
10000001
00000000
00000000
01000100
00000000
,
00000000
00000000
11000101
00000000
00011000
00000000
00000000
00000000
10000001
00000000
00000000
00011000
00000000
00000000
01011100
00000000
,
00000000
00000000
11000101
00000000
01000100
00000000
00000000
00000000
00011000
00000000
00000000
01100110
00000000
00000000
00011000
00000000
,
00000000
00000000
00100010
00000000
11000101
00000000
00000000
00000000
10011001
00000000
00000000
01000100
00000000
00000000
00011000
00000000
,
00000000
00000000
00011000
00000000
10000001
00000000
00000000
00000000
01100110
00000000
00000000
01000100
00000000
00000000
11000101
00000000
,
00000000
00000000
01100110
00000000
01100110
00000000
00000000
00000000
10011001
00000000
00000000
10000001
00000000
00000000
01011100
00000000
,
00000000
00000000
01000100
00000000
11000101
00000000
00000000
00000000
00100010
00000000
00000000
00011000
00000000
00000000
01011100
00000000
,
10000001
00100010
01000100
10000001
00011000
01000100
01000100
00011000
,
01000100
00100010
01000100
10000001
00011000
01000100
10000001
00011000
,
00100010
01000100
00011000
10000001
10000001
00100010
01000100
00011000
,
01000100
11000101
00011000
10011001
10000001
01000100
01000100
00000000
,
00100010
10000001
10000001
00011000
01000100
00100010
00011000
01000100
,
10000001
00000000
00000000
00000000
00000000
00000000
00000000
00000000
00100010
00000000
00000000
00000000
00000000
00000000
00000000
00000000
00011000
00000000
00000000
00000000
00000000
00000000
00000000
00000000
00100010
00000000
00000000
00000000
00000000
00000000
00000000
00000000
10000001
00000000
00000000
00000000
00000000
00100010
00000000
00000000
00000000
00000000
00000000
10000001
00000000
00000000
00000000
00000000
01000100
00000000
00000000
00000000
00000000
00000000
00000000
00000000
00000000
00000000
00000000
00000000
00000000
00000000
00000000
00000000
,
10011001
00000000
01000100
00000000
01000100
00000000
00000000
00000000
10000001
00000000
00000000
00011000
00000000
00000000
01000100
00000000
,
10000001
00000000
00011000
00000000
00011000
00000000
00000000
00000000
10000001
00000000
00000000
00100010
00000000
00000000
01011100
00000000
,
00011000
00000000
10000001
00000000
10000001
00000000
00000000
00000000
00100010
00000000
00000000
00011000
00000000
00000000
01011100
00000000
,
10000001
00000000
00011000
00000000
01000100
00000000
00000000
00000000
00100010
00000000
00000000
01000100
00000000
00000000
11000101
00000000
,
00100010
00000000
00011000
00000000
01000100
00000000
00000000
00000000
10000001
00000000
00000000
00011000
00000000
00000000
10011001
00000000
,
00100010
00000000
01000100
00000000
01000100
00000000
00000000
00000000
00111010
00000000
00000000
01000100
00000000
00000000
10011001
00000000
,
00100010
01000100
00011000
01000100
01000100
10000001
01000100
10000001
,
00100010
00000000
00000000
00000000
00000000
00000000
00000000
00000000
00011000
00000000
00000000
00000000
00000000
00000000
00000000
00000000
01000100
00000000
00000000
00000000
00000000
00000000
00000000
00000000
00000000
00000000
00000000
00000000
00000000
00000000
00000000
00000000
10000001
00000000
00000000
00000000
00000000
00100010
00000000
00000000
00000000
00000000
00000000
10000001
00000000
00000000
00000000
00000000
01000100
00000000
00000000
00000000
00000000
00000000
00000000
00000000
00000000
00000000
00000000
00000000
00000000
00000000
00000000
00000000
,
10100011
00000000
00011000
00000000
00011000
00000000
00000000
00000000
00111010
00000000
00000000
01000100
00000000
00000000
11000101
00000000
,
00100010
00000000
10000001
00000000
10000001
00000000
00000000
00000000
01011100
00000000
00000000
01000100
00000000
00000000
00011000
00000000
,
10000001
00000000
00011000
00000000
00011000
00000000
00000000
00000000
11000101
00000000
00000000
00011000
00000000
00000000
01000100
00000000
,
00100010
00011000
01000100
00000000
01011100
00000000
10011001
00000000
;

//---------------dance-couple - ----------------
#NOTES:
     dance-couple:
     :
     Challenge:
     5:
     :
00000000
00000000
00000000
00000000
,
00000000
00000000
00000000
00000000
,
00000000
00000000
00000000
00000000
,
10001000
00000001
00000000
00000001
00000000
00000001
00000000
00000001
,
10001000
00000001
00000000
00000001
00000000
00000001
00000000
00000001
,
10000010
00000001
00000000
00001000
00000000
00000001
00000000
00001000
,
10000010
00000001
00000000
00000001
00000000
00001000
00001000
00000000
,
10000001
00010000
00000000
00010000
00000000
00010000
00000000
00010000
,
10000001
00010000
00000000
00010000
00000000
00010000
00000000
00010000
,
00100001
00010000
00000000
10000000
00000000
00010000
00000000
10000000
,
00100001
00010000
00000000
00010000
00000000
10000000
10000000
00000000
,
10000001
00000100
00001000
00000001
10001000
00000010
00000100
00001000
,
10000010
00000001
00000001
00001000
10001000
00000001
00000010
00000000
,
00010001
01000000
10000000
00010000
10000001
00100000
01000000
10000000
,
00100001
00010000
00010000
10000000
10000001
00010000
00100000
00000000
,
10001000
00000000
00000100
00000000
00000100
00000000
00000000
00000000
10000100
00000000
00000000
00000100
00000000
00000000
00000100
00000000
,
10000000
00000000
00000001
00000000
00000001
00000000
00000000
00000000
10000010
00000000
00000000
00000010
00000000
00000000
00000010
00000000
,
10000000
00000000
00001000
00000000
00001000
00000000
00000000
00000000
10000100
00000000
00000000
00000100
00000000
00000000
00000100
00000000
,
10000000
00000001
00000001
00000000
00000100
00000000
00000100
00000000
,
10000001
00000000
01000000
00000000
01000000
00000000
00000000
00000000
01000001
00000000
00000000
01000000
00000000
00000000
01000000
00000000
,
00000001
00000000
00010000
00000000
00010000
00000000
00000000
00000000
00100001
00000000
00000000
00100000
00000000
00000000
00100000
00000000
,
00000001
00000000
10000000
00000000
10000000
00000000
00000000
00000000
01000001
00000000
00000000
01000000
00000000
00000000
01000000
00000000
,
00000001
00010000
00010000
00000000
01000000
00000000
01000000
00000000
,
00001000
00000010
00000100
00001000
00000001
00000100
00000100
00000001
,
00000100
00000010
00000100
00001000
00000001
00000100
00001000
00000000
,
10000000
00100000
01000000
10000000
00010000
01000000
01000000
00010000
,
01000000
00100000
01000000
10000000
00010000
01000000
10000000
00000000
,
00000001
00000001
00000001
00000000
00010000
00010000
00010000
00000000
,
10001000
00000000
00000000
00000000
00000000
00000000
00000000
00000000
00100010
00000000
00000000
00000000
00000000
00000000
00000000
00000000
00010001
00000000
00000000
00000000
00000000
00000000
00000000
00000000
00100010
00000000
00000000
00000000
00000000
00000000
00000000
00000000
10001000
00000000
00000000
00000000
00000000
00100010
00000000
00000000
00000000
00000000
00000000
10001000
00000000
00000000
00000000
00000000
01000100
00000000
00000000
00000000
00000000
00000000
00000000
00000000
00000000
00000000
00000000
00000000
00000000
00000000
00000000
00000000
,
10010001
00000000
01000000
00000000
01000000
00000000
00000000
00000000
10000001
00000000
00000000
00010000
00000000
00000000
01000000
00000000
,
10000001
00000000
00010000
00000000
00010000
00000000
00000000
00000000
10000001
00000000
00000000
00100000
00000000
00000000
01010000
00000000
,
10001001
00000000
00000100
00000000
00000100
00000000
00000000
00000000
10000001
00000000
00000000
00001000
00000000
00000000
00000100
00000000
,
10000001
00000000
00001000
00000000
00001000
00000000
00000000
00000000
10000001
00000000
00000000
00000010
00000000
00000000
00001100
00000000
,
00000000
00010000
00000000
01000000
00000000
10000000
00000000
01000000
,
00000000
00000001
00000000
00000100
00000000
00001000
00000000
00000100
,
00000000
01000100
00000000
01000100
00000000
01000100
00000000
01000100
,
00000000
00000000
00000000
00000000
00000000
00000000
00000000
00000000
00000000
00000000
00000000
00000000
00000000
00000000
00000000
00000000
00000000
00000000
00000000
00000000
00000000
00000000
00000000
00000000
00000000
00000000
00000000
00000000
00000000
00000000
00000000
00000000
10001000
00000000
00000000
00000000
00000000
00100010
00000000
00000000
00000000
00000000
00000000
10001000
00000000
00000000
00000000
00000000
01000100
00000000
00000000
00000000
00000000
00000000
00000000
00000000
00000000
00000000
00000000
00000000
00000000
00000000
00000000
00000000
,
10101010
00000000
00010001
00000000
00010001
00000000
00000000
00000000
00110011
00000000
00000000
01000100
00000000
00000000
11001100
00000000
,
00100010
00000000
10001000
00000000
10001000
00000000
00000000
00000000
01010101
00000000
00000000
01000100
00000000
00000000
00010001
00000000
,
10001000
00000000
00010001
00000000
00010001
00000000
00000000
00000000
11001100
00000000
00000000
00010001
00000000
00000000
01000100
00000000
,
00100010
00010001
01000100
00000000
01010101
00000000
10011001
00000000
;

//---------------dance-solo - ----------------
#NOTES:
     dance-solo:
     :
     Easy:
     3:
     :
000000
000000
000000
000000
,
000000
000000
000000
000000
,
000000
000000
000000
000000
,
100001
000100
000010
001000
,
100001
001000
010000
001000
,
000001
000001
000100
000010
,
000010
000010
010000
001000
,
100000
100000
000100
010000
,
000001
000001
000100
000010
,
000100
100000
000001
001000
,
000010
000000
000100
000000
100000
001000
000001
000000
,
010000
001000
000010
001000
,
000100
000000
100000
000000
000001
001000
100000
000000
,
000010
100000
001000
000001
,
010000
000000
000000
000000
000000
000000
000000
000000
000000
000000
000000
000000
000000
000000
000000
000000
000010
000000
000000
000000
000000
000000
000000
000000
000000
000000
000000
000000
000000
000000
000000
000000
100000
000000
000000
000000
000000
001000
000000
000000
000000
000000
000000
100000
000000
000000
000000
000000
001000
000000
000000
000000
000000
000000
000000
000000
000000
000000
000000
000000
000000
000000
000000
000000
,
010000
010000
000001
000001
,
000100
000000
000100
000000
000100
000100
000100
000000
,
100010
000000
100000
000000
100000
001000
000001
000000
,
100000
000000
001000
000000
000100
010000
001000
000000
,
100000
000000
000100
000000
000100
010000
001000
000000
,
100000
000000
000100
000000
000100
010000
001000
000000
,
000001
000000
001000
000000
000100
000010
001000
000000
,
000001
000000
000100
000000
000100
000010
001000
000000
,
000001
000000
100000
000000
000010
000010
000010
000000
,
100000
000000
000001
000000
010000
010000
010000
000000
,
001100
000000
100001
000000
001100
100000
001000
000000
,
000001
000000
010000
000000
001100
000001
001000
000000
,
000100
100000
000010
000100
,
000100
000000
000000
000000
000000
000000
000000
000000
000000
000000
000000
000000
000000
000000
000000
000000
001000
000000
000000
000000
000000
000000
000000
000000
000000
000000
000000
000000
000000
000000
000000
000000
000001
000000
000000
000000
000000
001000
000000
000000
000000
000000
000000
000001
000000
000000
000000
000000
001000
000000
000000
000000
000000
000000
000000
000000
000000
000000
000000
000000
000000
000000
000000
000000
,
100000
000010
010000
010000
,
000001
100000
000010
000010
,
010001
000000
000000
000000
000010
001000
100000
000000
,
100001
000000
000000
000000
010000
001000
000001
000000
,
100001
000000
000001
000000
000100
010000
001000
000000
,
000001
000000
100000
000000
000100
000010
001000
000000
,
000100
000000
000000
000000
001100
000100
100000
000000
,
010000
000000
000010
000000
001000
100000
000100
000000
,
000010
000010
001000
001000
,
000100
100010
000001
011000
,
000001
000000
000001
000000
000001
100000
100000
000000
,
000100
000000
000000
000000
000000
000000
000000
000000
000000
000000
000000
000000
000000
000000
000000
000000
010000
000000
000000
000000
000000
000000
000000
000000
000000
000000
000000
000000
000000
000000
000000
000000
000001
000000
000000
000000
000000
001000
000000
000000
000000
000000
000000
000001
000000
000000
000000
000000
001000
000000
000000
000000
000000
000000
000000
000000
000000
000000
000000
000000
000000
000000
000000
000000
;

//---------------dance-solo - ----------------
#NOTES:
     dance-solo:
     :
     Medium:
     4:
     :
000000
000000
000000
000000
,
000000
000000
000000
000000
,
000000
000000
000000
000000
,
100000
000010
000000
000010
000000
000010
000000
000010
,
010000
000001
000000
000001
000000
000001
000000
000001
,
000100
000010
000000
010000
000000
000001
000000
100000
,
000100
000001
000000
000001
000000
100000
100000
000000
,
001000
000001
000000
000001
001000
010000
000000
010000
,
001000
000001
000000
000001
001000
010000
000000
010000
,
000000
000001
000000
100000
000000
001000
000000
000100
,
000000
000001
000000
100000
000000
000010
000010
000000
,
000000
001000
000000
000001
000000
000100
000000
011000
,
000000
000001
000000
100000
000000
000010
000000
001001
,
000000
000010
000000
000100
000000
001000
000000
000100
,
000000
000000
000000
000000
000000
000000
000000
000000
100000
000000
000000
000000
000000
000000
000000
000000
000000
000000
000000
000000
000000
000000
000000
000000
000001
000000
000000
000000
000000
000000
000000
000000
010000
000000
000000
000000
000000
000100
000000
000000
000000
000000
000000
100000
000000
000000
000000
000000
001000
000000
000000
000000
000000
000000
000000
000000
000000
000000
000000
000000
000000
000000
000000
000000
,
100000
000000
001000
000000
001000
000000
000000
000000
001000
000000
000000
001000
000000
000000
001000
000000
,
000000
000000
000001
000000
000001
000000
000000
000000
000100
000000
000000
000100
000000
000000
000100
000000
,
000000
000000
010000
000000
010000
000000
000000
000000
001000
000000
000000
001000
000000
000000
001000
000000
,
000000
000000
000001
000000
000001
000000
000000
000000
001000
000000
000000
001000
000000
000000
001000
000000
,
000000
000000
000010
000000
000010
000000
000000
000000
100000
000000
000000
100000
000000
000000
010001
000000
,
000000
000000
000010
000000
100000
000000
000000
000000
000100
000000
000000
001000
000000
000000
001000
000000
,
000000
000000
000100
000000
001000
000000
000000
000000
000010
000000
000000
100000
000000
000000
000000
000001
,
000000
000000
001000
000000
001000
000000
000000
000000
010000
000000
000000
010000
000000
000000
010000
000000
,
000000
000100
000000
100000
000000
001000
000000
000001
,
000000
000100
000000
010000
000000
001000
000000
001001
,
000000
001000
000000
100000
000000
000010
000000
000001
,
000000
011000
000000
100001
000000
001000
001000
000000
,
000000
010000
000000
000001
000000
000100
000000
001000
,
000000
000000
000000
000000
000000
000000
000000
000000
100000
000000
000000
000000
000000
000000
000000
000000
000000
000000
000000
000000
000000
000000
000000
000000
000100
000000
000000
000000
000000
000000
000000
000000
010000
000000
000000
000000
000000
000100
000000
000000
000000
000000
000000
100000
000000
000000
000000
000000
001000
000000
000000
000000
000000
000000
000000
000000
000000
000000
000000
000000
000000
000000
000000
000000
,
000000
000000
001000
000000
001000
000000
000000
000000
001000
000000
000000
001000
000000
000000
001000
000000
,
000000
000000
000001
000000
000001
000000
000000
000000
010000
000000
000000
000010
000000
000000
100000
000000
,
000000
000000
010000
000000
010000
000000
000000
000000
000100
000000
000000
000001
000000
000000
001001
000000
,
000000
000000
000010
000000
000010
000000
000000
000000
000100
000000
000000
001000
000000
000000
011000
000000
,
000000
000000
000100
000000
000100
000000
000000
000000
100000
000000
000000
000010
000000
000000
010001
000000
,
000000
000000
001000
000000
001000
000000
000000
000000
000100
000000
000000
001000
000000
000000
100001
000000
,
000000
001000
000000
001000
000000
010000
000000
010000
,
000000
000000
000000
000000
000000
000000
000000
000000
000001
000000
000000
000000
000000
000000
000000
000000
000000
000000
000000
000000
000000
000000
000000
000000
000000
000000
000000
000000
000000
000000
000000
000000
100000
000000
000000
000000
000000
000100
000000
000000
000000
000000
000000
100000
000000
000000
000000
000000
001000
000000
000000
000000
000000
000000
000000
000000
000000
000000
000000
000000
000000
000000
000000
000000
,
000000
000000
000001
000000
000001
000000
000000
000000
000100
000000
000000
001000
000000
000000
010000
000000
,
000000
000000
100000
000000
100000
000000
000000
000000
000001
000000
000000
001000
000000
000000
000010
000000
,
000000
000000
000001
000000
000001
000000
000000
000000
000010
000000
000000
001000
000000
000000
001000
000000
,
000000
000001
000001
000000
001010
000000
100001
000000
;

//---------------dance-solo - ----------------
#NOTES:
     dance-solo:
     :
     Hard:
     6:
     :
000000
000000
000000
000000
,
000000
000000
000000
000000
,
000000
000000
000000
000000
,
000000
001000
100000
001000
000010
001000
000001
001000
,
100000
000001
010000
000010
100000
001000
010000
001000
,
000100
000001
100000
001000
000100
000001
000100
100000
,
010000
000001
001000
000001
000100
100000
000001
000100
,
001000
000010
100000
000001
001000
100000
000100
100000
,
001000
000001
000100
000001
001000
100000
000100
100000
,
001000
000001
000100
100000
000001
001000
010000
000100
,
001000
000001
100000
100000
001000
000100
100001
000000
,
000010
001000
100000
000001
100000
000100
001000
010000
,
000100
000001
000001
100000
100000
000001
000100
001000
,
001000
000001
000100
000100
010000
001000
010000
000100
,
000001
000000
000000
000000
000000
000000
000000
000000
100000
000000
000000
000000
000000
000000
000000
000000
001000
000000
000000
000000
000000
000000
000000
000000
000001
000000
000000
000000
000000
000000
000000
000000
100000
000000
000000
000000
000000
000100
000000
000000
000000
000000
000000
100000
000000
000000
000000
000000
001000
000000
000000
000000
000000
000000
000000
000000
000000
000000
000000
000000
000000
000000
000000
000000
,
010000
000000
001000
000000
001000
000000
000000
000000
100001
000000
000000
001000
000000
000000
001000
000000
,
000000
000000
100001
000000
000010
000000
000000
000000
000100
000000
000000
100000
000000
000000
001000
000000
,
000000
000000
011000
000000
000001
000000
000000
000000
100000
000000
000000
000001
000000
000000
001001
000000
,
000000
000000
101000
000000
001000
000000
000000
000000
000001
000000
000000
001100
000000
000000
000010
000000
,
000000
000000
000100
000000
011000
000000
000000
000000
100001
000000
000000
001000
000000
000000
000010
000000
,
000000
000000
000010
000000
100000
000000
000000
000000
001100
000000
000000
001000
000000
000000
011000
000000
,
000000
000000
001100
000000
001100
000000
000000
000000
100001
000000
000000
100000
000000
000000
001010
000000
,
000000
000000
001000
000000
101000
000000
000000
000000
000100
000000
000000
000001
000000
000000
001010
000000
,
100000
000100
001000
100000
000001
001000
001000
000010
,
001000
000100
001000
010000
000001
001000
100000
000001
,
000100
001000
000001
010000
010000
000100
001000
000010
,
001000
101000
000001
100010
010000
001000
001000
000000
,
000100
100000
100000
000001
001000
000100
000001
001000
,
100000
000000
000000
000000
000000
000000
000000
000000
000100
000000
000000
000000
000000
000000
000000
000000
000001
000000
000000
000000
000000
000000
000000
000000
000100
000000
000000
000000
000000
000000
000000
000000
100000
000000
000000
000000
000000
000100
000000
000000
000000
000000
000000
100000
000000
000000
000000
000000
001000
000000
000000
000000
000000
000000
000000
000000
000000
000000
000000
000000
000000
000000
000000
000000
,
100001
000000
001000
000000
001000
000000
000000
000000
010000
000000
000000
000001
000000
000000
001000
000000
,
100000
000000
000001
000000
000001
000000
000000
000000
100000
000000
000000
000100
000000
000000
001010
000000
,
000001
000000
100000
000000
100000
000000
000000
000000
010000
000000
000000
000001
000000
000000
001010
000000
,
100000
000000
000001
000000
001000
000000
000000
000000
000100
000000
000000
001000
000000
000000
011000
000000
,
000100
000000
000010
000000
001000
000000
000000
000000
100000
000000
000000
000001
000000
000000
100001
000000
,
000010
000000
001000
000000
001000
000000
000000
000000
000101
000000
000000
001000
000000
000000
100001
000000
,
000010
001000
000001
001000
001000
100000
001000
100000
,
000100
000000
000000
000000
000000
000000
000000
000000
000001
000000
000000
000000
000000
000000
000000
000000
001000
000000
000000
000000
000000
000000
000000
000000
000000
000000
000000
000000
000000
000000
000000
000000
100000
000000
000000
000000
000000
000100
000000
000000
000000
000000
000000
100000
000000
000000
000000
000000
001000
000000
000000
000000
000000
000000
000000
000000
000000
000000
000000
000000
000000
000000
000000
000000
,
010100
000000
000001
000000
000001
000000
000000
000000
000110
000000
000000
001000
000000
000000
101000
000000
,
000100
000000
100000
000000
100000
000000
000000
000000
001010
000000
000000
001000
000000
000000
000001
000000
,
100000
000000
000010
000000
000010
000000
000000
000000
011000
000000
000000
000001
000000
000000
001000
000000
,
000100
000010
001000
000000
001001
000000
100001
000000
;
