
//----- song ID: dubi -----//
#TITLE:DUB-I-DUB;
#ARTIST:ME & MY;
#BANNER:DUB-I-DUB.png;
#BACKGROUND:DUB-I-DUB-bg.png;
#CDTITLE:./CDTitles/Dancemania EXTRA.png;
#MUSIC:DUB-I-DUB.ogg;
#SAMPLESTART:39.185;
#SAMPLELENGTH:15;
#DISPLAYBPM:136;
#BPMS:0=32.258,4=136.106,12=135.952;

//---------------dance-single - ----------------
#NOTES:
     dance-single:
     :
     Beginner:
     2:
     :
0000
0000
0000
0000
,
0000
0000
0000
0000
,
0000
0000
0000
0000
,
0010
0000
1000
0000
,
0100
0000
0001
0000
,
0010
0010
0000
1000
,
0000
0100
0000
1001
,
0000
0000
0100
0000
,
0010
0000
0100
0000
,
0001
0001
0000
1000
,
0000
1000
0000
1001
,
0000
1000
0000
1001
,
0000
0001
0000
1001
,
0000
1000
0000
0001
,
0000
0001
0000
1001
,
0000
0010
0000
0100
,
0000
0001
0000
1000
,
0000
0100
0000
0100
,
0100
0100
0100
0000
,
0010
0010
0000
0100
,
0000
0100
0000
1001
,
0000
0001
0000
1000
,
0000
0001
0000
0001
,
0000
0100
0000
0001
,
0000
0100
0000
0001
,
0000
0010
0000
0001
,
0001
0000
0100
0000
,
0010
0000
1000
0000
,
0100
0000
0001
0000
,
0010
0000
0001
0000
,
0100
0000
1000
0000
,
0001
0000
0001
0000
,
0001
0000
0001
0001
,
0000
0000
1000
0000
,
1000
0000
0001
0001
,
0000
0010
0000
0100
,
0000
0100
0000
1001
,
0000
0001
0000
1000
,
0000
0001
0000
0001
,
0000
0000
0100
0000
,
0010
0000
0001
0001
;

//---------------dance-single - ----------------
#NOTES:
     dance-single:
     :
     Easy:
     7:
     :
0000
0000
0000
0000
,
0000
0000
0000
0000
,
0000
0000
0000
0000
,
0010
0000
1000
0000
,
0100
0000
0001
0000
,
0010
0010
1000
1000
,
0100
0100
0010
1001
,
0010
0000
0100
0000
,
0010
0000
0100
0000
,
0001
0001
1000
1000
,
0001
1000
0100
1001
,
1000
1000
0100
1001
,
0001
0001
0100
1001
,
1000
1000
0001
0001
,
1000
0001
1000
1001
,
0010
0010
0100
0100
,
0010
0101
0010
1100
,
0001
0100
1000
0100
,
0100
0011
0100
1010
,
0010
0010
0100
0100
,
0010
0100
0010
1001
,
0101
0101
1100
1100
,
0011
0101
1001
0101
,
0010
0000
0100
0000
1000
0001
0001
0000
,
1000
0000
0100
0000
0010
0001
0001
0000
,
1000
0000
0010
0000
1000
0001
0001
0000
,
0001
0000
1000
0000
0100
0001
0001
0000
,
0010
0000
1000
0000
,
0100
0000
0001
0100
,
0010
0000
0001
0000
,
0100
0000
1000
0100
,
0001
0000
0001
0000
,
0001
0000
0101
0101
,
1010
0000
1000
0000
,
1000
0000
0101
0101
,
0010
0010
0100
0100
,
0010
0100
0010
1001
,
0101
0101
1100
1100
,
0011
0101
1001
0101
,
0100
0000
0100
0000
,
0010
1000
0001
0101
;

//---------------dance-single - ----------------
#NOTES:
     dance-single:
     :
     Medium:
     9:
     :
0000
0000
0000
0000
,
0000
0000
0000
0000
,
0000
0000
0000
0000
,
0100
0001
0100
0000
0010
1000
0010
0000
,
0100
0001
0100
0000
0010
1000
0010
0000
,
1000
0010
1000
0010
1000
0100
1000
0100
,
1000
0001
0100
0001
0100
0001
0001
0000
,
0010
1000
1000
0000
1000
0100
0100
0000
,
0100
0001
0001
0000
0001
0010
0010
0000
,
0001
0010
0001
0010
0001
0100
0001
0100
,
0001
1000
0100
1000
0100
1000
1000
0000
,
0001
0001
1000
1000
,
0001
0001
1000
1000
,
0001
0100
0100
0000
1000
0100
0100
0000
,
0001
0100
0100
0000
1000
0100
0100
0000
,
0010
0001
0100
0000
0001
0010
0001
0000
,
0010
1000
0100
0000
1000
0100
1000
0000
,
0010
1000
0100
0101
,
0010
0001
0100
1100
,
0010
0000
0010
0000
0100
1000
0100
0000
,
0010
0000
0010
0000
0100
0001
0100
0000
,
0101
0101
1100
1100
,
0110
0000
1001
0000
0001
0100
1000
0000
,
0010
0000
0010
0000
0100
1000
0100
0000
,
0010
0000
0010
0000
0100
0001
0100
0000
,
0101
0101
1100
1100
,
0110
0000
1001
0000
1000
0100
0001
0000
,
0001
0100
0001
0000
0100
1000
0100
0000
,
1000
0010
1000
0000
0010
0000
0001
0000
,
0001
0100
0001
0000
0100
1000
0100
0000
,
1000
0010
1000
0000
0010
0001
0010
0000
,
0001
0010
0001
0000
0010
1000
0010
0000
,
1000
0100
1000
0000
0100
0001
0100
0000
,
0001
0010
0001
0000
0010
1000
0010
0000
,
1000
0100
1000
0000
0100
0001
0100
0000
,
0010
0000
0010
0000
0100
1000
0100
0000
,
0010
0000
0010
0000
0100
0001
0100
0000
,
0101
0101
1100
1100
,
0110
0000
1001
0000
0110
1001
0110
0000
,
0101
0000
0101
0000
,
0010
0000
0001
0000
0001
0100
1000
0000
;

//---------------dance-single - ----------------
#NOTES:
     dance-single:
     :
     Hard:
     11:
     :
0000
0000
0000
0000
,
0000
0000
0000
0000
,
0000
0000
0000
0000
,
0100
0001
0101
0000
0010
1000
1100
0000
,
0100
0001
0101
0000
1010
0000
0101
0000
,
0010
1000
0100
0010
0001
0100
0010
1000
,
0100
0010
0001
0100
0010
1000
1000
0000
,
0010
1001
0100
0000
1000
0110
0001
0000
,
0010
0001
0001
0000
0010
1000
1000
0000
,
0010
0001
0100
0010
1000
0100
0010
0001
,
0100
0010
1000
0100
0010
0001
0001
0000
,
0001
1100
1000
0101
,
0001
1000
1000
0000
1000
0001
0001
0000
,
0010
0001
0001
0000
0100
1000
1000
0000
,
0010
1001
0010
1001
,
0010
1001
1100
0000
0010
1001
0101
0000
,
0010
1000
0100
0000
0010
0001
0100
0000
,
0010
0000
1000
0000
0100
0001
1100
0000
,
0010
0000
0001
0000
0100
1000
1001
0000
,
0110
0000
1001
0000
1100
0001
0001
0000
,
1001
0000
0110
0000
0011
1000
1000
0000
,
0101
0000
0101
0000
1100
0001
0100
0000
,
0110
0000
1001
0000
0110
0001
1000
0000
,
0110
0000
1001
0000
0110
0001
0100
0000
,
1001
0000
0110
0000
1100
0001
0100
0000
,
0101
0000
0101
0000
0010
1000
1100
0000
,
0110
0000
1001
0000
0110
1000
0001
0000
,
0010
0000
1000
0000
,
0001
0000
0000
0000
0000
0000
0000
0000
0100
1000
0000
0000
0001
0000
0000
0000
,
0010
1000
0000
0000
0001
0000
0000
0000
0100
1000
0000
0000
0001
0000
0000
0000
,
0001
0100
0000
0000
0010
0000
0000
0000
0010
1000
0000
0000
0100
0010
0000
0000
,
0001
1000
1000
0001
,
1001
0000
0000
0000
0100
0000
0000
0000
0010
0100
0000
0000
1001
0000
0000
0000
,
0100
1000
0000
0000
0001
0000
0000
0000
0100
0001
0000
0000
1000
0000
0000
0000
,
0100
1000
0000
0000
0001
0000
0000
0000
0100
0000
0100
0000
0100
0000
0000
0000
,
1010
0000
0110
0000
0100
1000
0101
0000
,
0011
0000
0110
0000
0100
0001
1100
0000
,
0101
0000
0101
0000
1100
0010
0101
0000
,
0110
0000
1001
0000
0110
1001
0110
0000
,
0010
1000
0001
0010
1000
0100
0010
1000
,
0001
0010
0100
0001
1000
0100
0100
0000
;

//---------------dance-single - ----------------
#NOTES:
     dance-single:
     :
     Challenge:
     13:
     :
0000
0000
0000
0000
,
0000
0000
0000
0000
,
0000
0000
0000
0000
,
0010
0000
0001
0010
0001
0000
0000
0000
1000
0000
0100
1000
0100
0000
0000
0000
,
0010
0000
0001
0010
0001
0000
0000
0000
1000
0000
0100
1000
0100
0000
0000
0000
,
1000
0100
0010
0001
0100
0010
1000
0100
,
0010
0001
0100
0010
1000
0100
0100
0000
,
1000
0000
0010
0100
0001
0000
0000
0000
1000
0000
0100
0010
0001
0000
0000
0000
,
0100
0000
0001
1000
0100
0000
0000
0000
0010
0000
0001
1000
0100
0000
0000
0000
,
0010
0001
0100
0010
1000
0100
0010
0001
,
0100
0010
1000
0100
0010
0001
0001
0000
,
1000
0101
0001
1100
,
0010
0001
1000
0100
1000
0001
0001
0000
,
1000
1000
1000
1000
0010
0010
0010
0010
,
0100
0001
1000
1000
0010
0100
0001
0001
,
1000
1000
0011
0000
0001
0001
1010
0000
,
0100
0001
1000
0010
1000
0001
0001
0000
,
0100
0100
0100
0100
0010
0010
0010
0010
,
0010
1010
0001
0101
,
0010
0000
1000
0010
0000
0100
0001
0100
0010
0000
1010
0000
1010
0000
0000
0000
,
0001
0000
0010
0001
0000
1000
0100
1000
0010
0000
0000
0000
1001
0000
0000
0000
,
0010
0000
0001
0010
0000
0100
1000
0100
0010
0000
0011
0000
0011
0000
0000
0000
,
0100
0100
1000
1000
0010
0100
0001
1000
,
0100
0000
1000
0100
0000
0010
0001
0010
0100
0000
1100
0000
1100
0000
0000
0000
,
0001
0000
0100
0001
0000
1000
0010
1000
0100
0000
0000
0000
1001
0000
0000
0000
,
0100
0000
0001
0100
0000
0010
1000
0010
0100
0000
0101
0000
0101
0000
0000
0000
,
0010
0010
1000
1000
0100
0010
0001
0000
,
1000
0100
0000
0000
0010
0000
0000
0000
0001
0100
0000
0000
0010
0000
0000
0000
,
1000
0010
0000
0000
1000
0010
0000
0000
0100
0000
0000
0000
0001
0000
0000
0000
,
0010
0001
0000
0000
1000
0000
0000
0000
0010
1000
0000
0000
0001
0000
0000
0000
,
0010
0001
0000
0000
0010
0001
0000
0000
1000
0000
0000
0000
0100
0000
0000
0000
,
0001
0100
0000
0000
0010
0000
0000
0000
1000
0100
0000
0000
0010
0000
0000
0000
,
0001
0010
0000
0000
0001
0010
0000
0000
0100
0000
0000
0000
1000
0000
0000
0000
,
0010
1000
0000
0000
0001
0000
0000
0000
0010
0001
0000
0000
1000
0000
0000
0000
,
0010
1000
0000
0000
0010
1000
0000
0000
0001
0000
0001
0000
1001
0000
0000
0000
,
0010
0000
1000
0010
0000
0100
0001
0100
0010
0000
1010
0000
1010
0000
0000
0000
,
0001
0000
0010
0001
0000
1000
0100
1000
0010
0000
0000
0000
1001
0000
0000
0000
,
0010
0000
0001
0010
0000
0100
1000
0100
0010
0000
0011
0000
0011
0000
0000
0000
,
0100
0100
1000
1000
0000
0000
0001
0000
,
0001
0000
0000
0000
0001
0000
0000
0000
0001
0000
0000
0000
0001
0010
0001
0000
,
1000
0000
0010
0100
0001
1000
1001
0000
;

//---------------dance-double - ----------------
#NOTES:
     dance-double:
     :
     Easy:
     7:
     :
00000000
00000000
00000000
00000000
,
00000000
00000000
00000000
00000000
,
00000000
00000000
00000000
00000000
,
11000000
00000000
00010000
00000000
,
01000000
00000000
10000000
00000000
,
01000000
00010000
00000100
00000001
,
00000100
00001000
00001001
00000001
,
00000101
00000000
00001000
00000000
,
00000100
00000000
00000001
00000000
,
00000100
00001000
01000000
10000000
,
01000000
00010000
10010000
10000000
,
00110000
00110000
01010000
01010000
,
00001010
00001010
00001100
00001100
,
00001010
00001100
00001010
00001100
,
00110000
01010000
00110000
01010000
,
10000000
01000000
00001000
00000001
,
00000010
00000100
00010000
10000000
,
00010000
01000000
00001000
00000001
,
00000100
00001000
10000000
10010000
,
00100000
00100000
11000000
01010000
,
00000100
00001000
00001100
00000101
,
00000010
00000010
00001000
00000100
,
00000101
00001100
01010000
11000000
,
00100000
00000000
00010000
00000000
00001000
00010000
00010000
00000000
,
00000010
00000000
00001000
00000000
00010000
00001000
00001000
00000000
,
00100000
00000000
10000000
00000000
00010000
01000000
01000000
00000000
,
00001000
00000000
00000010
00000000
00000001
00000100
00000100
00000000
,
00001000
00000000
00100000
00000000
,
01000000
00000000
00001000
00000100
,
01000000
00000000
00001000
00000000
,
00000010
00000000
00001000
01000000
,
00100000
00000000
01000000
00000000
,
00001000
00000000
00000101
00001001
,
00001100
00000000
00110000
00000000
,
00000101
00000000
00001000
00001100
,
00000010
00000010
00000101
00001100
,
01000000
00010000
01010000
11000000
,
00100000
00100000
00010000
01000000
,
11000000
01010000
00001100
00000101
,
00000101
00000000
00001100
00000000
,
00001010
00011000
00110000
01010000
;

//---------------dance-double - ----------------
#NOTES:
     dance-double:
     :
     Medium:
     11:
     :
00000000
00000000
00000000
00000000
,
00000000
00000000
00000000
00000000
,
00000000
00000000
00000000
00000000
,
00100000
10000000
01000000
00000000
00100000
00010000
01000000
00000000
,
00000010
00001000
00000100
00000000
00000010
00000001
00000100
00000000
,
00000011
00000101
00001100
00011000
,
01010000
00000000
11000000
00000000
10010000
01000000
01000000
00000000
,
00100000
01000000
00001000
00000001
,
00000010
00000100
00010000
10000000
,
00100000
10000000
01000000
00100000
00010000
01000000
00001000
00100000
,
00001000
00010000
00000010
00001000
00000001
00000100
00000100
00000000
,
00000001
00000001
00001000
00001000
,
00010000
00010000
10000000
10000000
,
00100000
00010000
00010000
00000000
00000010
00001000
00001000
00000000
,
01000000
00010000
00010000
00000000
00000100
00001000
00001000
00000000
,
00001001
00010000
00001001
00010000
,
10010000
00000000
00001000
00000000
00011000
00000100
00000100
00000000
,
00000011
00001000
00000100
00001001
,
00011000
01010000
11000000
10100000
,
01000000
00000000
11000000
00000000
11000000
00010000
01010000
00000000
,
00000100
00000000
00001100
00000000
00001100
00000001
00000101
00000000
,
00001100
00001100
01010000
01010000
,
10000000
00000000
01000000
00000000
00100000
00010000
00001000
00000000
,
01100000
00000000
10010000
00000000
11000000
00010000
00001000
00000000
,
00000110
00000000
00001001
00000000
00000101
00001000
00010000
00000000
,
11000000
00000000
11000000
00000000
00010000
00001000
00000010
00000000
,
00000101
00000000
00000101
00000000
00001000
00010000
00100000
00000000
,
00110000
00010000
01000000
00000000
00011000
00001000
00000010
00000000
,
00001001
00000001
00000100
00000000
00000001
00000010
00000001
00000100
,
00001001
00000100
00001000
00000000
00011000
00010000
00100000
00000000
,
10010000
10000000
01000000
00000000
00010000
01000000
00010000
00100000
,
01010000
00001000
00010000
00000000
00001100
00000001
00000100
00000000
,
00001010
00010000
00001000
00000000
00000010
00000001
00000100
00001000
,
00000001
00000001
00001001
00000000
00001000
00001000
00011000
00000000
,
00010000
00010000
10010000
00000000
10000000
10000000
10000000
00000000
,
01010000
01010000
11000000
11000000
,
11000000
00000000
01010000
00000000
00001100
00000001
00000100
00000000
,
00000100
00000000
00000101
00000000
00000101
00001000
00001100
00000000
,
01000000
00000000
01010000
00000000
01010000
10000000
11000000
00000000
,
11000000
00100000
00011000
00000100
,
00010010
00000000
01001000
00000000
00100000
00001000
00000100
00000000
;

//---------------dance-double - ----------------
#NOTES:
     dance-double:
     :
     Hard:
     10:
     :
00000000
00000000
00000000
00000000
,
00000000
00000000
00000000
00000000
,
00000000
00000000
00000000
00000000
,
00010000
00001000
00010000
00000000
00100000
10000000
01000000
00000000
,
00010000
00001000
00010000
00000000
00000010
00000001
00000100
00000000
,
00000001
00000100
00001000
00000100
00000001
00000100
00001000
00010000
,
01000000
10000000
01000000
00010000
00000000
00001000
00001000
00000000
,
00000000
00000100
00000001
00000000
00000000
00001000
00010000
00000000
,
00000000
01000000
10000000
00000000
00000000
00010000
00001000
00000000
,
00000010
00000001
00000010
00000100
00001000
00000001
00000100
00001000
,
00010000
01000000
10000000
00100000
00000000
00010000
00001000
00000000
,
00000010
00000000
00000001
00000100
00000000
00000001
00000000
00000100
,
00000000
00001000
00000000
00010000
00000000
00001000
00001000
00000000
,
00100000
00000000
01000000
01000000
00000000
10000000
01000000
00000000
,
00010000
00000000
00001000
00000100
00000000
00000001
00000010
00000000
,
00000001
00000000
00001000
00000100
00000000
00010000
00000000
00100000
,
00000000
10000000
00000000
01000000
00000000
00010000
00001000
00000000
,
01000000
00000000
00000000
00010000
00000000
00001000
00001000
00000000
,
00000000
00000100
00000000
00000001
00000000
00001000
00000100
00000000
,
00010000
00000000
00000000
00100000
00000000
00000000
10000000
00000000
00000000
00000000
01000000
00000000
01000000
00000000
00000000
00000000
,
00010000
00000000
00000000
00001000
00000000
00000000
00000100
00000000
00000000
00000000
00000001
00000000
00000001
00000000
00000000
00000000
,
00000010
00000000
00000000
00000001
00000000
00000000
00000100
00000000
00000000
00000000
00001000
00000000
00001000
00000000
00000000
00000000
,
00010000
01000000
10000000
01000000
00000000
10000000
10000000
00000000
,
00010000
00000000
00000000
10000000
00000000
00000000
01000000
00000000
00000000
00000000
00100000
00000000
00010000
00000000
00000000
00000000
,
00010000
00000000
00000000
00001000
00000000
00000000
00000100
00000000
00000000
00000000
00000010
00000000
00000001
00000000
00000000
00000000
,
00000010
00000000
00000000
00000001
00000000
00000000
00000100
00000000
00000000
00000000
00001000
00000000
00010000
00000000
00000000
00000000
,
01000000
00010000
01000000
10000000
00000000
00010000
00010000
00000000
,
01000000
00010000
00001000
00010000
,
00000100
00000000
00000010
00000000
00000001
00000100
00000001
00000100
,
00000010
00001000
00000100
00010000
,
00001000
00000000
00100000
00000000
01000000
10000000
01000000
10000000
,
00010000
00000010
00000001
00000100
,
00001000
00000000
00010000
00000000
00100000
10000000
01000000
10000000
,
01000000
00010000
00001000
00010000
,
00000010
00000000
00000100
00000000
00000001
00001000
00000100
00000000
,
00000001
00000000
00000000
00001000
00000000
00000000
00000100
00000000
00000000
00000000
00010000
00000000
00001000
00000000
00000000
00000000
,
01000000
00000000
00000000
00100000
00000000
00000000
10000000
00000000
00000000
00000000
01000000
00000000
10000000
00000000
00000000
00000000
,
00100000
00000000
00000000
00010000
00000000
00000000
00001000
00000000
00000000
00000000
00010000
00000000
00000100
00000000
00000000
00000000
,
00000010
00000100
00001000
00000100
00000000
00000001
00000100
00000000
,
00000000
00000010
00000000
00001000
00000000
00000100
00000000
00010000
,
00000000
00001000
00000000
01000000
00000000
10000000
01000000
00000000
;

//---------------dance-double - ----------------
#NOTES:
     dance-double:
     :
     Challenge:
     12:
     :
00000000
00000000
00000000
00000000
,
00000000
00000000
00000000
00000000
,
00000000
00000000
00000000
00000000
,
00000010
00001000
00000100
00000000
00000010
00000001
00000100
00000000
,
00001000
00010000
01000000
00000000
00100000
00010000
01000000
00000000
,
00100000
10000000
01000000
00010000
00001000
00000010
00000001
00000100
,
00001000
00010000
00100000
10000000
00000000
00010000
00010000
00000000
,
00100000
01000000
10000000
00000000
00100000
00010000
00001000
00000000
,
00000100
00000001
00001000
00000000
00000100
00000010
00000100
00000000
,
00000010
00000001
00000100
00001000
00010000
00100000
10000000
01000000
,
00010000
00001000
00000010
00000001
00000000
00001000
00001000
00000000
,
00000010
00000000
00000100
00000010
00000000
00000100
00001000
00010000
,
00001000
00010000
01000000
00100000
00000000
00010000
00010000
10000000
,
00000000
00100000
01000000
00010000
00000000
00100000
01000000
00010000
,
00000000
00001000
00000010
00000100
00000000
00001000
00000001
00000000
,
00000100
00000000
00000010
00000100
00000000
00001000
00010000
00001000
,
00100000
00010000
10000000
01000000
00000000
00100000
01000000
10000000
,
00000000
00000000
00010000
00000000
01000000
00000000
00100000
01000000
,
00000000
00100000
00000000
00010000
00000000
00001000
00010000
00000000
,
00001000
00000000
00000100
00000010
00000000
00000100
00000010
00000000
00001000
00000000
00000100
00000000
00000100
00000000
00000000
00000000
,
00010000
00000000
00001000
00010000
00000000
00001000
00010000
00000000
01000000
00000000
00000000
00000000
10010000
00000000
00000000
00000000
,
00100000
00000000
10000000
01000000
00000000
10000000
01000000
00000000
00100000
00000000
00010000
00000000
00010000
00000000
00000000
00000000
,
00001000
00000100
00000001
00000100
00000010
00000001
00000001
00000000
,
00001000
00000000
00000001
00000100
00000000
00000001
00000100
00000000
00000010
00000000
00001000
00000000
00001000
00000000
00000000
00000000
,
00000100
00000000
00010000
00001000
00000000
00010000
00001000
00000000
00100000
00000000
00000000
00000000
01100000
00000000
00000000
00000000
,
00100000
00000000
00010000
01000000
00000000
00010000
01000000
00000000
00100000
00000000
00010000
00000000
00001000
00000000
00000000
00000000
,
00000100
00001000
00000100
00000001
00000010
00000100
00000100
00000000
,
00000010
00000001
00000100
00001000
,
00010000
00100000
10100000
01010000
,
00100000
10000000
01000000
00010000
,
00001000
00000010
00000011
00001100
,
00000010
00000001
00000100
00001000
,
00010000
00100000
01100000
10010000
,
00100000
10000000
01000000
00010000
,
00001000
00000010
00000110
00001001
,
00001000
00000000
00000001
00000100
00000000
00000001
00000100
00000000
00000010
00000000
00001000
00000000
00001000
00000000
00000000
00000000
,
00000100
00000000
00010000
00001000
00000000
00010000
00001000
00000000
00100000
00000000
00000000
00000000
01100000
00000000
00000000
00000000
,
00100000
00000000
00010000
01000000
00000000
00010000
01000000
00000000
00100000
00000000
00010000
00000000
00001000
00000000
00000000
00000000
,
00000100
00001000
00000100
00000001
00000010
00000100
00000100
00000000
,
00010000
00001000
00100000
00010000
01000000
00100000
10000000
01000000
,
00100000
01000000
00010000
00001000
00000010
00000001
00001000
00000000
;

//---------------dance-couple - ----------------
#NOTES:
     dance-couple:
     :
     Easy:
     4:
     :
00000000
00000000
00000000
00000000
,
00000000
00000000
00000000
00000000
,
00000000
00000000
00000000
00000000
,
00100000
00000010
10000000
00000001
,
01000000
00000100
00010000
00001000
,
00100010
00100010
10000001
10000001
,
01000100
01000100
00011000
10011001
,
00000010
00100000
00000100
01000000
,
00000010
00100000
00000100
01000000
,
00010000
00001000
10000000
00000001
,
00010000
00000001
00011000
10011001
,
10000001
10000001
01000100
10011001
,
00011000
00011000
01000100
10011001
,
10000001
10000001
00011000
00011000
,
10000001
00011000
10000001
10011001
,
00100010
00100010
01000100
01000100
,
00100010
01011100
00100010
11000101
,
00011000
01000100
10000001
01000100
,
01000100
00111010
01000100
10100011
,
00100010
00100010
01000100
01000100
,
00100010
01000100
00100010
10011001
,
01011100
01011100
11000101
11000101
,
00111010
01011100
10011001
01011100
,
00100010
00000000
01000100
00000000
10000001
00011000
00011000
00000000
,
10000001
00000000
01000100
00000000
00100010
00011000
00011000
00000000
,
10000001
00000000
00100010
00000000
10000001
00011000
00011000
00000000
,
00011000
00000000
10000001
00000000
01000100
00011000
00011000
00000000
,
00100000
00000010
10000000
00000001
,
01000000
00000100
00011000
01000100
,
00000010
00100000
00001000
00010000
,
00000100
01000000
10000001
01000100
,
00011000
00000000
00011000
00000000
,
00011000
00000000
01011100
01011100
,
10100011
00000000
10000001
00000000
,
10000001
00000000
01011100
01011100
,
01011000
01010000
11000001
11000000
,
00111000
01010000
10010100
01010100
,
00011100
00001100
10000101
00000101
,
00011010
00001100
01001001
01001100
,
01000000
00000100
01000000
00000100
,
00100010
10000001
00011000
01011100
;

//---------------dance-couple - ----------------
#NOTES:
     dance-couple:
     :
     Medium:
     6:
     :
00000000
00000000
00000000
00000000
,
00000000
00000000
00000000
00000000
,
00000000
00000000
00000000
00000000
,
01000100
00011000
01000100
00000000
00100010
10000001
00100010
00000000
,
01000100
00011000
01000100
00000000
00100010
10000001
00100010
00000000
,
10000001
00100010
10000001
00100010
10000001
01000100
10000001
01000100
,
10000001
00011000
01000100
00011000
01000100
00011000
00011000
00000000
,
00100010
10000001
10000001
00000000
10000001
01000100
01000100
00000000
,
01000100
00011000
00011000
00000000
00011000
00100010
00100010
00000000
,
00011000
00100010
00011000
00100010
00011000
01000100
00011000
01000100
,
00011000
10000001
01000100
10000001
01000100
10000001
10000001
00000000
,
00011000
00011000
10000001
10000001
,
00011000
00011000
10000001
10000001
,
00011000
01000100
01000100
00000000
10000001
01000100
01000100
00000000
,
00011000
01000100
01000100
00000000
10000001
01000100
01000100
00000000
,
00100010
00011000
01000100
00000000
00011000
00100010
00011000
00000000
,
00100010
10000001
01000100
00000000
10000001
01000100
10000001
00000000
,
00100010
10000001
01000100
01011100
,
00100010
00011000
01000100
11000101
,
00100010
00000000
00100010
00000000
01000100
10000001
01000100
00000000
,
00100010
00000000
00100010
00000000
01000100
00011000
01000100
00000000
,
01011100
01011100
11000101
11000101
,
01100110
00000000
10011001
00000000
00011000
01000100
10000001
00000000
,
00100010
00000000
00100010
00000000
01000100
10000001
01000100
00000000
,
00100010
00000000
00100010
00000000
01000100
00011000
01000100
00000000
,
01011100
01011100
11000101
11000101
,
01100110
00000000
10011001
00000000
10000001
01000100
00011000
00000000
,
00011000
01000100
00011000
00000000
01000100
10000001
01000100
00000000
,
10000001
00100010
10000001
00000000
00100010
00000000
00011000
00000000
,
00011000
01000100
00011000
00000000
01000100
10000001
01000100
00000000
,
10000001
00100010
10000001
00000000
00100010
00011000
00100010
00000000
,
00011000
00100010
00011000
00000000
00100010
10000001
00100010
00000000
,
10000001
01000100
10000001
00000000
01000100
00011000
01000100
00000000
,
00011000
00100010
00011000
00000000
00100010
10000001
00100010
00000000
,
10000001
01000100
10000001
00000000
01000100
00011000
01000100
00000000
,
00100010
00000000
00100010
00000000
01000100
10000001
01000100
00000000
,
00100010
00000000
00100010
00000000
01000100
00011000
01000100
00000000
,
01011100
01011100
11000101
11000101
,
01100110
00000000
10011001
00000000
01100110
10011001
01100110
00000000
,
01011100
00000000
01011100
00000000
,
00100010
00000000
00011000
00000000
00011000
01000100
10000001
00000000
;

//---------------dance-couple - ----------------
#NOTES:
     dance-couple:
     :
     Hard:
     8:
     :
00000000
00000000
00000000
00000000
,
00000000
00000000
00000000
00000000
,
00000000
00000000
00000000
00000000
,
01000100
00011000
01011100
00000000
00100010
10000001
11000101
00000000
,
01000100
00011000
01011100
00000000
10100011
00000000
01011100
00000000
,
00100010
10000001
01000100
00100010
00011000
01000100
00100010
10000001
,
01000100
00100010
00011000
01000100
00100010
10000001
10000001
00000000
,
00100010
10011001
01000100
00000000
10000001
01100110
00011000
00000000
,
00100010
00011000
00011000
00000000
00100010
10000001
10000001
00000000
,
00100010
00011000
01000100
00100010
10000001
01000100
00100010
00011000
,
01000100
00100010
10000001
01000100
00100010
00011000
00011000
00000000
,
00011000
11000101
10000001
01011100
,
00011000
10000001
10000001
00000000
10000001
00011000
00011000
00000000
,
00100010
00011000
00011000
00000000
01000100
10000001
10000001
00000000
,
00100010
10011001
00100010
10011001
,
00100010
10011001
11000101
00000000
00100010
10011001
01011100
00000000
,
00100010
10000001
01000100
00000000
00100010
00011000
01000100
00000000
,
00100010
00000000
10000001
00000000
01000100
00011000
11000101
00000000
,
00100010
00000000
00011000
00000000
01000100
10000001
10011001
00000000
,
01100110
00000000
10011001
00000000
11000101
00011000
00011000
00000000
,
10011001
00000000
01100110
00000000
00111010
10000001
10000001
00000000
,
01011100
00000000
01011100
00000000
11000101
00011000
01000100
00000000
,
01100110
00000000
10011001
00000000
01100110
00011000
10000001
00000000
,
01100110
00000000
10011001
00000000
01100110
00011000
01000100
00000000
,
10011001
00000000
01100110
00000000
11000101
00011000
01000100
00000000
,
01011100
00000000
01011100
00000000
00100010
10000001
11000101
00000000
,
01100110
00000000
10011001
00000000
01100110
10000001
00011000
00000000
,
00100010
00000000
10000001
00000000
,
00011000
00000000
00000000
00000000
00000000
00000000
00000000
00000000
01000100
10000001
00000000
00000000
00011000
00000000
00000000
00000000
,
00100010
10000001
00000000
00000000
00011000
00000000
00000000
00000000
01000100
10000001
00000000
00000000
00011000
00000000
00000000
00000000
,
00011000
01000100
00000000
00000000
00100010
00000000
00000000
00000000
00100010
10000001
00000000
00000000
01000100
00100010
00000000
00000000
,
00011000
10000001
10000001
00011000
,
10011001
00000000
00000000
00000000
01000100
00000000
00000000
00000000
00100010
01000100
00000000
00000000
10011001
00000000
00000000
00000000
,
01000100
10000001
00000000
00000000
00011000
00000000
00000000
00000000
01000100
00011000
00000000
00000000
10000001
00000000
00000000
00000000
,
01000100
10000001
00000000
00000000
00011000
00000000
00000000
00000000
01000100
00000000
01000100
00000000
01000100
00000000
00000000
00000000
,
10100011
00000000
01100110
00000000
01000100
10000001
01011100
00000000
,
00111010
00000000
01100110
00000000
01000100
00011000
11000101
00000000
,
01011100
00000000
01011100
00000000
11000101
00100010
01011100
00000000
,
01100110
00000000
10011001
00000000
01100110
10011001
01100110
00000000
,
00100010
10000001
00011000
00100010
10000001
01000100
00100010
10000001
,
00011000
00100010
01000100
00011000
10000001
01000100
01000100
00000000
;

//---------------dance-couple - ----------------
#NOTES:
     dance-couple:
     :
     Challenge:
     4:
     :
00000000
00000000
00000000
00000000
,
00000000
00000000
00000000
00000000
,
00000000
00000000
00000000
00000000
,
01000000
00010000
01010001
00000000
00100000
10000000
11000001
00000000
,
01000000
00010000
01010001
00000000
10100000
00000000
01010001
00000000
,
00100000
10000000
01000001
00100000
00010000
01000000
00100001
10000000
,
01000000
00100000
00010001
01000000
00100000
10000000
10000001
00000000
,
00000100
00000001
10000101
00000000
00000010
00001000
10001100
00000000
,
00000100
00000001
10000101
00000000
00001010
00000000
10000101
00000000
,
00000010
00001000
10000100
00000010
00000001
00000100
10000010
00001000
,
00000100
00000010
10000001
00000100
00000010
00001000
10001000
00000000
,
00010000
11000000
10000000
01010000
,
00010000
10000000
10000000
00000000
10000000
00010000
00010000
00000000
,
00000001
00001100
00001000
00000101
,
00000001
00001000
00001000
00000000
00001000
00000001
00000001
00000000
,
00100010
10011001
00100010
10011001
,
00100010
10001000
01000100
00000000
00100010
00010001
01000100
00000000
,
00100010
00011000
01000100
11000101
,
00100010
10000001
01000100
01011100
,
00000010
00000000
10000010
00000000
00000100
00000001
10000100
00000000
,
00000101
10000101
00001100
10001100
,
00000110
00000000
10000110
00000000
00000001
00000100
10001000
00000000
,
00000010
00000000
10000010
00000000
00000100
00001000
10000100
00000000
,
00100000
00000000
00100001
00000000
01000000
00010000
01000001
00000000
,
01010000
01010001
11000000
11000001
,
01100000
00000000
01100001
00000000
00010000
01000000
10000001
00000000
,
00100000
00000000
00100001
00000000
01000000
10000000
01000001
00000000
,
00000010
10000010
00001000
10001000
,
00000001
10000001
00000100
10001001
,
00100000
00100001
10000000
10000001
,
00010000
00010001
01000000
10010001
,
00010001
10001000
10001000
00010001
,
10011001
00000000
00000000
00000000
01000100
00000000
00000000
00000000
00100010
01000100
00000000
00000000
10011001
00000000
00000000
00000000
,
01000100
10001000
00000000
00000000
00010001
00000000
00000000
00000000
01000100
00010001
00000000
00000000
10001000
00000000
00000000
00000000
,
01000100
10001000
00000000
00000000
00010001
00000000
00000000
00000000
00100010
00000000
10001000
00000000
01000100
00000000
00000000
00000000
,
00100000
00100001
01010000
11000001
,
00000010
10000010
00000101
10001100
,
01010000
00000000
01010001
00000000
11000000
00100000
00010001
00000000
,
00000101
00000000
10000101
00000000
00001100
00000010
10000001
00000000
,
10000000
10000000
00000001
00000001
,
00010000
00000000
00001000
00000000
10000001
01000100
00011000
00000000
;

//---------------dance-solo - ----------------
#NOTES:
     dance-solo:
     :
     Easy:
     4:
     :
000000
000000
000000
000000
,
000000
000000
000000
000000
,
000000
000000
000000
000000
,
000100
000000
100000
000000
,
001000
000000
000001
000000
,
010000
010000
000001
000001
,
001000
001000
000100
100001
,
000100
000000
001000
000000
,
000100
000000
001000
000000
,
000010
000010
100000
100000
,
000001
010000
001000
100001
,
100000
100000
001000
010001
,
000010
000010
001000
100001
,
100000
100000
000001
000001
,
010000
000010
010000
100001
,
000100
000100
001000
001000
,
000100
001010
000100
011000
,
000001
001000
100000
001000
,
001000
010001
001000
100010
,
000100
000100
001000
001000
,
000100
001000
000100
100001
,
001010
001010
011000
011000
,
000101
001001
100001
010001
,
000100
000000
001000
000000
100000
000010
000010
000000
,
010000
000000
001000
000000
000100
000001
000001
000000
,
100000
000000
000100
000000
010000
000010
000010
000000
,
000001
000000
100000
000000
001000
000001
000001
000000
,
000100
000000
010000
000000
,
001000
000000
000001
001000
,
000100
000000
000001
000000
,
001000
000000
100000
001000
,
000001
000000
000100
000000
,
000010
000000
001001
001001
,
100010
000000
010000
000000
,
010000
000000
001001
001001
,
000100
000100
001000
001000
,
000010
001000
010000
100001
,
001010
001010
011000
011000
,
001001
000110
100001
010100
,
001000
000000
001000
000000
,
000100
000001
010000
100010
;

//---------------dance-solo - ----------------
#NOTES:
     dance-solo:
     :
     Medium:
     6:
     :
000000
000000
000000
000000
,
000000
000000
000000
000000
,
000000
000000
000000
000000
,
001000
000001
001000
000000
000100
100000
000100
000000
,
001000
000001
001000
000000
000010
100000
000010
000000
,
010000
000100
010000
000100
100000
001000
100000
001000
,
010000
000001
000100
000001
001000
000010
000010
000000
,
000100
100000
100000
000000
100000
001000
001000
000000
,
001000
000001
000001
000000
000001
000100
000100
000000
,
000010
010000
000001
000100
000010
010000
000001
001000
,
000001
100000
001000
010000
001000
100000
100000
000000
,
000001
000001
100000
100000
,
000010
000010
010000
010000
,
000001
001000
001000
000000
100000
001000
001000
000000
,
000001
001000
001000
000000
100000
001000
001000
000000
,
000100
000001
001000
000000
000010
000100
000010
000000
,
000100
010000
001000
000000
100000
000001
100000
000000
,
000010
010000
001000
001001
,
000100
000010
001000
101000
,
000100
000000
000100
000000
001000
100000
001000
000000
,
000100
000000
000100
000000
001000
000001
001000
000000
,
001010
001010
011000
011000
,
001100
000000
100001
000000
000001
001000
100000
000000
,
000100
000000
000100
000000
001000
010000
001000
000000
,
000100
000000
000100
000000
001000
000010
001000
000000
,
001001
001001
101000
101000
,
001100
000000
100001
000000
100000
001000
000001
000000
,
000001
001000
000001
000000
001000
100000
001000
000000
,
010000
000100
010000
000000
000010
000000
000001
000000
,
000001
001000
000001
000000
001000
100000
001000
000000
,
100000
000100
100000
000000
000100
000001
000100
000000
,
000010
000100
000010
000000
010000
000100
010000
000000
,
100000
001000
100000
000000
001000
000001
001000
000000
,
000001
000100
000001
000000
000100
100000
000100
000000
,
100000
001000
100000
000000
001000
000001
001000
000000
,
000100
000000
000100
000000
001000
010000
001000
000000
,
000100
000000
000100
000000
001000
000010
001000
000000
,
001001
001001
101000
101000
,
001100
000000
100001
000000
001100
100001
001100
000000
,
001010
000000
011000
000000
,
000100
000000
000001
000000
000010
001000
010000
000000
;

//---------------dance-solo - ----------------
#NOTES:
     dance-solo:
     :
     Hard:
     8:
     :
000000
000000
000000
000000
,
000000
000000
000000
000000
,
000000
000000
000000
000000
,
001000
000001
001001
000000
000100
100000
101000
000000
,
001000
000001
001001
000000
100100
000000
001001
000000
,
000100
100000
001000
010000
000001
001000
000100
100000
,
001000
010000
000001
001000
000100
100000
100000
000000
,
000100
100001
001000
000000
100000
001100
000001
000000
,
000100
000010
000010
000000
010000
000100
000100
000000
,
000100
100000
001000
000100
000001
001000
000100
100000
,
001000
010000
000001
001000
000100
100000
100000
000000
,
000010
011000
100000
001001
,
000001
010000
010000
000000
100000
000010
000010
000000
,
010000
000001
000001
000000
001000
100000
100000
000000
,
000100
100001
000100
100001
,
000100
100001
011000
000000
000100
100001
001010
000000
,
000100
100000
001000
000000
000100
000001
001000
000000
,
000100
000000
010000
000000
001000
000010
001100
000000
,
000100
000000
000001
000000
001000
000010
100001
000000
,
001100
000000
100001
000000
101000
000001
000001
000000
,
100001
000000
001100
000000
000101
010000
010000
000000
,
100010
000000
100010
000000
010001
000100
001000
000000
,
001100
000000
100001
000000
001100
000001
100000
000000
,
001100
000000
010010
000000
001100
000010
001000
000000
,
010001
000000
001100
000000
011000
000001
100000
000000
,
001010
000000
001010
000000
000100
100000
101000
000000
,
001100
000000
100001
000000
001100
100000
000010
000000
,
010000
000000
100000
000000
,
000001
000000
000000
000000
000000
000000
000000
000000
001000
100000
000000
000000
000010
000000
000000
000000
,
000100
100000
000000
000000
000010
000000
000000
000000
001000
100000
000000
000000
000001
000000
000000
000000
,
000010
001000
000000
000000
000100
000000
000000
000000
000010
100000
000000
000000
001000
000100
000000
000000
,
000001
010000
010000
000010
,
100001
000000
000000
000000
001000
000000
000000
000000
000100
001000
000000
000000
100001
000000
000000
000000
,
001000
010000
000000
000000
000001
000000
000000
000000
001000
000010
000000
000000
100000
000000
000000
000000
,
001000
010000
000000
000000
000010
000000
000000
000000
001000
000000
001000
000000
001000
000000
000000
000000
,
100100
000000
001010
000000
000001
100000
011000
000000
,
000101
000000
011000
000000
100000
000001
001010
000000
,
000101
000000
000101
000000
101000
000100
001001
000000
,
001100
000000
100001
000000
001010
100001
011000
000000
,
000010
100000
000001
000100
100000
001000
000100
010000
,
000001
000100
001000
000001
100000
001000
001000
000000
;
