
//----- song ID: boom -----//
#TITLE:Boom Boom Dollar (Red Monster Mix);
#ARTIST:King Kong & D.Jungle Girls;
#BANNER:Boom Boom Dollar (Red Monster Mix).png;
#BACKGROUND:Boom Boom Dollar (Red Monster Mix)-bg.png;
#CDTITLE:./CDTitles/Dancemania Super Classics 1.png;
#MUSIC:Boom Boom Dollar (Red Monster Mix).ogg;
#SAMPLESTART:43.122;
#SAMPLELENGTH:15;
#DISPLAYBPM:135;
#BPMS:0=31.579,4=135.135;

//---------------dance-single - ----------------
#NOTES:
     dance-single:
     :
     Beginner:
     2:
     :
0000
0000
0000
0000
,
0000
0000
0000
0000
,
0000
0000
0000
0000
,
0000
1000
0000
1000
,
0000
0010
0010
0010
,
0010
0000
0000
0000
,
0100
0000
0000
0000
,
1000
0000
0000
0000
,
0001
0001
0001
0001
,
0001
0000
0000
0000
,
0010
0000
0000
0000
,
0001
0000
0000
0000
,
0100
0100
0100
0100
,
0000
0001
0000
0100
,
0000
1000
0000
0010
,
0000
0001
0000
0010
,
0000
0000
0001
0001
,
0000
1000
0000
1000
,
0000
0001
0000
0001
,
0000
1000
0000
0000
,
0001
0001
0001
0001
,
0000
0010
0000
1000
,
0000
0000
0000
0000
,
0100
0100
0000
0100
,
0000
1000
0000
0010
,
0010
0010
0010
0010
,
0000
0010
0000
0001
,
0001
0000
0000
0000
,
1000
0000
0001
0000
,
1000
1000
1000
1000
,
0000
0000
0010
0000
,
0010
0010
0000
0010
,
0000
1000
0000
0001
,
0001
0001
0001
0001
,
0000
1000
0000
0000
,
0010
0000
0000
0000
,
1000
0000
0000
0000
,
1000
1000
1000
1000
,
1000
1000
1000
1000
;

//---------------dance-single - ----------------
#NOTES:
     dance-single:
     :
     Easy:
     4:
     :
0000
0000
0000
0000
,
0000
0000
0000
0000
,
0000
0000
0000
0000
,
0001
1000
0001
1000
,
0001
0001
1000
1000
,
0010
0000
0100
0000
,
0001
0000
1000
0000
,
0001
0000
0100
0000
,
1000
0001
1000
0001
,
0100
0000
1000
0000
,
0010
0000
0001
0000
,
1000
0000
0100
0000
,
0001
1000
0001
1000
,
0100
0000
0010
0000
,
0010
0000
0100
0000
,
1000
0000
0001
0000
,
1000
0000
0001
0000
,
0100
0000
1000
0000
,
0100
0000
0001
0000
,
0010
0000
1000
0000
,
0001
0000
0000
0000
,
1000
0001
1000
0001
,
1000
0001
1000
1000
,
0001
1000
0001
1000
,
0001
1000
0001
0001
,
1000
0001
1000
0001
,
1000
0001
1000
1000
,
0010
0000
0000
0000
,
0100
0000
0000
0000
,
1000
0001
1000
0001
,
1000
1000
1000
1000
,
0001
1000
0001
1000
,
0001
0001
0001
0001
,
1000
1000
0001
0001
,
1000
0001
1000
0001
,
0010
0000
0000
0000
,
0100
0000
0000
0000
,
0010
0010
0010
0010
,
0100
0100
0100
0100
;

//---------------dance-single - ----------------
#NOTES:
     dance-single:
     :
     Medium:
     7:
     :
0000
0000
0000
0000
,
0000
0000
0000
0000
,
0000
0000
0000
0000
,
0001
1000
0001
1000
,
0001
0001
0001
0000
1000
1000
1000
0000
,
0000
0010
0001
0010
,
1000
0010
1000
0010
,
0001
0010
0001
0000
,
0010
1000
0100
0001
0100
1000
0010
0000
,
1000
0100
0001
0100
,
1000
0010
1000
0010
,
0001
0010
1000
0000
,
0010
1000
0100
0001
0100
1000
0010
0000
,
1000
0010
1001
0000
,
0010
0010
1000
0100
,
0001
0010
0001
0000
0100
0000
1000
0000
,
1000
0000
0100
0000
0001
0000
0001
0100
,
1000
0000
0100
0000
0001
0000
1000
0100
,
0001
0000
0100
0000
1000
0000
0010
1000
,
0001
1000
0100
0001
,
0100
1000
0001
0000
,
0010
1000
0010
1001
,
0010
0000
0010
0000
1000
0100
0000
0000
,
0010
0001
0010
1000
,
1000
0100
0001
0000
0100
1000
0010
0000
,
0010
0001
0010
1000
,
0100
0001
0100
1000
,
0010
0000
0000
0000
,
0100
0000
0000
0000
,
0010
1000
0010
0001
,
0010
0010
0010
0010
,
1000
0100
0001
0000
0001
0100
1000
0000
,
0010
0010
0010
0010
,
0100
0001
0010
0000
0001
1000
0100
0000
,
0001
0000
0001
0000
1000
0001
1000
0000
,
0001
0100
1000
0000
1000
0100
0001
0000
,
0100
1000
0001
0100
,
0010
0010
1100
0101
,
0100
1000
0100
0001
0100
0000
0100
0000
;

//---------------dance-single - ----------------
#NOTES:
     dance-single:
     :
     Hard:
     9:
     :
0000
0000
0000
0000
,
0000
0000
0000
0000
,
0000
0000
0000
0000
,
0001
0000
1000
0000
0010
1000
0100
0000
,
0010
0001
0100
0000
0010
1000
0100
0000
,
0000
0000
0001
0000
0010
1000
0100
0000
,
1000
0000
0010
0000
1000
0010
0001
0000
,
0001
0010
1000
0000
0001
0001
0100
0000
,
0010
1000
0100
0001
0100
1000
0010
0000
,
1000
0000
0100
0000
0001
0001
0100
0000
,
1000
0000
0010
0000
1000
0000
0010
0010
,
0001
0000
0010
0010
1000
0000
0001
0000
,
0010
1000
0100
0001
0100
1000
0010
0000
,
1000
0000
0010
0000
1001
0000
0100
0100
,
0010
0000
0010
0000
1000
0000
0100
0100
,
0001
0010
0001
0000
0100
0000
1000
1000
,
0100
0000
0100
0000
0001
0000
0001
0100
,
1000
0000
0100
0000
0001
0000
1000
0100
,
0001
0000
0100
0000
1000
0000
0010
1000
,
0001
0000
1000
0000
0100
0000
0001
1000
,
0100
0000
1000
0000
0001
1000
0001
1000
,
0010
0010
0010
0000
1000
0010
0001
0000
,
0010
0010
0010
0000
1000
0100
0000
0000
,
0001
1000
0010
0000
1000
0001
0010
0000
,
1000
0010
0001
0000
0001
0010
1000
0000
,
0010
0010
1010
0000
1000
0010
0001
0000
,
0010
0010
1010
0000
0001
0010
1000
0000
,
0010
1000
0100
0001
0100
1000
0010
1000
,
0100
0001
0100
1000
0010
1000
0100
0001
,
0100
0100
1100
0000
0010
0010
1010
0000
,
0010
0000
0010
0010
0010
1000
0010
0000
,
1100
0100
0100
0000
0101
0100
0100
0000
,
0010
0000
0010
0010
0010
1000
0010
0000
,
0100
1100
0100
0000
0100
0101
0100
0000
,
0001
0001
1000
0001
,
0010
1000
0100
0001
0100
1000
0010
1000
,
0100
0001
0100
1000
0010
1000
0100
0001
,
0100
0000
0100
0000
0100
1000
0001
0000
,
0100
1000
0100
0001
0100
0000
1001
0000
;

//---------------dance-single - ----------------
#NOTES:
     dance-single:
     :
     Challenge:
     11:
     :
0000
0000
0000
0000
,
0000
0000
0000
0000
,
0000
0000
0000
0000
,
1000
0001
0010
0100
0010
0001
0100
0010
,
1000
0100
0010
0001
0010
0100
1000
0001
,
0100
0000
1100
0100
0010
0001
0100
0001
,
1000
0000
0110
0100
0001
0010
1000
0010
,
0001
1000
0100
0000
1000
0001
0100
0000
,
0010
1000
0100
0001
0010
0001
0100
1000
,
0001
0000
0101
0001
1000
1000
0100
0010
,
0001
0000
0110
0100
1000
0010
1000
0001
,
0100
0010
1000
0000
0100
0010
0001
0000
,
0010
0001
0100
1000
0010
1000
0100
0001
,
0010
0000
0100
0000
1000
0001
0100
0010
,
1000
0000
1010
0000
0101
0000
1000
0100
,
1000
0010
1000
0001
0100
0000
0001
0010
,
0100
0000
0000
0000
0100
0000
0000
0000
1000
0000
0000
0000
0001
0100
0001
0100
,
0001
0000
0100
0001
1000
0100
0001
0100
,
1000
0000
0101
0000
1100
0000
0010
0001
,
1000
0010
1000
0001
0100
0001
1000
0010
,
0100
0100
0001
0001
1000
1000
0001
0001
,
0011
MMMM
1100
MMMM
1010
MMMM
0101
MMMM
,
0010
1000
0001
0010
0001
1000
0001
0000
,
1010
MMMM
0101
MMMM
0011
MMMM
1100
MMMM
,
0001
0010
0100
0010
0001
0100
1000
0000
,
1001
MMMM
0110
MMMM
1001
MMMM
0110
MMMM
,
1000
0010
0100
0010
1000
0001
0100
0000
,
0022
0000
0000
0033
,
2200
0000
0000
3300
,
1010
MMMM
0011
MMMM
0101
MMMM
1100
MMMM
,
0010
1000
0100
0001
0010
0001
0100
1000
,
0101
MMMM
1100
MMMM
1010
MMMM
0011
MMMM
,
0100
1000
0010
0001
0100
0001
0010
1000
,
1001
MMMM
0110
MMMM
1001
MMMM
0110
MMMM
,
1000
0001
0010
1000
0010
0001
1000
0000
,
0220
0000
0000
0330
,
2002
0000
0000
3003
,
1100
MMMM
0101
MMMM
0011
MMMM
1010
MMMM
,
0100
1000
0010
0001
0100
0000
1001
0000
;

//---------------dance-double - ----------------
#NOTES:
     dance-double:
     :
     Easy:
     5:
     :
00000000
00000000
00000000
00000000
,
00000000
00000000
00000000
00000000
,
00000000
00000000
00000000
00000000
,
00001000
00010000
00000100
00001000
,
00000100
00010000
00001000
00010000
,
00001000
00000000
00000000
00000000
,
01000000
10000000
01000000
00001000
,
00100000
00010000
01000000
00000000
,
00010000
00001000
00010000
00011000
,
00000000
00000001
00000000
00010000
,
00001000
00000010
00001000
00010000
,
00001000
00100000
00010000
00001000
,
00010000
00001000
00010000
00011000
,
00000000
00000000
00000000
00000000
,
01000000
00010000
00100000
00001000
,
00010000
00000100
00010000
00001000
,
00000010
00000010
00000010
00000010
,
00000001
00000001
00000100
00000100
,
00001000
00001000
00001000
00001000
,
00000010
00000001
00000100
00001000
,
00100000
00100000
00100000
00100000
,
00010000
00010000
00001000
00001000
,
00000010
00000010
00001000
00010000
,
00001000
00001000
00010000
00010000
,
00100000
00100000
00001000
00010000
,
00100000
00100000
01000000
01000000
,
00010000
01000000
10000000
01000000
,
00001000
00000000
00000000
00000000
,
00000010
00000000
00000000
00000000
,
00010000
00010000
00100000
00100000
,
00010000
00000000
00010000
00000000
,
00001000
00001000
00000010
00000010
,
00001000
00000000
00001000
00000000
,
00100000
00100000
00010000
10000000
,
00010000
00000000
00001000
00000000
,
00110000
00001000
00000000
00000000
,
00001010
00001000
00000000
00000000
,
00000010
00000010
00001000
00001000
,
00010000
00010000
01000000
01000000
;

//---------------dance-double - ----------------
#NOTES:
     dance-double:
     :
     Medium:
     7:
     :
00000000
00000000
00000000
00000000
,
00000000
00000000
00000000
00000000
,
00000000
00000000
00000000
00000000
,
10010000
00100000
10000000
01000000
,
00010000
00001001
00000100
00010000
,
00000000
00000010
00000000
00000110
,
00000000
10010000
00000000
10010000
,
00000000
00100000
00000000
00000000
,
00100000
10000000
01000000
00010000
00001000
00000100
00000001
00000000
,
00000010
00000000
00000100
00000000
,
00000001
00000100
00001000
00100000
,
00010000
01000000
10000000
00000000
,
00100000
10000000
01000000
00010000
00001000
00000100
00000001
00000000
,
00000010
00000000
00001000
00000000
,
00100000
00000000
00100000
00000000
00010000
00001000
00000100
00000000
,
00000001
00000000
00001001
00000000
00000001
00000100
00001000
00000000
,
00001000
00000000
01000000
00000000
10000000
00000000
10000000
01000000
,
00010000
00000000
00000100
00000000
00000001
00000000
00000001
00000100
,
00001000
00000000
01000000
00000000
10000000
00000000
10000000
01000000
,
00010000
00000000
00000100
00000000
00000001
00000000
00000001
00000010
,
00001000
01100000
10000000
10000000
,
00010000
00010000
00001000
00001000
,
00000010
00001000
00000100
00000000
00000100
00001000
00000010
00000000
,
00010000
00010000
00001000
00001000
,
00100000
00010000
01000000
00000000
01000000
00010000
00100000
00000000
,
11000000
01010000
10100000
11000000
,
00010000
00000000
01000000
00000000
10000000
01000000
00010000
00000000
,
00000010
00000000
00000010
00001000
00010000
00000000
00000000
00000000
,
00000100
00000000
00000100
00001000
00000010
00000000
00000000
00000000
,
00000101
00001100
00000001
00000100
,
00010000
00000000
00010000
00000000
00010000
00001000
00010000
00000000
,
00100000
11000000
01010000
11000000
,
00010000
00000000
00001000
00000000
00010000
00001000
00010000
00000000
,
00110000
11000000
10010000
11000000
,
00010000
00000100
00000001
00001000
,
00100000
00000000
10000000
01000000
00010000
00000000
00000010
00000000
,
00001000
00000000
00000001
00000100
00001000
00000000
00100000
00000000
,
00001000
00001000
01000000
01000000
,
00010000
01000000
10000000
01000000
01000000
00000000
01100000
00000000
;

//---------------dance-double - ----------------
#NOTES:
     dance-double:
     :
     Hard:
     10:
     :
00000000
00000000
00000000
00000000
,
00000000
00000000
00000000
00000000
,
00000000
00000000
00000000
00000000
,
00011000
00000000
00100000
00000000
01000000
10000000
00010000
00000000
,
00100000
00001000
00010000
00000100
00001000
00000000
00000000
00000000
,
00000000
00010000
00001000
00010000
00000010
00001000
00000100
00000010
,
00000000
00001000
00000010
00010000
00001000
01000000
00010000
00000000
,
00000000
10000000
01000000
00100000
00010000
01000000
00001000
00010000
,
00000100
00000010
00000001
00001000
00000100
00000000
00010000
00010000
,
00000000
00001000
01000000
00100000
10000000
01000000
00100000
00010000
,
00000000
10000000
01000000
00100000
00001000
00010000
00001000
00000000
,
00000000
01000000
00100000
10000000
01000000
00100000
00001000
00010000
,
00000100
00000010
00000001
00000100
00000010
00000000
00010000
00010000
,
00000000
01000000
10000000
00010000
01000000
00100000
10000000
01000000
,
00100000
00000000
00001000
00000000
00010000
00010000
00000000
00000000
,
00000000
00000100
00000010
00000001
00000100
00000010
00001000
00000100
,
00000000
00000000
00000000
00000000
,
00000000
00010000
00001000
00100000
01000000
10000000
00010000
01000000
,
00100000
00000000
10000000
00000000
01000000
01000000
00000000
00000000
,
00100000
00000000
00001000
00000000
00010000
00000100
00000010
00000001
,
00000000
00000101
00000000
00010010
00000000
00101000
00000000
00010000
,
10000000
10000000
10000000
00000000
01000000
01000000
01000000
00000000
,
00100000
00010000
01000000
00001000
00100000
00010000
00000000
00000000
,
01000000
01000000
01000000
00000000
00001000
00001000
00001000
00000000
,
00010000
00000100
00000010
00000001
00000100
00000010
00000010
00000000
,
00001000
00000100
00010000
00000000
00001000
01000000
00100000
00000000
,
10000000
01000000
00100000
00010000
01000000
00001000
00000000
00000000
,
00010000
00000100
00000010
00000000
00000001
00000100
00000010
00000000
,
00001000
00000100
00010000
00000000
00001000
00000000
00010000
00000000
,
00001000
01000000
00100000
00000000
10000000
01000000
00100000
00000000
,
00001000
00010000
00000100
00001000
00000010
00000100
00000000
00000000
,
00001000
00000100
00010000
00000000
00000010
00000100
00000001
00000000
,
00001000
00000100
00010000
00000000
00001000
01000000
00100000
00000000
,
10000000
01000000
00100000
00000000
00010000
01000000
00100000
00000000
,
10000000
01000000
00010000
00001000
00000100
00000001
00000000
00000000
,
00000010
00000100
00001000
00000010
00010000
00001000
01000000
00100000
,
10000000
01000000
00100000
00001000
00010000
00000100
00000010
00000000
,
00001001
00000000
00001001
00000000
00000100
00010000
00001000
00000000
,
00100000
01000000
10000000
00100000
00100000
00000000
01010000
00000000
;

//---------------dance-double - ----------------
#NOTES:
     dance-double:
     :
     Challenge:
     11:
     :
00000000
00000000
00000000
00000000
,
00000000
00000000
00000000
00000000
,
00000000
00000000
00000000
00000000
,
00000001
00001000
00000010
00000100
00000010
00010000
00000100
00000000
,
00010000
00001000
01000000
00000000
00100000
10000000
01000000
00000000
,
00000000
00100000
00010000
01000000
00100000
00010000
00001000
00010000
,
00000000
00000100
00000010
00001000
00000010
00000001
00000100
00000010
,
00001000
00000001
00000100
00000000
00000001
00001000
00000100
00000000
,
00000010
00000001
00000100
00001000
00010000
01000000
10000000
00100000
,
00000000
01000000
00010000
10000000
01000000
00100000
00000000
00001000
,
00010000
00001000
00000100
00000010
00000001
00000010
00001000
00000100
,
00010000
00001000
01000000
00000000
00100000
01000000
00010000
00000000
,
00100000
10000000
01000000
00010000
00001000
00000100
00000001
00000010
,
00000000
00000100
00001000
00000100
00000010
00000001
00000100
00000010
,
00001000
00000000
00011000
00000000
01010000
00000000
00100000
01000000
,
00001000
00010000
01000000
00000000
00100000
00010000
01000000
00100000
,
01000000
00000000
00000000
00000000
01000000
00000000
00000000
00000000
00100000
00000000
10000000
00000000
00010000
10000000
00010000
10000000
,
00010000
10000000
01000000
00010000
00001000
00000010
00000001
00000010
,
00000100
00000000
00001100
00000000
00000101
00000000
00000010
00001000
,
00010000
01000000
00100000
01000000
00010000
10000000
01000000
00100000
,
00010000
00010000
00001000
00001000
00000100
00000100
00000010
00000010
,
00000011
MMMMMMMM
00001100
MMMMMMMM
00000011
MMMMMMMM
00001100
MMMMMMMM
,
00000010
00000001
00000100
00001000
00010000
00100000
10000000
00000000
,
10100000
MMMMMMMM
01010000
MMMMMMMM
10100000
MMMMMMMM
01010000
MMMMMMMM
,
00100000
10000000
01000000
00010000
00001000
00000010
00000001
00000000
,
00000011
MMMMMMMM
00001100
MMMMMMMM
00000011
MMMMMMMM
00001100
MMMMMMMM
,
00000001
00001000
00000100
00010000
00001000
00100000
00010000
00000000
,
20020000
00000000
00000000
30030000
,
02200000
00000000
00000000
03300000
,
00101000
MMMMMMMM
00011000
MMMMMMMM
00010010
MMMMMMMM
00011000
MMMMMMMM
,
00000100
00001000
00000010
00000001
00000010
00001000
00000100
00001000
,
00010010
MMMMMMMM
00011000
MMMMMMMM
00101000
MMMMMMMM
00011000
MMMMMMMM
,
01000000
00010000
00100000
10000000
00100000
00010000
01000000
00010000
,
01001000
MMMMMMMM
00101000
MMMMMMMM
00010010
MMMMMMMM
00010100
MMMMMMMM
,
00001000
00000001
00000010
00001000
00000010
00000001
00001000
00000000
,
00000220
00000000
00000000
00000330
,
00002002
00000000
00000000
00003003
,
00000101
MMMMMMMM
00000101
MMMMMMMM
00001100
MMMMMMMM
00011000
MMMMMMMM
,
00010000
01000000
10000000
00100000
00010000
00000000
10010000
00000000
;

//---------------dance-couple - ----------------
#NOTES:
     dance-couple:
     :
     Easy:
     2:
     :
00000000
00000000
00000000
00000000
,
00000000
00000000
00000000
00000000
,
00000000
00000000
00000000
00000000
,
00010001
10000100
00010001
10000100
,
00010001
00010001
10000100
10000100
,
00000000
00000000
00100010
00000000
,
00010001
00000000
01000100
00000000
,
00010001
00000000
10001000
00000000
,
10000100
00010001
10000100
00010001
,
01000100
00000000
10001000
00000000
,
00100010
00000000
00010001
00000000
,
10001000
00000000
01000100
01000100
,
00010001
10000100
00010001
10000100
,
01000100
00000000
00100010
00000000
,
00100010
00000000
01000100
00000000
,
10001000
00000000
00010100
00000000
,
10001000
00000000
00010100
00000000
,
01000100
00000000
10001000
00000000
,
01000100
00000000
00010001
00000000
,
00100010
00000000
10001000
00000000
,
00010001
00010001
00000000
00000000
,
00001000
00000001
00001000
00000001
,
00001000
00000001
00001000
00001000
,
00010000
10000000
00010000
10000000
,
00010000
10000000
00010000
00010000
,
10000001
00011000
10000001
00011000
,
10000001
00011000
10000001
10000001
,
00100010
00000000
00000000
00000000
,
01000100
00000000
00000000
00000000
,
10000001
00011000
10000001
00011000
,
10000001
10000001
10000001
10000001
,
00011000
10000001
00011000
10000001
,
00011000
00011000
00011000
00011000
,
10000001
10000001
00011000
00011000
,
10000001
00011000
10000001
00011000
,
00100010
00000000
00000000
00000000
,
01000100
00000000
00000000
00000000
,
00100000
00000010
00100000
00000010
,
01000000
00000100
01000000
00000100
;

//---------------dance-couple - ----------------
#NOTES:
     dance-couple:
     :
     Medium:
     5:
     :
00000000
00000000
00000000
00000000
,
00000000
00000000
00000000
00000000
,
00000000
00000000
00000000
00000000
,
00011000
10000001
00011000
10000001
,
00011000
00011000
00011000
00000000
10000001
10000001
10000001
00000000
,
00000000
00100010
00011000
00100010
,
10000001
00100010
10000001
00100010
,
00011000
00100010
00011000
00000000
,
00100010
10001000
01000100
00010000
01000100
10001000
00100010
00000000
,
10001000
01000100
00010001
01000100
,
10001000
00100010
10001000
00100010
,
00010001
00100010
10001000
00000000
,
00100010
10001000
01000100
00010001
01000100
00001000
00100010
00000000
,
10001000
00100010
10011001
00000000
,
00100010
00100010
10000001
01000100
,
00011000
00100010
00011000
00000000
01000100
00000000
10000001
00000000
,
10000001
00000000
01000100
00000000
00011000
00000000
00011000
01000100
,
10000001
00000000
01000100
00000000
00011000
00000000
10000001
01000100
,
00011000
00000000
01000100
00000000
10000001
00000000
00100010
10000001
,
00011000
10000001
01000100
00011000
,
01000100
10000001
00011000
00000000
,
00100010
10000001
00100010
10011001
,
00100010
00000000
00100010
00000000
10000001
01000100
00000000
00000000
,
00100010
00011000
00100010
10000001
,
10000001
01000100
00011000
00000000
01000100
10000001
00100010
00000000
,
00100010
00011000
00100010
10000001
,
01000100
00011000
01000100
10000001
,
00100010
00000000
00000000
00000000
,
01000100
00000000
00000000
00000000
,
00100010
10000001
00100010
00011000
,
00100010
00100010
00100010
00100010
,
10000001
01000100
00011000
00000000
00011000
01000100
10000001
00000000
,
00100010
00100010
00100010
00100010
,
01000100
00011000
00100010
00000000
00011000
10000001
01000100
00000000
,
00011000
00000000
00011000
00000000
10000001
00011000
10000001
00000000
,
00011000
01000100
10000001
00000000
10000001
01000100
00011000
00000000
,
01000100
10001000
00010001
01000100
,
00100010
00100010
11001100
01010101
,
01000100
10001000
01000100
00010001
01000100
00000000
01000100
00000000
;

//---------------dance-couple - ----------------
#NOTES:
     dance-couple:
     :
     Hard:
     6:
     :
00000000
00000000
00000000
00000000
,
00000000
00000000
00000000
00000000
,
00000000
00000000
00000000
00000000
,
00011000
00000000
10000001
00000000
00100010
10000001
01000100
00000000
,
00100010
00011000
01000100
00000000
00100010
10000001
01000100
00000000
,
00000000
00000000
00011000
00000000
00100010
10000001
01000100
00000000
,
10000001
00000000
00100010
00000000
10000001
00100010
00011000
00000000
,
00011000
00100010
10000001
00000000
00011000
00011000
01000100
00000000
,
00100010
10000000
01000110
00010000
01000100
10000000
00100010
00000000
,
10000001
00000000
01000100
00000000
00011000
00011000
01000100
00000000
,
10000001
00000000
00100010
00000000
10000001
00000000
00100010
00100010
,
00011000
00000000
00100010
00100010
10000001
00000000
00011000
00000000
,
00100010
00000001
01100100
00001000
01000100
00000001
00100010
00000000
,
10000001
00000000
00100010
00000000
10011001
00000000
01000100
01000100
,
00100010
00000000
00100010
00000000
10000001
00000000
01000100
01000100
,
00011000
00100010
00011000
00000000
01000100
00000000
10000001
10000001
,
01000100
00000000
01000100
00000000
00011000
00000000
00011000
01000100
,
10000001
00000000
01000100
00000000
00011000
00000000
10000001
01000100
,
00011000
00000000
01000100
00000000
10000001
00000000
00100010
10000001
,
00011000
00000000
10000001
00000000
01000100
00000000
00011000
10000001
,
01000100
00000000
10000001
00000000
00011000
10000001
00011000
10000001
,
00100010
00100000
00100010
00000000
10000001
00100010
00011000
00000000
,
00100010
00000010
00100010
00000000
10000001
01000100
00000000
00000000
,
00011000
10000001
00100010
00000000
10000001
00011000
00100010
00000000
,
10000001
00100010
00011000
00000000
00011000
00100010
10000001
00000000
,
00100010
00100010
10100011
00000000
10000001
00100010
00011000
00000000
,
00100010
00100010
10100011
00000000
00011000
00100010
10000001
00000000
,
00100010
10000001
01000100
00011000
01000100
10000001
00100010
10000001
,
01000100
00011000
01000100
10000001
00100010
10000001
01000100
00011000
,
01000100
01000100
11000101
00000000
00100010
00100010
10100011
00000000
,
00100010
00000000
00100010
00000010
00100010
00000001
00100010
00000000
,
11000101
01000100
01000100
00000000
01011100
01000100
01000100
00000000
,
00100010
00000000
00100010
00100000
00100010
10000000
00100010
00000000
,
01000100
11000101
01000100
00000000
01000100
01011100
01000100
00000000
,
00011000
00011000
10000001
00011000
,
00100010
10000001
01000100
00011000
01000100
10000001
00100010
10000001
,
01000100
00011000
01000100
10000001
00100010
10000001
01000100
00011000
,
01000100
00000000
01000100
00000000
01000100
10000001
00011000
00000000
,
01000100
10000001
01000100
00011000
01000100
00000000
10011001
00000000
;

//---------------dance-couple - ----------------
#NOTES:
     dance-couple:
     :
     Challenge:
     4:
     :
00000000
00000000
00000000
00000000
,
00000000
00000000
00000000
00000000
,
00000000
00000000
00000000
00000000
,
00010001
00000000
10001000
00000000
00100010
10001000
01000100
00000000
,
00100010
00010001
01000100
00000000
00100010
10001000
01000100
00000000
,
00000001
00000000
10000001
00000000
00000010
00001000
10000100
00000000
,
00001000
00000000
10000010
00000000
00001000
00000010
10000001
00000000
,
00000001
00000010
10001000
00000000
00000001
00000001
10000100
00000000
,
10000010
00001000
10000100
00000001
10000100
00001000
10000010
00000000
,
00010000
00000000
00010001
00000000
00100000
10000000
01000001
00000000
,
10000000
00000000
00100001
00000000
10000000
00100000
00010001
00000000
,
00010000
00100000
10000001
00000000
00010000
00010000
01000001
00000000
,
00100001
10000000
01000001
00010000
01000001
10000000
00100001
00000000
,
00001000
00000000
10000010
00000000
00001001
00000000
10000100
00000100
,
00000010
10000010
00001000
10000100
,
10000000
00000000
00100001
00000000
10010000
00000000
01000001
01000000
,
00100000
00100001
10000000
01000001
,
10001000
00000000
01000100
00000000
00010001
00000000
10001000
01000100
,
01000100
00000000
01000100
00000000
10001000
00000000
00100010
10001000
,
00010001
00000000
10001000
00000000
01000100
00000000
00010001
10001000
,
01000100
00000000
10001000
00000000
00010001
10001000
00010001
00000000
,
00100000
00100000
00100001
00000000
10000000
00100000
00010001
00000000
,
00100000
00100000
00100001
00000000
10000000
01000000
01000001
00000000
,
00000010
00000010
10000010
00000000
00001000
00000010
10000001
00000000
,
00000010
00000010
10000010
00000000
00001000
00000100
10000100
00000000
,
00100010
00100010
10101010
00000000
10001000
00100010
00010001
00000000
,
00100010
00100010
10101010
00000000
00010001
00100010
10001000
00000000
,
10000000
00000000
01000000
00000000
00010000
00010000
00010000
00000000
,
00001000
00000000
00000100
00000000
00000001
00000001
00000001
00000000
,
11000000
01000000
01000001
00000000
01010000
01000000
01000001
00000000
,
00100000
00000000
00100001
00100000
00100000
10000000
01000001
00000000
,
00001100
00000100
10000100
00000000
00000101
00000100
10000100
00000000
,
00000010
00000000
10000010
00000010
00000010
00001000
10000100
00000000
,
10000001
00011000
10000001
00000000
01011100
01000100
01000100
00000000
,
00011000
00000000
00011000
00000000
10000001
01000100
00000000
00000000
,
00100000
00100000
10010000
01000000
,
00000010
00000010
00001001
00000100
,
10010000
00001001
10010000
00001001
,
01010000
01010000
00001010
00001010
;

//---------------dance-solo - ----------------
#NOTES:
     dance-solo:
     :
     Easy:
     2:
     :
000000
000000
000000
000000
,
000000
000000
000000
000000
,
000000
000000
000000
000000
,
000001
010000
000010
100000
,
000001
000001
100000
100000
,
000000
000100
000000
001000
,
000000
000010
000000
100000
,
000000
000001
000000
010000
,
001000
000100
001000
000100
,
000000
000001
000000
001000
,
000000
000100
000000
100000
,
000000
000010
000000
010000
,
000001
100000
000010
010000
,
000000
001000
000000
000100
,
000000
000100
000000
001000
,
000000
010000
000000
000100
,
000000
001000
000000
000010
,
000000
100000
000000
001000
,
000000
000100
000000
000001
,
000000
100000
000000
000100
,
010000
000000
000000
000000
,
000001
100000
000010
010000
,
000001
100000
000010
000010
,
010000
000001
100000
000010
,
010000
000001
100000
100000
,
000010
010000
000001
100000
,
000010
010000
000001
000001
,
001000
000000
000000
000000
,
000100
000000
000000
000000
,
100000
000001
010000
000010
,
100000
100000
100000
100000
,
000001
010000
000010
100000
,
000001
000001
000001
000001
,
010000
010000
000010
000010
,
100000
000001
010000
000010
,
000100
000000
000000
000000
,
001000
000000
000000
000000
,
010000
010000
010000
010000
,
000010
000010
000010
000010
;

//---------------dance-solo - ----------------
#NOTES:
     dance-solo:
     :
     Medium:
     5:
     :
000000
000000
000000
000000
,
000000
000000
000000
000000
,
000000
000000
000000
000000
,
000001
100000
000001
100000
,
000010
000010
000010
000000
010000
010000
010000
000000
,
000001
000100
000001
000000
,
010000
000100
010000
000100
,
100000
000010
100000
000000
,
000001
000100
000010
010000
000001
100000
000100
000000
,
001000
000010
100000
000000
,
000001
000100
000001
000100
,
000010
010000
000001
000000
,
000100
001000
010000
000001
100000
000100
001000
000000
,
000001
000100
100001
000000
,
000010
000010
100001
000000
,
000100
000010
000100
000000
001000
000000
000000
000000
,
100000
000001
000100
000000
,
000010
010000
001000
000000
100000
000000
000001
000000
,
000100
001000
010000
000000
000001
000000
000000
000000
,
000100
000010
100000
000000
001000
000000
000100
000000
,
000001
010000
000010
000000
,
000100
000001
000100
000001
,
000100
000000
000100
000000
001000
010000
001000
000000
,
100000
000001
001000
000100
,
000100
100000
001000
000000
010000
000001
001000
000000
,
000100
100000
000010
000100
,
001000
010000
000001
000000
100000
000010
001000
000000
,
000100
000000
000000
000000
,
010000
000000
000000
000000
,
000001
000100
000001
010000
,
000010
000010
000010
000010
,
100000
001000
000010
000000
000010
001000
010000
000000
,
000001
000001
000001
000001
,
100000
000100
001000
000000
000010
100000
000001
000000
,
100000
000000
100000
000000
000010
010000
000010
000000
,
000100
000001
001000
000000
000010
000000
010000
000000
,
000100
100000
000100
000000
001000
000000
001000
000000
,
000100
000100
101000
001001
,
010000
001000
000100
000001
001000
000000
000010
000000
;

//---------------dance-solo - ----------------
#NOTES:
     dance-solo:
     :
     Hard:
     6:
     :
000000
000000
000000
000000
,
000000
000000
000000
000000
,
000000
000000
000000
000000
,
000010
000000
010000
000000
000100
100000
001000
000000
,
010000
000001
001000
000000
000010
100000
001000
000000
,
000000
000000
000100
000000
000001
100000
001000
000000
,
010000
000000
000100
000000
100000
001000
000100
000000
,
000001
000010
001000
000000
100000
010000
001000
000000
,
000100
100000
001000
000010
001000
010000
000100
000000
,
000000
000000
001000
000000
000100
000100
000001
000000
,
100000
000010
100000
000100
,
010000
010000
000010
000000
100000
100000
000100
000000
,
001000
000010
100000
000100
100000
001000
010000
000000
,
000001
001000
000010
000100
,
000001
001000
000001
000000
100000
001000
001000
000000
,
010000
000001
010000
000000
001000
000000
000100
000000
,
000100
000001
100000
000000
000100
010000
001000
000000
,
000001
001000
100000
000001
,
001000
010000
001000
000000
000010
100000
000001
000000
,
010000
000001
001000
000100
,
100000
001000
010000
000000
000001
000010
000001
000000
,
000100
000100
000100
000000
000010
100000
001000
000000
,
000100
000100
000100
000000
000001
001000
000001
000000
,
010000
000001
000100
000000
000001
010000
000100
000000
,
100000
001000
000010
000000
000010
001000
010000
000000
,
000001
000001
000001
000000
100000
000100
001000
000000
,
000001
000001
000001
000000
100000
000010
000001
000000
,
000010
100000
001000
000010
001000
100000
000100
100000
,
001000
000001
001000
010000
000100
010000
000001
000000
,
001000
001000
011000
000000
000100
000100
100100
000000
,
000010
000000
100000
100000
100000
000100
010000
000000
,
001000
001000
001000
000000
000010
000010
000010
000000
,
001000
000000
000100
000100
000100
000001
001000
000000
,
000010
100000
000010
000000
010000
000001
010000
000000
,
000100
000100
001000
000001
,
000100
000010
010000
000100
010000
000001
000100
001000
,
010000
000001
100000
000100
010000
001000
000010
000000
,
010000
010000
010000
000001
,
001000
010000
001000
000010
001000
000000
100001
000000
;
