
//----- song ID: badg -----//
#TITLE:BAD GIRLS;
#ARTIST:Juliet Roberts;
#BANNER:BAD GIRLS.png;
#BACKGROUND:BAD GIRLS-bg.png;
#CDTITLE:./CDTITLES/ZIPmania.png;
#MUSIC:BAD GIRLS.ogg;
#SAMPLESTART:55.345;
#SAMPLELENGTH:15;
#DISPLAYBPM:122;
#BPMS:0=55.728,4=122.283;

//---------------dance-single - ----------------
#NOTES:
     dance-single:
     :
     Beginner:
     2:
     :
0000
0000
0000
0000
,
0000
0000
0000
0000
,
0000
0000
0000
0000
,
0010
0000
0000
0000
,
0000
0000
0000
0000
,
0100
0000
0000
0000
,
0000
0000
0000
0000
,
1000
0000
0000
0000
,
0001
0000
0000
0000
,
0010
0000
0000
0000
,
0100
0000
0000
0000
,
0000
0000
0100
0000
,
0010
0000
0000
0000
,
0000
0000
0100
0000
,
1000
0000
0000
0000
,
0000
0000
0010
0000
,
0001
0000
0000
0000
,
0000
0000
1000
0000
,
0100
0000
0000
0000
,
0100
0000
0000
0000
0001
0000
0000
0010
,
0000
0000
0000
0000
,
1000
0000
0000
0000
0100
0000
0000
0001
,
0000
0000
0000
0000
,
0010
0000
0000
0000
1000
0000
0000
0100
,
0000
0000
0000
0000
,
0010
0000
0100
0000
,
0010
0000
0100
0000
,
1001
0000
0000
0000
,
0100
0000
0010
0000
,
0100
0000
0100
0000
,
0001
0000
0100
0000
,
0001
0000
1000
0000
,
0010
0000
0010
0000
,
1000
0000
0000
0000
,
1000
0000
0000
0000
,
1000
0000
0001
0000
,
0010
0000
0010
0000
,
0001
0000
0000
0000
,
0100
0000
1000
1000
;

//---------------dance-single - ----------------
#NOTES:
     dance-single:
     :
     Easy:
     4:
     :
0000
0000
0000
0000
,
0000
0000
0000
0000
,
0000
0000
0000
0000
,
0010
0000
0000
0000
,
0010
0000
0000
0000
,
0100
0000
0000
0000
,
0100
0000
0000
0000
,
1000
1000
0000
0000
,
0001
0001
0000
0000
,
0010
0010
0000
0000
,
0100
0100
0000
0000
,
0000
1000
0100
0000
,
0010
0000
0100
0000
,
0000
0001
0100
0000
,
1000
0001
1000
1000
,
0100
0100
0010
0000
,
0001
0001
0000
0000
,
1000
0000
1000
0000
,
0100
0001
0010
1000
,
0100
0100
0000
0000
0001
0001
0000
0010
,
0000
0000
0000
0000
,
1000
1000
0000
0000
0100
0100
0000
0001
,
0000
0000
0000
0000
,
0010
0010
0000
0000
1000
1000
0000
0100
,
0000
0000
0000
0000
,
0010
0000
0100
0000
,
0010
0001
0100
1000
,
1001
0010
0100
1000
,
0100
0001
0010
0001
,
0100
1000
0100
0100
,
0001
0010
0100
1001
,
0001
0001
1000
1000
,
0010
0100
0010
0100
,
1000
0000
0001
0000
0000
0000
0000
1000
,
1000
0000
0000
0000
,
1000
1000
0001
0001
,
0010
0100
0010
0100
,
0001
0000
1000
0000
0000
0000
0000
0100
,
0100
0000
1000
0001
;

//---------------dance-single - ----------------
#NOTES:
     dance-single:
     :
     Medium:
     6:
     :
0000
0000
0000
0000
,
0000
0000
0000
0000
,
0000
0000
0000
0000
,
1000
1100
0001
0101
,
0010
0100
1000
1001
,
0001
0101
1000
1100
,
0010
0100
0001
1001
,
1000
0001
1000
0110
,
0001
1000
0001
1001
,
0010
1100
0001
0101
,
0100
0010
1001
0100
,
0000
0100
1100
0000
,
0110
0000
0100
0000
1001
0000
1000
0100
,
0000
0010
0101
0000
,
0110
1001
0100
0100
,
0010
0100
1001
0010
,
1000
0100
0001
0001
,
0100
0010
0100
0000
,
1001
0100
0110
1000
,
0010
0100
0000
0000
0001
1000
0000
0110
,
0000
1000
0010
0001
,
1000
0001
0000
0000
0010
0100
0000
1001
,
0000
0100
0001
0010
,
0100
0010
0000
0000
1000
0001
0000
0110
,
0000
0001
0010
1000
,
0001
0001
0100
0100
,
0110
1001
0110
1000
,
1001
0010
0100
1000
,
1001
0001
0010
0001
,
0110
1000
0100
0100
,
1001
0010
0110
1000
,
1000
1100
0001
0101
,
1000
0001
0010
0000
0101
0000
1100
0000
,
0001
0100
0001
0000
0000
0000
0000
1000
,
0100
0000
0000
0000
1000
1000
0010
0010
,
0001
0101
1000
1100
,
0001
1000
0010
0000
1100
0000
0101
0000
,
1000
0100
1000
0000
0000
0000
0000
0001
,
0100
0000
0000
0000
1000
1000
0001
0001
;

//---------------dance-single - ----------------
#NOTES:
     dance-single:
     :
     Hard:
     8:
     :
0000
0000
0000
0000
,
0000
0000
0000
0000
,
0000
0000
0000
0000
,
1000
0001
0100
0000
0001
1000
0100
0000
,
0010
0100
1001
0000
0001
1000
0110
0000
,
0001
0001
1000
0000
1000
1000
0001
0000
,
1100
0101
0011
1100
,
0011
0001
1000
0000
1010
1000
0001
0000
,
1100
0000
0101
0000
0001
0100
1000
0000
,
0001
0110
1000
0000
1000
0110
0001
0000
,
0001
0100
0010
1000
0100
1000
0100
0000
,
0000
0010
0001
0100
1100
0000
0000
0000
,
0001
0001
1000
0000
1000
0000
0001
0100
,
0000
0010
1000
0100
0101
0000
0000
0000
,
0101
1100
0100
0100
,
0010
0010
0100
0000
1000
1000
0001
0000
,
0010
0000
0110
0000
0100
0100
1001
0000
,
0010
0000
1000
1000
0100
0100
0001
0000
,
0010
1000
0100
0001
0001
1000
0100
0000
,
1010
0100
0000
0000
1100
0001
0000
0110
,
0000
0000
1010
0000
0001
0100
1001
0000
,
0011
0100
0000
0000
0101
1000
0000
1001
,
0000
0000
0011
0000
1000
0100
1001
0000
,
1010
0100
0000
0000
1001
0100
0000
1001
,
0000
0000
1010
0100
0001
0000
1001
0000
,
0001
0100
0010
0100
1000
0001
0100
0010
,
1000
0100
1000
0100
0001
0010
0001
0000
,
1001
0000
0100
0000
1000
0110
0001
0000
,
1001
0000
0110
0000
0001
0110
1000
0000
,
0001
0001
1000
1000
1000
0110
0001
0000
,
0001
0001
1000
1000
1000
0110
0001
0000
,
1000
0010
0100
0000
0001
0010
0100
0000
,
1000
0001
0010
0000
0101
0000
1100
0000
,
1000
0100
0101
0000
0000
0000
0000
1000
,
0101
0000
0000
0000
1000
0001
0010
0100
,
0001
0010
0100
0000
1000
0010
0100
0000
,
0001
1000
0010
0000
1100
0000
0101
0000
,
0001
0100
1100
0000
0000
0000
0000
1001
,
0110
0000
0000
0000
1000
0100
0001
0010
;

//---------------dance-single - ----------------
#NOTES:
     dance-single:
     :
     Challenge:
     11:
     :
0000
0000
0000
0000
,
0000
0000
0000
0000
,
0000
0000
0000
0000
,
0001
0000
1000
0100
1000
0000
0001
0000
0010
0000
0100
1000
0100
0000
1000
0000
,
0010
0100
0001
0010
0100
1000
0110
0000
,
1000
0000
0001
0100
0001
0000
1000
0000
0100
0000
0010
0001
0010
0000
0100
0000
,
1000
0001
0100
0010
1000
0100
0101
0000
,
1010
0000
1000
0001
0100
0000
0001
0000
0011
0000
0001
1000
0100
0000
1000
0000
,
0010
1000
0100
0010
0001
1000
0110
0000
,
1100
0000
0010
0001
0100
0000
0010
0000
0110
0000
0010
1000
0100
0000
0010
0000
,
0100
1000
0001
0100
0010
1000
1001
0000
,
0000
0010
1000
0100
0101
0000
0010
1000
,
0001
1000
0100
1000
0001
0000
0101
1100
,
0000
0010
0001
0100
1100
0000
0010
0001
,
1000
0001
0100
0000
0010
0100
0110
0000
,
0000
0010
0010
0100
0001
0001
1000
0001
,
0010
0100
0110
0000
0100
0100
1001
0000
,
0010
0000
0001
0001
0100
0100
1000
1000
,
0010
0000
0001
0000
0100
0000
1000
0000
0010
1000
0010
0000
0100
0001
0100
0000
,
0011
1100
0000
0000
1010
0101
0000
0110
,
0000
0000
0011
0000
1000
0100
1001
0000
,
1010
0101
0000
0000
0011
1100
0000
1001
,
0000
0000
1010
0000
0001
0110
1001
0000
,
0011
0110
0000
0000
1010
0110
0000
1001
,
0000
0000
0011
0100
1000
0001
1000
0000
,
1000
0100
0010
0100
0001
1000
0100
0010
,
0001
0100
1000
0010
0001
0100
0110
0000
,
1001
0000
0000
0000
0100
0000
0000
0010
0001
0000
0110
0000
1000
0000
0001
0000
,
1001
0000
0000
0000
0110
0000
0000
0001
1000
0000
0110
0000
0001
0000
0000
0000
,
1000
0000
1000
0000
0001
0000
0000
0001
0010
0000
0110
0000
1000
0000
0001
0000
,
1000
1000
0001
0001
1000
0110
1001
0000
,
0001
0000
0010
0100
0010
0000
0001
0000
1000
0000
0010
0100
0010
0000
1000
0000
,
0001
1000
0010
1000
1100
0000
0101
0000
,
0011
0100
1100
0000
0000
0000
0000
0101
,
1100
0000
0000
0000
0000
0000
0000
0000
1000
0001
0010
0000
0001
1000
0100
0000
,
1000
0000
0010
0100
0010
0000
1000
0000
0001
0000
0010
0100
0010
0000
0001
0000
,
1000
0001
0010
0001
0101
0000
1100
0000
,
1010
0100
0101
0000
0000
0000
0000
1001
,
0110
0000
0000
0000
0000
0000
0000
0000
0001
1000
0100
0000
1000
0001
0100
0000
;

//---------------dance-double - ----------------
#NOTES:
     dance-double:
     :
     Easy:
     5:
     :
00000000
00000000
00000000
00000000
,
00000000
00000000
00000000
00000000
,
00000000
00000000
00000000
00000000
,
00100000
00000000
00100000
00000000
,
01000000
00000000
01000000
00000000
,
00010000
00000000
00001000
00000000
,
00010000
00001000
00010000
00000000
,
00010000
00010000
00000100
00000000
,
00001000
00001000
01000000
00000000
,
00100000
00100000
01000000
01000000
,
00010000
00001000
00000001
00001001
,
00000000
00000001
00000100
00000000
,
00000010
00000000
00000100
00000000
,
00000000
00010000
01000000
00000000
,
10000000
00010000
10000000
10000000
,
01000000
01000000
00100000
00000000
,
00001000
00010000
00000000
00000000
,
00010000
00000000
00010000
00000000
,
01000000
00010000
00100000
10000000
,
00100000
00100000
00000000
00000000
00010000
00010000
00000000
00001000
,
00000000
00010000
00001000
00010000
,
00000010
00000010
00000000
00000000
00000001
00000001
00000000
00000100
,
00000000
00001000
00000100
00001000
,
00010000
00001000
00000000
00000000
00100000
01000000
00000000
10010000
,
00000000
00100000
01000000
00100000
,
01000000
00000000
10000000
00000000
,
00100000
00010000
00001000
00000010
,
00001001
00000010
00000100
00011000
,
00100000
01000000
10000000
10010000
,
01000000
00001000
00010000
00000100
,
00000010
00000001
00000100
00001001
,
00001000
01000000
00010000
00000100
,
00001000
00000100
00000001
00001001
,
00000001
00000000
00000100
00000000
00000000
00000000
00000000
00001000
,
00010000
00000000
00000000
00000000
,
00010000
00000100
00001000
01000000
,
00100000
01000000
10000000
10010000
,
10000000
00000000
01000000
00000000
00000000
00000000
00000000
00010000
,
00001000
00000000
00001000
00010000
;

//---------------dance-double - ----------------
#NOTES:
     dance-double:
     :
     Medium:
     7:
     :
00000000
00000000
00000000
00000000
,
00000000
00000000
00000000
00000000
,
00000000
00000000
00000000
00000000
,
00100000
10000000
01000000
00010000
,
00011000
00000100
00000010
00000110
,
00000001
00001001
00000100
00001000
,
01000000
10000000
01000000
01100000
,
00010000
00010000
10000000
00001000
,
00010000
00010000
00010100
00011000
,
01001000
00011000
00010100
00011000
,
01000000
01100000
10000000
10010000
,
00000000
00010000
00100000
00000000
01010000
00000000
00000000
00000000
,
00010000
00000000
00010100
00000000
00001000
00000000
00000010
00000100
,
00000000
00001000
00000010
00000000
00000101
00000000
00000000
00000000
,
00001000
01001000
00100000
00100000
,
10000000
01000000
00001000
00010000
,
10000000
01000000
10000000
00000000
00100000
00000000
01100000
00000000
,
00010000
00001000
00000010
00000001
,
00001001
00000100
00010000
00011000
,
10000000
01000000
00000000
00000000
00100000
00010000
00000000
00011000
,
00000000
01000000
00011000
00000100
,
00000001
00000010
00000000
00000000
00000100
00001000
00000000
00011000
,
00000000
00000100
00011000
01000000
,
00100000
00010000
00000000
00000000
00000010
00001000
00000000
00011000
,
00000000
00100000
00011000
00000010
,
00000001
00000001
00000100
00000100
,
00000110
00001001
00000110
00010000
,
00001000
00100000
10000000
11000000
,
00010000
01000000
01100000
00001000
,
00010000
00000100
00000010
00001001
,
00001000
00000100
00000100
00000100
,
00000010
00000110
00001000
00001001
,
00000001
00000100
00001000
00010000
00011000
00000000
01001000
00000000
,
00100000
00010000
01000000
00000000
00000000
00000000
00000000
10000000
,
01000000
00000000
00000000
00000000
00010000
00010000
10000000
10000000
,
00100000
01100000
00010000
10010000
,
10000000
01000000
00010000
00001000
00011000
00000000
00010100
00000000
,
00000010
00001000
00000000
00000100
00000000
00000000
00000000
00000001
,
00000100
00000000
00000000
00001000
00001000
00000000
00000001
00000001
;

//---------------dance-double - ----------------
#NOTES:
     dance-double:
     :
     Hard:
     8:
     :
00000000
00000000
00000000
00000000
,
00000000
00000000
00000000
00000000
,
00000000
00000000
00000000
00000000
,
00100000
00010000
10000000
00000000
01001000
00000000
00010010
00000000
,
00001001
00000000
00000000
00000000
00000100
00000010
00000100
00000000
,
00011000
00000000
10010000
00000000
00100000
01000000
00100000
00000000
,
10010000
00000000
00000000
00000000
,
00100000
00001000
00010000
00000000
00001010
00000000
00000101
00000000
,
00000011
00000000
00001100
00001100
,
00010000
00001000
00010000
00000000
00110000
00000000
00110000
00000000
,
10000000
01100000
10010000
00000000
,
01000000
00000000
00001000
00010000
00001000
00000000
00001001
00000000
,
00000100
00000000
00000010
00000001
00000100
00000000
00000000
00000000
,
00000010
00000000
00010000
00001000
01000000
00000000
00100000
00000000
,
10010000
00000000
00100000
00001000
,
00010000
00000000
00000100
00000010
00000001
00000000
00001100
00000000
,
00010000
00000000
00001000
01000000
00100000
00000000
00000000
00000000
,
00000000
00000000
10000000
01000000
10000000
01000000
10000000
01000000
,
00000000
00000000
10010000
00000000
01000000
00001000
00010000
00000000
,
00000100
00000010
00000000
00000000
00000001
00000100
00000000
00001010
,
00000000
00010000
00000100
00000010
00000001
00001000
00000010
00000000
,
00010000
00001000
00000000
00000000
00100000
01000000
00000000
10010000
,
00000000
01000000
00001000
00010000
00000100
00000010
00000001
00000000
,
00001000
00000100
00000000
00000000
00010000
00001000
00000000
10010000
,
00000000
01000000
00100000
00010000
01000000
00001000
00010000
00000000
,
00000100
00000000
00000010
00000000
00000001
00000100
00000010
00000000
,
00001000
00000100
00010000
00001000
00000000
00001010
00001010
00000000
,
00011000
00000000
00101000
00000000
10000000
01000000
00100000
00000000
,
10010000
00000000
00011000
00000000
00100000
01000000
10000000
00000000
,
00010000
01000000
00001000
00010000
00000000
00000100
00000100
00000000
,
00000010
00000001
00000100
00000010
00000000
00001000
00001000
00000000
,
00000100
00010000
00001000
00100000
,
00010000
10000000
01000000
00100000
00010000
00000000
00100000
00000000
,
00001000
00010000
00001000
00000000
00000100
00001000
00000100
00000000
,
00000001
00000010
00000001
00000000
00001100
00000000
00000011
00000000
,
00001000
00000100
00010000
00001000
,
01000000
00100000
10000000
01000000
00100000
00000000
10010000
00000000
,
01000000
00001000
00010000
00000000
00000100
00000010
00000001
00000000
,
00000100
00000000
00000000
00001000
00001000
00000000
00010000
00010000
;

//---------------dance-double - ----------------
#NOTES:
     dance-double:
     :
     Challenge:
     11:
     :
00000000
00000000
00000000
00000000
,
00000000
00000000
00000000
00000000
,
00000000
00000000
00000000
00000000
,
00001000
00000000
00000001
00000100
00000001
00000000
00001000
00000000
00000100
00000000
00000010
00000100
00000010
00000000
00000100
00000000
,
00010000
00001000
00100000
00010000
10000000
00100000
01000000
00010000
,
10000000
00000000
00010000
01000000
00010000
00000000
10000000
00000000
01000000
00000000
00100000
00010000
00100000
00000000
01000000
00000000
,
00010000
00001000
00000010
00000001
00001000
00000010
00001010
00000000
,
00000100
00000000
00000010
00001000
00000001
00000000
00001000
00000000
00000100
00000000
00001000
00000001
00000100
00000000
00000010
00000000
,
00010000
00001000
00010000
01000000
00100000
00010000
01000000
00100000
,
10000000
00000000
00100000
01000000
00100000
00000000
10000000
00000000
01000000
00000000
00100000
01000000
00100000
00000000
00010000
00000000
,
00001000
00000100
00000010
00000001
00000010
00000100
00001001
00000000
,
00000000
00000010
00000001
00000100
00000001
00000000
00000010
00001000
,
00010000
01000000
10000000
00010000
10000000
00000000
01100000
10010000
,
00000000
00010000
10000000
01000000
00010000
00001000
00000010
00000100
,
00000010
00000001
00000100
00000000
00000010
00001000
00001010
00000000
,
00000000
00000001
00000100
00001000
00010000
00001000
00010000
01000000
,
10000000
00010000
10010000
00000000
00100000
00100000
01000000
00000000
,
01010000
00000000
00100000
10000000
01000000
00001000
00010000
00000010
,
00001000
00000010
00000001
00001000
00000010
00000100
00000010
00000000
,
00001010
00000101
00000000
00000000
00000011
00001100
00000000
00011000
,
00000000
00100000
00010000
00100000
01000000
10000000
00010000
00000000
,
01100000
10010000
00000000
00000000
01010000
00011000
00000000
00001010
,
00000000
00000100
00000001
00000000
00000010
00000100
00001000
00000000
,
00010100
00011000
00000000
00000000
00101000
00110000
00000000
10010000
,
00000000
00100000
10000000
01000000
10000000
00100000
01000000
00010000
,
10000000
01000000
00010000
01000000
00010000
00001000
00010000
00001000
,
00000010
00000001
00001000
00000010
00000100
00000010
00000110
00000000
,
00001001
00000000
00000000
00000000
00000100
00000000
00000000
00000010
00010000
00000000
00001000
00000000
00100000
00000000
01000000
00000000
,
10000000
00000000
00000000
00000000
01010000
00000000
00000000
00100000
10000000
00000000
01000000
00000000
00010000
00000000
00001000
00000000
,
00010000
00000000
00000000
00000000
00001010
00000000
00000000
00000100
00000001
00000000
00000010
00000000
00001000
00000000
00000100
00000000
,
00000001
00000000
00000000
00000000
00000110
00000000
00000000
00001000
00010000
00000000
00100000
00000000
01100000
00000000
00000000
00000000
,
00010000
00000000
10000000
01000000
10000000
00000000
00010000
00000000
01000000
00000000
00100000
01000000
00100000
00000000
00010000
00000000
,
00001000
00000100
00000010
00001000
00001100
00000000
00000101
00000000
,
00001010
00010000
00011000
00000000
00000000
00000000
00000000
00110000
,
11000000
00000000
00000000
00000000
00000000
00000000
00000000
00000000
10000000
00010000
01000000
00000000
00010000
10000000
01000000
00000000
,
00100000
00000000
00001000
00010000
00001000
00000000
00010000
00000000
00000100
00000000
00000010
00000100
00000010
00000000
00000100
00000000
,
00001000
00000001
00000100
00000010
00001010
00000000
00011000
00000000
,
00110000
01000000
11000000
00000000
00000000
00000000
00000000
10010000
,
01100000
00000000
00000000
00000000
00000000
00000000
00000000
00000000
10000000
00010000
01000000
00000000
00010000
10000000
01000000
00000000
;

//---------------dance-couple - ----------------
#NOTES:
     dance-couple:
     :
     Easy:
     2:
     :
00000000
00000000
00000000
00000000
,
00000000
00000000
00000000
00000000
,
00000000
00000000
00000000
00000000
,
00100010
00000000
00000000
00000000
,
00100010
00000000
00000000
00000000
,
01000100
00000000
00000000
00000000
,
01000100
00000000
00000000
00000000
,
10001000
10001000
00000000
00000000
,
00010001
00010001
00000000
00000000
,
00100010
00100010
00000000
00000000
,
01000100
01000100
00000000
00000000
,
00000000
10001000
01000100
00000000
,
00100010
00000000
01000100
00000000
,
00000000
00010001
01000100
00000000
,
10001000
00010001
10001000
10001000
,
01000100
01000100
00100010
00000000
,
00010001
00010001
00000000
00000000
,
10000001
00000000
10000001
00000000
,
01000100
00011000
00100010
10000001
,
01000000
01000000
00000000
00000000
00010000
00010000
00000000
00100000
,
00000000
00000010
00000001
00000010
,
00001000
00001000
00000000
00000000
00000100
00000100
00000000
00000001
,
00000000
00100000
00010000
00100000
,
00100010
00100010
00000000
00000000
10001000
10001000
00000000
01000100
,
00000000
00010001
00100010
00010001
,
00100010
00000000
01000100
00000000
,
00100010
00010001
01000100
10001000
,
10011001
00100010
01000100
10000001
,
01000100
00011000
00100010
00011000
,
01000100
10000001
01000100
01000100
,
00011000
00100010
01000100
10011001
,
00010001
00010001
10001000
10001000
,
00100010
01000100
00100010
01000100
,
10001000
00000000
00010001
00000000
00000000
00000000
00000000
10001000
,
10001000
00000000
00000000
00000000
,
10001000
10001000
00010001
00010001
,
00100010
01000100
00100010
01000100
,
00010001
00000000
10001000
00000000
00000000
00000000
00000000
01000100
,
01000100
00000000
10000001
00011000
;

//---------------dance-couple - ----------------
#NOTES:
     dance-couple:
     :
     Medium:
     4:
     :
00000000
00000000
00000000
00000000
,
00000000
00000000
00000000
00000000
,
00000000
00000000
00000000
00000000
,
10001000
11001100
00010001
01010101
,
00100010
01000100
10001000
10011001
,
00010001
01010101
10001000
11001100
,
00100010
01000100
00010001
10011001
,
10000001
00011000
10000001
01100110
,
00011000
10000001
00011000
10011001
,
00100010
11000101
00011000
01011100
,
01000100
00100010
10011001
01000100
,
00000000
01000100
11001100
00000000
,
01100110
00000000
01000100
00000000
10011001
00000000
10001000
01000100
,
00000000
00100010
01010101
00000000
,
01100110
10011001
01000100
01000100
,
00100010
01000100
10011001
00100010
,
10000001
01000100
00011000
00011000
,
01000100
00100010
01000100
00000000
,
10011001
01000100
01100110
10000001
,
00100000
01000000
00000000
00000000
00010000
10000000
00000000
01101001
,
00000000
10001000
00100010
00010001
,
00000001
00001000
00000000
00000000
00000010
00000100
00000000
01101001
,
00000000
01000100
10001000
00100010
,
01000100
00100010
00000000
00000000
10001000
00010001
00000000
01100110
,
00000000
00010001
00100010
10001000
,
00011000
00011000
01000100
01000100
,
01100110
10011001
01100110
10000001
,
10011001
00100010
01000100
10000001
,
10011001
00011000
00100010
00011000
,
01100110
10000001
01000100
01000100
,
10011001
00100010
01100110
10000001
,
10001000
11001100
00010001
01010101
,
10001000
00010001
00100010
00000000
01010101
00000000
11001100
00000000
,
00010001
01000100
00010001
00000000
00000000
00000000
00000000
10001000
,
01000100
00000000
00000000
00000000
10001000
10001000
00100010
00100010
,
00010001
01010101
10001000
11001100
,
00010001
10001000
00100010
00000000
11001100
00000000
01010101
00000000
,
10001000
01000100
10001000
00000000
00000000
00000000
00000000
00010001
,
01000100
00000000
00000000
00000000
10000001
10000001
00011000
00011000
;

//---------------dance-couple - ----------------
#NOTES:
     dance-couple:
     :
     Hard:
     5:
     :
00000000
00000000
00000000
00000000
,
00000000
00000000
00000000
00000000
,
00000000
00000000
00000000
00000000
,
10001000
00010001
01000100
00000000
00010001
10001000
01000100
00000000
,
00100010
01000100
10011001
00000000
00010001
10001000
01100110
00000000
,
00010001
00010001
10001000
00000000
10001000
10001000
00010001
00000000
,
11001100
01010101
00110011
11001100
,
00110011
00010001
10001000
00000000
10101010
10001000
00010001
00000000
,
11001100
00000000
01010101
00000000
00010001
01000100
10001000
00000000
,
00010001
01100110
10001000
00000000
10001000
01100110
00010001
00000000
,
00010001
01000100
00100010
10001000
01000100
10001000
01000100
00000000
,
00000000
00100010
00010001
01000100
11001100
00000000
00000000
00000000
,
00010001
00010001
10001000
00000000
10001000
00000000
00010001
01000100
,
00000000
00100010
10001000
01000100
01010101
00000000
00000000
00000000
,
01010101
11001100
01000100
01000100
,
00100010
00100010
01000100
00000000
10000001
10000001
00011000
00000000
,
00100010
00000010
01100110
00000000
01000100
01000100
10011001
00000000
,
00100010
00000010
10000001
10000001
01000100
01000100
00011000
00001000
,
00100010
10000001
01000100
00011000
00011000
10000001
01000100
00000000
,
10100000
01000000
00000000
00000000
11000000
00010000
00000000
01100110
,
00000000
00000000
10100011
00000000
00011000
01000100
10011001
00000000
,
00000011
00000100
00000000
00000000
00000101
00001000
00000000
10011001
,
00000000
00000000
10100011
00000000
00011000
01000100
10011001
00000000
,
10100011
01000100
00000000
00000000
10011001
01000100
00000000
10011001
,
00000000
00000000
10100011
01000100
00011000
00000000
10011001
00000000
,
00011000
01000100
00100010
01000100
10000001
00011000
01000100
00100010
,
10000001
01000100
10000001
01000100
00011000
00100010
00011000
00000000
,
10011001
00000000
01000100
00000000
10001000
01100110
00010001
00000000
,
10011001
00000000
01100110
00000000
00010001
01100110
10001000
00000000
,
00010001
00010001
10001000
10001000
10001000
01100110
00010001
00000000
,
00010001
00010001
10001000
10001000
10001000
01100110
00010001
00000000
,
10001000
00100010
01000100
00000000
00010001
00100010
01000100
00000000
,
10001000
00010001
00100010
00000000
01010101
00000000
11001100
00000000
,
10001000
01000100
01010101
00000000
00000000
00000000
00000000
10001000
,
01010101
00000000
00000000
00000000
10001000
00010001
00100010
01000100
,
00010001
00100010
01000100
00000000
10001000
00100010
01000100
00000000
,
00010001
10001000
00100010
00000000
11001100
00000000
01010101
00000000
,
00010001
01000100
11001100
00000000
00000000
00000000
00000000
10011001
,
01100110
00000000
00000000
00000000
10000001
01000100
00011000
00100010
;

//---------------dance-couple - ----------------
#NOTES:
     dance-couple:
     :
     Challenge:
     4:
     :
00000000
00000000
00000000
00000000
,
00000000
00000000
00000000
00000000
,
00000000
00000000
00000000
00000000
,
10000000
00010000
01000001
00000000
00010000
10000000
01000001
00000000
,
00100000
01000000
10010001
00000000
00010000
10000000
01100001
00000000
,
00010000
00010000
10000001
00000000
10000000
10000000
00010001
00000000
,
11000000
01010001
00110000
11000001
,
00001000
00000001
10000100
00000000
00000001
00001000
10000100
00000000
,
00000010
00000100
10001001
00000000
00000001
00001000
10000110
00000000
,
00000001
00000001
10001000
00000000
00001000
00001000
10000001
00000000
,
00001100
10000101
00000011
10001100
,
00010000
00000000
01000001
00000000
10000000
10000000
01000001
00000000
,
00010000
00000000
10000001
00000000
01000000
00000000
01000001
01000000
,
00000001
00000000
10000100
00000000
00001000
00001000
10000100
00000000
,
00000001
00000000
10001000
00000000
00000100
00000000
10000100
00000100
,
00100000
00100000
01000001
00000000
10000000
10000000
00010001
00000000
,
00100000
00000000
01100001
00000000
01000000
01000000
10010001
00000000
,
00000010
00000010
10000100
00000000
00001000
00001000
10000001
00000000
,
00000010
00000000
10000110
00000000
00000100
00000100
10001001
00000000
,
10100000
01000000
00000001
00000000
11000000
00010000
00000001
01100000
,
00000000
00000000
10100001
00000000
00010000
01000000
10010001
00000000
,
00001010
00000100
10000000
00000000
00001100
00000001
10000000
00000110
,
00000000
00000000
10001010
00000000
00000001
00000100
10001001
00000000
,
00010000
00001000
00000000
00000000
00001000
00010000
00000000
10011001
,
00000000
01000100
01000100
01000100
,
00010001
01000100
00100010
01000100
10001000
00010001
01000100
00100010
,
10001000
01000100
10001000
01000100
00010001
00100010
00010001
00000000
,
10001001
00000000
00000100
00000000
00001000
00000110
00000001
00000000
,
10001001
00000000
00000110
00000000
00000001
00000110
00001000
00000000
,
10010001
00000000
01000000
00000000
10000000
01100000
00010000
00000000
,
10010001
00000000
01100000
00000000
00010000
01100000
10000000
00000000
,
10001000
00000010
00000100
00000000
10000001
00000010
00000100
00000000
,
10001000
00000001
00000010
00000000
10000101
00000000
00001100
00000001
,
10000100
00000000
00000000
00000000
10000000
00000000
00000000
00001000
,
10000101
00000000
10000100
00000010
,
10000001
00100000
01000000
00000000
00010001
00100000
01000000
00000000
,
10000001
00010000
00100000
00000000
01010001
00000000
11000000
00010000
,
01000001
00000000
00000000
00000000
00000001
00000000
00000000
10000000
,
01010001
00000000
01000001
00100000
;

//---------------dance-solo - ----------------
#NOTES:
     dance-solo:
     :
     Easy:
     3:
     :
000000
000000
000000
000000
,
000000
000000
000000
000000
,
000000
000000
000000
000000
,
000010
000000
000000
000000
,
010000
000000
000000
000000
,
001000
000000
000000
000000
,
001000
000000
000000
000000
,
000100
000100
000000
000000
,
000001
000001
000000
000000
,
100000
100000
000000
000000
,
001000
001000
000000
000000
,
000100
000001
000000
000000
,
100000
000000
000010
000000
,
001000
000100
000000
000000
,
100000
000000
000001
000000
,
010000
010000
000100
000000
,
100000
100000
000010
000000
,
001000
000000
001000
000000
,
000001
100000
000100
010000
,
000001
000001
000000
000000
000100
000100
000000
001000
,
000000
000000
000000
000000
,
010000
010000
000000
000000
000001
000001
000000
001000
,
000000
000000
000000
000000
,
000010
000010
000000
000000
100000
100000
000000
001000
,
000000
000000
000000
000000
,
000100
000000
000001
000000
,
010000
000010
001000
000001
,
100001
001000
000100
000001
,
010000
000100
100000
000010
,
001000
000001
000100
000100
,
000001
001000
000100
100001
,
001000
001000
000010
000010
,
100000
001000
100000
001000
,
100000
000000
000001
000000
000000
000000
000000
001000
,
001000
000000
000000
000000
,
000010
000010
100000
100000
,
000001
000100
000001
000100
,
001000
000000
100000
000000
000000
000000
000000
000001
,
000001
000000
010000
000010
;

//---------------dance-solo - ----------------
#NOTES:
     dance-solo:
     :
     Medium:
     5:
     :
000000
000000
000000
000000
,
000000
000000
000000
000000
,
000000
000000
000000
000000
,
010000
001001
000010
101000
,
000100
000001
001000
001100
,
100000
101000
000100
000101
,
010000
000100
001000
100001
,
001000
000100
000001
011000
,
000001
100000
000001
100001
,
000100
011000
000001
001010
,
100000
001000
100001
001000
,
000000
000100
110000
000000
,
100001
000000
000100
000000
011000
000000
100000
000001
,
000000
000100
001001
000000
,
001100
100001
001000
001000
,
000100
001000
100001
001000
,
000010
000100
001000
001000
,
010000
000001
010000
000000
,
100010
001000
001100
000001
,
001000
000100
000000
000000
100000
000001
000000
001100
,
000000
000001
000100
000010
,
100000
000001
000000
000000
000100
001000
000000
100001
,
000000
001000
000010
000100
,
001000
000100
000000
000000
000001
100000
000000
001100
,
000000
010000
001000
000100
,
000001
000001
001000
001000
,
100001
011000
001010
100000
,
100001
000100
001000
000001
,
100001
001000
000100
000001
,
011000
000001
001000
001000
,
100010
001000
001100
000001
,
100000
101000
000001
001001
,
100000
001000
000010
000000
001100
000000
100001
000000
,
000100
001000
000100
000000
000000
000000
000000
010000
,
000001
000000
000000
000000
100000
000010
000100
000100
,
000001
001001
100000
101000
,
000001
100000
000100
000000
101000
000000
010001
000000
,
100000
000010
100000
000000
000000
000000
000000
001000
,
000100
000000
000000
000000
000001
000001
010000
000000
;

//---------------dance-solo - ----------------
#NOTES:
     dance-solo:
     :
     Hard:
     6:
     :
000000
000000
000000
000000
,
000000
000000
000000
000000
,
000000
000000
000000
000000
,
100000
001000
000010
000000
001000
000100
000001
000000
,
001000
000100
100001
000000
000001
100000
001100
000000
,
000010
000010
100000
000000
010000
010000
000001
000000
,
101000
010001
100010
010100
,
000001
100000
001000
000000
000100
000001
100000
000000
,
001010
000000
100001
000000
000010
001000
100000
000000
,
010000
001000
000001
000000
100000
001000
000001
000000
,
000001
001000
000100
000001
010000
000100
001000
000000
,
000000
000010
100000
001000
000100
000000
000000
000000
,
000001
000001
100000
000000
100000
000000
000001
001000
,
000000
000010
100000
001000
001000
000000
000000
000000
,
010001
000011
001000
001000
,
010000
010000
000001
000000
001000
001000
000010
000000
,
100000
000000
001100
000000
000001
000001
001000
000000
,
000100
000000
100000
100000
001000
001000
000010
000000
,
001000
100000
000100
001000
001000
000001
010000
000000
,
001000
001000
000000
000000
100000
000001
000000
001100
,
000000
000000
100001
000000
000010
001000
100000
000000
,
001000
000001
000000
000000
100000
001000
000000
100001
,
000000
000000
100100
000000
001000
000010
100000
000000
,
001000
000100
000000
000000
000001
001000
000000
100001
,
000000
000000
010000
001000
000100
000000
100001
000000
,
001000
000010
100000
001000
000100
000001
010000
000100
,
100000
001000
100000
001000
000100
000001
000100
000000
,
001100
000000
100000
000000
000001
001000
010000
000000
,
100001
000000
001100
000000
000001
001000
010000
000000
,
000100
000100
100000
100000
100000
001000
000010
000000
,
000001
000001
000100
000100
000100
000010
010000
000000
,
000100
100000
001000
000000
000100
000001
001000
000000
,
000010
100000
001000
000000
001001
000000
101000
000000
,
000001
001000
010000
000000
000000
000000
000000
000001
,
100000
000000
000000
000000
100000
000001
000100
001000
,
010000
000001
001000
000000
000100
100000
001000
000000
,
000100
000001
001000
000000
101000
000000
001001
000000
,
010000
001000
000010
000000
000000
000000
000000
100001
,
001100
000000
000000
000000
000010
001000
010000
001000
;
