#TITLE:Little Bitch;
#ARTIST:The Specials;
#BANNER:Little Bitch.png;
#BACKGROUND:Little Bitch-bg.png;
#CDTITLE:./CDTitles/Dancemania Summers.png;
#MUSIC:Little Bitch.ogg;
#SAMPLESTART:38.12;
#SAMPLELENGTH:15;
#DISPLAYBPM:158;
#BPMS:0=33.708,4=152.256,13=153.659,20=160.714,21=158.451,36=159.763,72=157.643,105=159.868,132=159.549,176=157.434,188=158.08,203=158.537;
#BGCHANGES:0=Little Bitch.avi=1=0=0=0,206=Little Bitch-bg.png=1=0=0=1;

//---------------dance-single - ----------------
#NOTES:
     dance-single:
     :
     Beginner:
     3:
     :
0000
0000
0000
0000
,
0000
0000
0000
0000
,
0000
0000
0000
0000
,
0000
0001
0000
0001
,
0000
0001
0000
0001
,
0000
0010
0010
0000
,
0000
1000
0000
1000
,
0000
1000
0000
1000
,
0000
0001
0000
0001
,
0000
0001
0000
0001
,
0000
0100
0000
0100
,
0000
0100
0000
0100
,
0000
0010
0000
0010
,
0000
0010
0000
0010
,
0000
1001
0000
0100
,
0000
0100
0000
0100
,
0000
1001
0000
0100
,
0000
0100
0000
0100
,
0000
0110
0000
0001
,
0000
0110
0000
1000
,
0000
0110
0000
0001
,
0000
0110
0000
1000
,
0000
0000
0000
0100
,
0000
0000
0000
0001
,
0000
0000
0000
0010
,
0000
0000
0000
1000
,
0000
0010
0010
0000
,
0000
1000
0000
1000
,
0000
1000
0000
1000
,
0000
0001
0000
0001
,
0000
0001
0000
0001
,
0001
0000
0000
0000
,
0100
0000
0000
0000
,
1000
0000
0000
0000
,
0010
0000
0000
0000
,
0001
0000
0000
0000
,
0100
0000
0000
0000
,
1000
0000
0000
0000
,
0010
0000
0000
0000
,
0010
0010
0010
0010
,
0010
0000
0000
0000
,
0100
0100
0100
0100
,
0100
0000
0000
0000
,
1000
1000
1000
1000
,
1000
0000
0000
0000
,
0001
0001
0001
0001
,
0001
0001
0001
0000
,
1001
0000
0000
0001
,
0000
0000
0000
0100
,
0000
0000
0000
1000
,
0000
0000
0000
0010
,
0000
0010
0010
0000
;

//---------------dance-single - ----------------
#NOTES:
     dance-single:
     :
     Easy:
     6:
     :
0000
0000
0000
0000
,
0000
0000
0000
0000
,
0000
0000
0000
0000
,
0000
0001
0000
0001
,
0000
0001
0000
0001
,
0000
0010
0100
0000
,
0000
0001
0000
0001
,
0000
0010
0000
0010
,
0000
1000
0000
1000
,
0000
0100
0000
0100
,
0000
0001
0001
0001
,
0000
0010
0010
0010
,
0000
1000
1000
1000
,
0000
0100
0100
0100
,
0001
0100
1001
0100
,
0110
0001
1000
0000
,
1000
0100
1001
0100
,
0110
1000
0001
0000
,
0010
1001
0010
0001
,
0100
0010
0100
0010
,
0010
1001
0010
1000
,
0100
0010
0100
0010
,
0010
1000
0001
0100
,
0010
0100
0001
1000
,
0010
0001
1000
0100
,
0010
0100
1000
0001
,
0000
0010
0100
0000
,
0100
1000
1001
0100
,
1000
0100
1001
0100
,
0001
0010
1001
0010
,
0001
0100
0010
1000
,
1000
0100
0010
0001
,
1000
0010
0100
0001
,
0001
1000
0010
0100
,
0110
0001
0001
0100
,
0110
1001
0010
0001
,
0110
1000
1000
0010
,
0110
1001
0100
1000
,
0110
0001
0001
0100
,
1000
0010
0010
0001
,
0110
1000
1000
0010
,
0001
0100
0100
1000
,
0010
1001
0100
0001
,
1000
0110
0001
0010
,
0010
1001
0100
1000
,
0001
0110
1000
0010
,
0001
0010
0100
0001
,
1000
0010
0100
1000
,
0010
1000
0100
0001
,
0010
1000
0100
0001
,
0010
1000
0100
0001
;

//---------------dance-single - ----------------
#NOTES:
     dance-single:
     :
     Medium:
     8:
     :
0000
0000
0000
0000
,
0000
0000
0000
0000
,
0000
0000
0000
0000
,
0000
0001
0000
0001
,
0000
0001
0000
0001
,
0000
0010
0100
0000
,
0000
0001
0001
0001
,
0000
0010
0010
0010
,
0000
1000
1000
1000
,
0000
0100
0100
0100
,
0010
0001
0001
0001
,
1000
0000
0010
0000
0010
0000
0010
0010
,
0100
1000
1000
1000
,
0001
0000
0100
0000
0100
0000
0100
0100
,
0001
0100
1001
0100
,
0110
0000
0001
0000
1000
0000
0101
0100
,
1000
0100
1001
0100
,
0110
0000
1000
0000
0001
0000
1100
0100
,
0010
1001
0010
0011
,
0100
0010
1100
0001
,
0010
1001
0010
1010
,
0100
0010
0101
1000
,
0011
0100
0010
1000
,
0101
1000
0001
0010
,
1100
0010
0100
0001
,
1010
0001
1000
0100
,
0000
0010
0100
0000
,
0010
0100
0001
1000
,
0100
0001
0010
1000
,
0010
0100
1000
0001
,
0100
0000
1000
0000
0010
0000
0001
0100
,
0110
0000
0001
0000
0010
0000
1000
0100
,
0110
0000
1000
0000
0010
0000
0001
0100
,
1001
0100
0001
0110
,
1001
0100
1000
0110
,
0101
1000
0100
0001
,
0010
1000
0010
0001
,
1100
0001
0100
1000
,
0010
0001
0010
1000
,
1001
0110
0001
0100
,
1001
0110
1000
0100
,
0011
0100
1000
0010
,
1100
0010
0001
0100
,
0010
0001
0010
0101
,
0010
1000
0010
1100
,
0010
0100
1001
0110
,
1000
0001
0110
1001
,
0011
0100
1000
0010
,
1010
0100
0001
0010
,
1100
0001
0110
1001
,
0101
1000
0110
1001
;

//---------------dance-single - ----------------
#NOTES:
     dance-single:
     :
     Hard:
     9:
     :
0000
0000
0000
0000
,
0000
0000
0000
0000
,
0000
0000
0000
0000
,
0000
0000
0000
0000
,
0000
0000
0000
0000
,
0000
0010
0100
0000
,
0001
0000
0001
0000
0001
0001
0001
0000
,
0010
0000
0010
0000
0010
0010
0010
0000
,
1000
0000
1000
0000
1000
1000
1000
0000
,
0100
0000
0100
0000
0100
0100
0100
0000
,
0010
0001
0100
0100
,
0001
0100
1000
1000
,
0100
1000
0010
0010
,
1000
0010
0001
0001
,
0001
0100
1001
0100
,
0110
0000
0001
0000
1000
0000
1100
1000
,
1000
0100
1001
0100
,
0110
0000
1000
0000
0001
0000
0101
0001
,
0001
0000
1010
0000
0100
0000
0001
0100
,
1000
0100
1001
0010
,
1000
0000
0011
0000
0100
0000
1000
0100
,
0001
0100
1001
0010
,
0010
0000
0001
0000
0100
0000
1000
0010
,
0001
0000
0100
0000
1000
0000
0010
0001
,
0100
0000
1000
0000
0010
0000
0001
0100
,
1000
0010
0001
0100
,
0000
0010
0100
0000
,
0010
0000
0001
0000
1000
0000
0100
1000
,
0001
0000
0100
0000
0010
0000
1000
0010
,
0100
0000
1000
0000
0001
0000
0010
0001
,
1000
0000
0010
0000
0100
0000
0001
0100
,
0101
0000
0010
0000
0001
0000
0100
1000
,
1100
0000
0010
0000
1000
0000
0100
0001
,
0011
0010
0001
0100
,
1010
0010
1000
0100
,
0011
1100
0010
0100
,
0001
0000
0100
0000
0010
0100
1000
0000
,
1010
0101
0010
0100
,
1000
0000
0100
0000
0010
0100
0001
0000
,
1000
0010
0001
0010
,
1000
0000
0100
0000
0001
0010
0100
0000
,
0011
0100
1100
0010
,
0110
0000
1001
0000
1000
0100
0001
0000
,
0001
0010
1000
0010
,
0001
0000
0100
0000
1000
0010
0100
0000
,
1010
0100
0101
0010
,
0110
0000
1001
0000
0001
0100
1000
0000
,
0010
0000
1000
0000
0100
0000
0001
0010
,
1000
0000
0100
0000
0001
0000
0010
1000
,
0100
0000
0001
0000
0010
0000
1000
0100
,
0001
0010
1000
0100
;

//---------------dance-single - ----------------
#NOTES:
     dance-single:
     :
     Challenge:
     11:
     :
0000
0000
0000
0000
,
0000
0000
0000
0000
,
0000
0000
0000
0000
,
0010
0001
0100
1000
,
0010
0001
0100
1000
,
0000
0110
1001
0000
,
0010
1000
0100
0010
0001
0001
0001
0000
,
0001
0010
1000
0001
0100
0100
0100
0000
,
0100
0001
0010
0100
1000
1000
1000
0000
,
1000
0100
0001
1000
0010
0010
0010
0000
,
0010
1000
0001
0010
0100
1000
0010
0100
,
0001
0010
1000
0010
0001
0100
1000
0000
,
0010
0001
1000
0010
0100
0001
0010
0100
,
1000
0010
0001
0010
1000
0100
0001
0000
,
1000
0100
1000
0000
0101
0000
0010
1000
,
0001
1000
0100
0010
0001
0000
0101
0000
,
1000
0100
0010
0001
1000
0000
0100
0000
,
0010
0001
0100
1000
0100
0001
0010
0000
,
1100
0000
0101
0000
0010
0000
0010
1000
,
0100
0000
1001
0000
0010
0001
0100
0010
,
1000
0000
0101
0000
1000
0000
0100
0010
,
0001
0100
1000
0000
1001
0000
0010
1000
,
0100
0000
0001
0000
0010
0000
0100
0010
,
1000
0000
0100
0000
0001
0000
1000
0001
,
0010
0000
1000
0000
0100
0000
0010
0100
,
0001
0000
0010
0000
1000
0000
0001
1000
,
0100
0110
1001
0000
,
0010
1000
0010
1000
0001
0100
0001
0100
,
0010
1000
0001
0100
0010
1000
0110
0000
,
0001
0100
0001
0100
0010
1000
0010
1000
,
0001
0100
0010
1000
0001
0100
0110
0000
,
1000
0001
1000
0001
0010
0100
1000
0010
,
0100
0001
0010
0100
1000
0010
0110
0000
,
0001
1000
0001
1000
0010
0100
0001
0010
,
0100
1000
0010
0100
0001
0010
0110
0000
,
0001
1000
0100
0000
1100
0000
0010
0001
,
0100
0001
0010
0000
1001
0000
0101
0000
,
0010
0000
1000
0010
0100
0001
0001
0010
,
0100
1000
1000
0010
0100
0001
0010
0000
,
1001
0000
1100
0000
0010
0000
0001
1000
,
0010
0100
0001
0000
0101
0000
0010
1000
,
0100
1000
0001
0001
0010
0100
1000
1000
,
0010
0100
0001
0001
1000
0010
0110
0000
,
0001
0000
0010
0100
1000
0000
1000
0010
,
0100
0000
0001
1000
0010
0100
0001
0001
,
0010
0100
1000
0000
0100
0010
0001
0000
,
0101
0000
0010
1000
0001
0010
0110
0000
,
0010
0000
0001
0100
0001
0010
0100
0000
,
0001
0000
0100
1000
0100
0001
1000
0000
,
0100
0000
1000
0010
1000
0100
0010
0000
,
1000
0000
0010
0001
0010
1000
0001
0001
,
0010
0110
1001
0000
;

//---------------dance-double - ----------------
#NOTES:
     dance-double:
     :
     Easy:
     6:
     :
00000000
00000000
00000000
00000000
,
00000000
00000000
00000000
00000000
,
00000000
00000000
00000000
00000000
,
00000000
00000000
00000000
00000000
,
00000000
00001000
00000000
00001000
,
00000000
00001000
00001000
00000000
,
00000000
00001000
00000000
00001000
,
00000000
00010000
00000000
00010000
,
00000000
00000100
00000000
00000100
,
00000000
01000000
00000000
01000000
,
00000000
00001000
00001000
00001000
,
00000000
00010000
00010000
00010000
,
00000000
00000100
00000100
00000100
,
00000000
01000000
01000000
01000000
,
00010000
01000000
10000000
00010000
,
10000000
01000000
10010000
01000000
,
01100000
10000000
00010000
00000000
,
00010000
00001000
00000100
00000001
,
00001000
00000100
00001001
00000100
,
00000110
00001000
00000001
00000000
,
00000100
00000001
00000010
00001000
,
00010000
01000000
10000000
00100000
,
01100000
10000000
00010000
01000000
,
10010000
01000000
00010000
01000000
,
01100000
00010000
10000000
01000000
,
10010000
01000000
10000000
00010000
,
00000000
00100000
01000000
00000000
,
00010000
00001000
00000100
00000001
,
00000010
00000100
00000010
00000100
,
00001000
00010000
01000000
10000000
,
00100000
01000000
00100000
01000000
,
00010000
00001000
00000100
00000001
,
00000010
00000100
00000001
00000100
,
00001000
00010000
01000000
10000000
,
00100000
01000000
10000000
01000000
,
00010000
00001000
00000100
00000001
,
00000110
00000001
00001000
00000100
,
00001000
00010000
01000000
10000000
,
01100000
10000000
00010000
01000000
,
00000000
00100000
01000000
00010000
,
01100000
00010000
10000000
01000000
,
10010000
01000000
00100000
10000000
,
00010000
00001000
00000100
00000001
,
00000000
00000010
00000100
00001000
,
00000110
00001000
00000001
00000100
,
00001001
00000100
00000010
00000001
,
00001000
00010000
01000000
10000000
,
10010000
00100000
01000000
10000000
,
10010000
00100000
01000000
00010000
,
00100000
10000000
01000000
00010000
,
00100000
10000000
01000000
00010000
;

//---------------dance-double - ----------------
#NOTES:
     dance-double:
     :
     Medium:
     8:
     :
00000000
00000000
00000000
00000000
,
00000000
00000000
00000000
00000000
,
00000000
00000000
00000000
00000000
,
00000000
00000000
00000000
00000000
,
00000000
00000000
00000000
00000000
,
00000000
00001000
00000100
00000000
,
00000000
00001000
00001000
00001000
,
00000000
00010000
00010000
00010000
,
00000000
00000100
00000100
00000100
,
00000000
01000000
01000000
01000000
,
00001010
00000010
00000010
00000010
,
00110000
00100000
00100000
00100000
,
00001100
00000100
00000100
00000100
,
01010000
01000000
01000000
01000000
,
10000000
01000000
10010000
01000000
,
01100000
00000000
00010000
00000000
10000000
00000000
00010000
01000000
,
10000000
01000000
10010000
01000000
,
01100000
00000000
10000000
00000000
00010000
00000000
10000000
01000000
,
00100000
00010000
00001000
00000100
,
00000100
00000010
00001100
00000001
,
00000010
00001001
00000010
00001010
,
00000100
00000010
00000101
00001000
,
00000011
00000100
00001000
00010000
,
00001010
00010000
01000000
10000000
,
10100000
01000000
00010000
00001000
,
00110000
00001000
00000100
00000001
,
00000000
00000010
00000100
00000000
,
00000001
00000100
00001000
00000000
00010000
00000000
01000000
00000000
,
10010000
00100000
01000000
00010000
,
10000000
01000000
00010000
00000000
00001000
00000000
00000100
00000000
,
00001001
00000010
00000100
00001000
,
00000001
00000100
00001000
00000000
00010000
00000000
01000000
00000000
,
00110000
10000000
11000000
00010000
,
10000000
01000000
00010000
00000000
00001000
00000000
00000100
00000000
,
00001010
00000001
00000101
00001000
,
00000001
00000100
00001000
00000000
00010000
00000000
01000000
00000000
,
10000000
00010000
00100000
01000000
,
10000000
01000000
00010000
00000000
00001000
00000000
00000100
00000000
,
00000001
00001000
00000010
00000100
,
00000001
00000100
00001000
00000000
00010000
00000000
01000000
00000000
,
00110000
11000000
01010000
10100000
,
10000000
01000000
00010000
00000000
00001000
00000000
00000100
00000000
,
00001010
00000101
00001100
00000011
,
00000100
00000010
00000001
00001000
,
00000100
00000010
00001000
00010000
,
01000000
00100000
10000000
00010000
,
01000000
00100000
00010000
00001000
,
01000000
10000000
01000000
00010000
,
01000000
00001000
00000100
00000001
,
00000100
00001000
00000100
00000001
,
00000010
00001000
00000100
00000001
;

//---------------dance-double - ----------------
#NOTES:
     dance-double:
     :
     Hard:
     10:
     :
00000000
00000000
00000000
00000000
,
00000000
00000000
00000000
00000000
,
00000000
00000000
00000000
00000000
,
00000000
00000000
00000000
00000000
,
00000000
00000000
00000000
00000000
,
00000000
00000000
00010000
00001000
00100000
00000000
00000000
00000000
,
00010000
10000000
00100000
01000000
00010000
00100000
00001000
00000000
,
00010000
00000100
00001000
00000010
00010000
00001000
01000000
00000000
,
00010000
00100000
00001000
00010000
00000010
00001000
00000100
00000000
,
00010000
00001000
00100000
00010000
01000000
00001000
00010000
00000000
,
00000100
00000010
00000001
00001000
00000010
00000100
00000001
00000000
,
00001000
00000100
00010000
00001000
00100000
00010000
01000000
00000000
,
00001000
00010000
00000010
00001000
00000100
00000010
00000001
00000000
,
00001000
00000100
00010000
00000010
00001000
00000100
00010000
00000000
,
00101000
00000000
00010100
00000000
00001000
00000001
00000100
00000000
,
00001010
00000000
00010100
00000000
00001000
00100000
00010000
00000000
,
11000000
00000000
01010000
00000000
00100000
00001000
00010000
00000000
,
00001001
00000000
00000110
00000000
00010000
00001000
00100000
00000000
,
00010000
00010000
00010000
00000000
10000000
10000000
10000000
00000000
,
01000000
01000000
01000000
00000000
00100000
00100000
00100000
00000000
,
00001000
00000000
00010000
00000000
00000100
00000100
00000100
00000000
,
00001001
00000000
00000110
00000000
00000001
00000001
00000000
00000000
,
00001100
00000000
00010000
00001000
00100000
00010000
00000000
00000000
,
11000000
00000000
00100000
00001000
00010000
00000100
00000000
00000000
,
00001001
00000000
00000010
00000100
00010000
00001000
00000000
00000000
,
10010000
00000000
00100000
01000000
00001000
00010000
00000100
00000010
,
00000001
00000000
00001000
00000100
00010000
00000000
00000000
00000000
,
00001000
00100000
00010000
01000000
00100000
00000000
10010000
00000000
,
01000000
00001000
00010000
00000100
00000010
00000000
00001001
00000000
,
00000100
00010000
00001000
00100000
00010000
00000000
11000000
00000000
,
00100000
00001000
00010000
00000100
00000010
00000000
00001001
00000000
,
00000100
00000100
00000100
00000000
00010000
00001000
00100000
00010000
,
10000000
01000000
00100000
00001000
00010000
00000000
00001001
00000000
,
00000010
00000100
00001000
00000000
00000010
00010000
00001000
00000000
,
00100000
00010000
01000000
00000000
00011000
00000000
00001010
00000000
,
00000001
00000010
00000100
00001000
00000010
00010000
00000000
00001000
,
00000000
00100000
00100000
00000000
00010000
00010000
00000000
00000000
,
10000000
01000000
00100000
00010000
01000000
00000000
00001000
00010000
,
00000000
00000100
00000010
00000000
00001001
00000000
00000110
00000000
,
00001000
00000100
00010000
00001000
00100000
00010000
00000000
10000000
,
00000000
01000000
01000000
00000000
00100000
00100000
00000000
00000000
,
00010000
01000000
00001000
00010000
00000100
00000000
00000010
00000001
,
00000000
00001000
00000100
00000000
00011000
00000000
10010000
00000000
,
00100000
00001000
00010000
00001000
00000000
01000000
01000000
00000000
,
00010000
00100000
00001000
00100000
00000000
00010000
00010000
00000000
,
10000000
01000000
00100000
00001000
00010000
00000100
00001000
00000000
,
00000011
00000000
00000101
00000000
00000010
00000010
00000000
00000000
,
00001001
00000000
00000100
00010000
00001000
00100000
00010000
00010000
,
00000000
00000000
10000000
01000000
00100000
00001000
00010000
00010000
,
00000000
00000000
00000100
00000010
00000001
00000100
00000010
00000000
,
00001000
00000100
00010000
00001000
01000000
00100000
10000000
00010000
,
01000000
00000000
00001000
00010000
00000010
00000000
00000000
00000000
;

//---------------dance-double - ----------------
#NOTES:
     dance-double:
     :
     Challenge:
     12:
     :
00000000
00000000
00000000
00000000
,
00000000
00000000
00000000
00000000
,
00000000
00000000
00000000
00000000
,
00020000
00100000
10000000
01030000
,
00002000
00000010
00000001
00003100
,
00010000
00011000
01001000
00000000
,
00100000
10000000
01000000
00100000
00001000
00010000
00001000
00000000
,
00000010
00000001
00000100
00000010
00010000
00001000
00010000
00000000
,
00100000
10000000
01000000
00100000
00001000
00010000
00001000
00000000
,
00000010
00000001
00000100
00000010
00010000
00001000
00010000
00000000
,
00010000
00100000
01000000
00010000
01000000
00001000
00100000
01000000
,
00010000
00001000
00000100
00000001
00000010
00000100
00001000
00000000
,
00010000
00001000
00000010
00000100
00001000
00000100
00010000
00000010
,
00000100
00001000
00010000
01000000
10000000
00100000
01000000
00000000
,
10000000
01000000
10000000
00000000
01010000
00000000
00100000
00001000
,
00010000
00000010
00000100
00000001
00001000
00000000
00001100
00000000
,
00001000
00010000
00100000
10000000
01000000
00000000
00010000
00000000
,
00001000
00010000
00001000
00000100
00000001
00000010
00000100
00000000
,
00010100
00000000
00011000
00000000
00100000
00000000
00100000
10000000
,
01000000
00000000
00110000
00000000
00001000
00010000
00000010
00000100
,
00000001
00000000
00001100
00000000
00010000
00000000
00001000
01000000
,
00100000
10000000
01000000
00000000
00110000
00000000
00001000
00010000
,
00001000
00000000
00000100
00000000
00000001
00000000
00000010
00001000
,
00010000
00000000
00001000
00000000
00100000
00000000
00010000
10000000
,
01000000
00000000
00010000
00000000
00001000
00000000
00100000
01000000
,
00010000
00000000
00001000
00000000
00000100
00000000
00000001
00000010
,
00000100
00010100
00011000
00000000
,
00001000
00010000
01000000
10000000
00100000
01000000
00010000
00100000
,
00001000
00010000
00001000
00000100
00000001
00000010
00000100
00000000
,
00010000
00001000
00000100
00000001
00000010
00000100
00001000
00000010
,
00010000
00001000
00010000
01000000
10000000
00100000
01000000
00000000
,
00001000
00010000
00001000
00000010
00000001
00000100
00001000
00010000
,
01000000
10000000
00100000
01000000
00001000
00010000
01000000
00000000
,
00010000
00001000
00010000
00100000
10000000
01000000
00010000
00001000
,
00000100
00000001
00000010
00000100
00010000
00001000
00000100
00000000
,
00000001
00000010
00000100
00000000
00010100
00000000
00001000
00010000
,
01000000
00010000
00001000
00000000
00000110
00000000
00000101
00000000
,
00001000
00000000
00010000
01000000
10000000
00010000
00100000
00001000
,
00010000
00000100
00000100
00000010
00000001
00000100
00001000
00000000
,
00011000
00000000
01001000
00000000
00100000
00000000
10000000
01000000
,
00100000
00001000
00010000
00000000
00010100
00000000
00000010
00000001
,
00000100
00001000
00010000
00010000
00001000
01000000
00100000
10000000
,
00100000
01000000
00010000
00100000
00001000
00000100
00000010
00000000
,
00000001
00000000
00000010
00000100
00001000
00000000
00000100
00010000
,
00001000
00000000
00010000
00100000
10000000
01000000
00010000
00010000
,
00001000
00000100
00000001
00000000
00000010
00000001
00000100
00000000
,
00001010
00000000
00000100
00001000
00010000
01000000
10000000
00000000
,
00100000
00000000
00010000
00001000
00010000
00000100
00000010
00000000
,
00000001
00000000
00000100
00000001
00000100
00001000
00010000
00000000
,
00001000
00000000
00100000
01000000
10000000
00010000
01000000
00000000
,
00001000
00000000
00001000
00010000
00000100
00000010
00000001
00000001
,
00000100
00010100
00011000
00000000
;

//---------------dance-couple - ----------------
#NOTES:
     dance-couple:
     :
     Easy:
     4:
     :
00000000
00000000
00000000
00000000
,
00000000
00000000
00000000
00000000
,
00000000
00000000
00000000
00000000
,
00000000
00010001
00000000
00010001
,
00000000
00010001
00000000
00010001
,
00000000
00100010
01000100
00000000
,
00000000
00010001
00000000
00010001
,
00000000
00100010
00000000
00100010
,
00000000
10001000
00000000
10001000
,
00000000
01000100
00000000
01000100
,
00000000
00010001
00010001
00010001
,
00000000
00100010
00100010
00100010
,
00000000
10001000
10001000
10001000
,
00000000
01000100
01000100
01000100
,
00010000
01000100
10010000
01000100
,
01100000
00010100
10000000
00000000
,
00001000
01000100
00001001
01000100
,
00000110
01001000
00000001
00000000
,
00100000
10010000
00100000
00010000
,
01000100
00100010
01000100
00100010
,
00000010
00001001
00000010
00000001
,
01000100
00100010
01000100
00100010
,
00100010
10001000
00010001
01000100
,
00100010
01000100
00010001
10001000
,
00100010
00010001
10001000
01000100
,
00100010
01000100
10001000
00010001
,
00000000
00100010
01000100
00000000
,
01000100
10001000
10011001
01000100
,
00001000
00000100
00001001
00000100
,
00010000
00100000
10010000
00100000
,
00011000
01000100
00100010
10000001
,
10000001
01000100
00100010
00011000
,
10001000
00100010
01000100
00010001
,
00010001
10001000
00100010
01000100
,
00000110
01000001
00000001
01000100
,
00000110
01001001
00000010
01000001
,
01100000
10000100
10000000
00100100
,
01100000
10010100
00100000
10000100
,
01100110
00011000
00011000
01000100
,
10000001
00100010
00100010
00011000
,
01100110
10000001
10000001
00100010
,
00011000
01000100
01000100
10000001
,
00100010
10011001
01000100
00010001
,
10001000
01100110
00010001
00100010
,
00100010
10011001
01000100
10001000
,
00010001
01100110
10001000
00100010
,
00010001
00100010
01000100
00010001
,
10001000
00100010
01000100
10001000
,
00100010
10001000
01000100
00010001
,
00100010
10001000
01000100
00010001
,
00100010
10001000
01000100
00010001
;

//---------------dance-couple - ----------------
#NOTES:
     dance-couple:
     :
     Medium:
     5:
     :
00000000
00000000
00000000
00000000
,
00000000
00000000
00000000
00000000
,
00000000
00000000
00000000
00000000
,
00000000
00010001
00000000
00010001
,
00000000
00010001
00000000
00010001
,
00000000
00100010
01000100
00000000
,
00000000
00010001
00010001
00010001
,
00000000
00100010
00100010
00100010
,
00000000
10001000
10001000
10001000
,
00000000
01000100
01000100
01000100
,
00100010
00010001
00010001
00010001
,
10001000
00000000
00100010
00000000
00100010
00000000
00100010
00100010
,
01000100
10001000
10001000
10001000
,
00010001
00000000
01000100
00000000
01000100
00000000
01000100
01000100
,
10000001
01000100
10011001
01000100
,
01100110
00000000
10000001
00000000
00011000
00000000
11000101
01000100
,
00011000
01000100
10011001
01000100
,
01100110
00000000
00011000
00000000
10000001
00000000
01011100
01000100
,
00100010
10011001
00100010
00110011
,
00000100
00100010
00001100
00010001
,
00100010
10011001
00100010
10101010
,
01000000
00100010
01010000
10001000
,
00110011
01000100
00100010
10001000
,
01010101
10001000
00010001
00100010
,
11001100
00100010
01000100
00010001
,
10101010
00010001
10001000
01000100
,
00000000
00100010
01000100
00000000
,
00100010
01000100
00010001
10001000
,
01000100
00010001
00100010
10001000
,
00100010
01000100
10001000
00010001
,
01000100
00000000
10000001
00000000
00100010
00000000
00011000
01000100
,
01100110
00000000
00011000
00000000
00100010
00000000
10000001
01000100
,
01100110
00000000
10000001
00000000
00100010
00000000
00011000
01000100
,
10011001
01000100
00011000
01100110
,
10011001
01000100
10000001
01100110
,
01010101
10001000
01000100
00010001
,
00000010
10001000
00000010
00010001
,
11001100
00010001
01000100
10001000
,
00100000
00010001
00100000
10001000
,
10011001
01100110
00011000
01000100
,
10011001
01100110
10000001
01000100
,
00110011
01000100
10001000
00100010
,
11001100
00100010
00010001
01000100
,
00100010
00010001
00100010
01010101
,
00100010
10001000
00100010
11001100
,
00100010
01000100
10011001
01100110
,
10001000
00010001
01100110
10011001
,
00110011
01000100
10001000
00100010
,
10101010
01000100
00010001
00100010
,
11001100
00010001
01100110
10011001
,
01010101
10001000
01100110
10011001
;

//---------------dance-couple - ----------------
#NOTES:
     dance-couple:
     :
     Hard:
     6:
     :
00000000
00000000
00000000
00000000
,
00000000
00000000
00000000
00000000
,
00000000
00000000
00000000
00000000
,
00000000
00000000
00000000
00000000
,
00000000
00000000
00000000
00000000
,
00000000
00100010
01000100
00000000
,
00010001
00000000
00010001
00000000
00010001
00010001
00010001
00000000
,
00100010
00000000
00100010
00000000
00100010
00100010
00100010
00000000
,
10001000
00000000
10001000
00000000
10001000
10001000
10001000
00000000
,
01000100
00000000
01000100
00000000
01000100
01000100
01000100
00000000
,
00100010
00010001
01000100
01000100
,
00010001
01000100
10001000
10001000
,
01000100
10001000
00100010
00100010
,
10001000
00100010
00010001
00010001
,
00000001
01000100
00001001
01000100
,
00000110
00000000
00010001
00000000
00001000
00000000
11001100
00001000
,
10000000
01000100
10010000
01000100
,
01100000
00000000
10001000
00000000
00010000
00000000
01010101
00010000
,
00011000
00000000
10100011
00000000
01000100
00000000
00011000
01000100
,
10000001
01000100
10011001
00100010
,
10000001
00000000
00111010
00000000
01000100
00000000
10000001
01000100
,
00011000
01000100
10011001
00100010
,
00100010
00000000
00010001
00000000
01000100
00000000
10001000
00100010
,
00010001
00000000
01000100
00000000
10001000
00000000
00100010
00010001
,
01000100
00000000
10001000
00000000
00100010
00000000
00010001
01000100
,
10001000
00100010
00010001
01000100
,
00000000
00100010
01000100
00000000
,
00100010
00000000
10000001
00000000
00011000
00000000
01000100
00011000
,
10000001
00000000
01000100
00000000
00100010
00000000
00011000
00100010
,
01000100
00000000
00011000
00000000
10000001
00000000
00100010
10000001
,
00011000
00000000
00100010
00000000
01000100
00000000
10000001
01000100
,
11000101
00000000
00100010
00000000
00010001
00000000
01000100
00011000
,
01011100
00000000
00100010
00000000
10001000
00000000
01000100
10000001
,
00110011
00100010
00010001
01000100
,
10101010
00100010
10001000
01000100
,
00110000
11000100
00100000
01000100
,
00010000
00000000
01000100
00000000
00100000
01000000
10001000
00000000
,
00001010
01000101
00000010
01000100
,
00001000
00000000
01000100
00000000
00000010
00000100
00010001
00000000
,
10000001
00100100
00011000
00100010
,
10000001
00000000
01000100
00000000
00011000
00100000
01000010
00000000
,
00110001
01000100
11001000
00100010
,
01100001
00000000
10010100
00000000
10001000
01000000
00010010
00000000
,
10000001
01000010
00011000
00100010
,
10000001
00000000
01000100
00000000
00011000
00000010
00100100
00000000
,
10001010
01000100
00010101
00100010
,
10000110
00000000
01001001
00000000
00010001
00000100
00101000
00000000
,
00100010
00000000
10001000
00000000
01000100
00000000
00010001
00100010
,
10001000
00000000
01000100
00000000
00010001
00000000
00100010
10001000
,
01000100
00000000
00010001
00000000
00100010
00000000
10001000
01000100
,
00010001
00100010
10001000
01000100
;

//---------------dance-couple - ----------------
#NOTES:
     dance-couple:
     :
     Challenge:
     4:
     :
00000000
00000000
00000000
00000000
,
00000000
00000000
00000000
00000000
,
00000000
00000000
00000000
00000000
,
00000000
00000000
00000000
00000000
,
00000000
00000000
00000000
00000000
,
00000000
01100110
10011001
00000000
,
00011000
00000000
00011000
00000000
00011000
00011000
00011000
00000000
,
00100010
00000000
00100010
00000000
00100010
00100010
00100010
00000000
,
10000001
00000000
10000001
00000000
10000001
10000001
10000001
00000000
,
01000100
00000000
01000100
00000000
01000100
01000100
01000100
00000000
,
00000010
10000001
00000001
10000001
,
00001000
00000000
10000010
00000000
00000010
00000000
10000010
00000010
,
00000100
10001000
00001000
10001000
,
00000001
00000000
10000100
00000000
00000100
00000000
10000100
00000100
,
00000001
10000100
00001001
10000100
,
00100000
00010001
00010000
00010001
,
10000000
00000000
00100001
00000000
00100000
00000000
00100001
00100000
,
01000000
10000001
10000000
10000001
,
00010000
00000000
01000001
00000000
01000000
00000000
01000001
01000000
,
00010000
01000001
10010000
01000001
,
01000100
00000000
00110011
00000000
01000100
00000000
10001000
01000100
,
00010001
01000100
10011001
00100010
,
00100000
10000000
01000000
00010000
,
00000010
00000001
00000100
00001000
,
00100000
10000000
01000000
00010000
,
00000010
00000001
00000100
00001000
,
00000000
10011001
01100110
00000000
,
00100000
00000000
00010000
00000000
10000000
00000000
01000000
10000000
,
00010001
00000000
00000100
00000000
00000010
00000000
00001000
00000010
,
01000100
00000000
10000000
00000000
00010000
00000000
00100000
00010000
,
10001000
00000000
00000010
00000000
00000100
00000000
00000001
00000100
,
01010101
00000000
00100000
00000000
00010000
00000000
01000000
10000000
,
11001100
00000000
00000010
00000000
00001000
00000000
00000100
00000001
,
00110011
00100000
00010000
01000000
,
10101010
00000010
00001000
00000100
,
00110011
11000000
00100000
01000000
,
00010001
00000100
00000010
00001000
,
10101010
00010000
00100000
01000000
,
10001000
00000100
00000010
00000001
,
10001000
00000000
00100000
00000000
00010000
00010000
00100000
00000000
,
10001000
00000000
00000100
00000000
00000001
00000010
00000100
00000000
,
00110011
00000000
01000000
00000000
10000000
01000000
00100000
00000000
,
01100110
00000000
00001001
00000000
00001000
00000100
00000001
00000000
,
00010001
00100000
10000000
00100000
,
00010001
00000100
00001000
00000100
,
10101010
01000000
00010000
00100000
,
00000110
00001001
00000001
00001000
,
00100000
10000000
01000000
00010000
,
00000010
00000001
00000100
00001000
,
00100000
10000000
01000000
00010000
,
00000010
00000001
00000100
00001000
,
00000000
01100000
00001001
00000000
;

//---------------dance-solo - ----------------
#NOTES:
     dance-solo:
     :
     Easy:
     4:
     :
000000
000000
000000
000000
,
000000
000000
000000
000000
,
000000
000000
000000
000000
,
000000
000001
000000
000001
,
000000
010000
000000
010000
,
000000
000100
001000
000000
,
000000
000010
000000
000010
,
000000
000100
000000
000100
,
000000
100000
000000
100000
,
000000
001000
000000
001000
,
000000
000001
000001
000001
,
000000
000100
000100
000100
,
000000
010000
010000
010000
,
000000
001000
001000
001000
,
000010
001000
100001
001000
,
001100
000001
100000
000000
,
010000
001000
100001
001000
,
001100
100000
000001
000000
,
000100
100001
000100
000010
,
001000
000100
001000
000100
,
000100
100001
000100
010000
,
001000
000100
001000
000100
,
000100
100000
000001
001000
,
000100
001000
000010
010000
,
000100
000001
100000
001000
,
000100
001000
010000
000010
,
000000
000100
001000
000000
,
001000
100000
100001
001000
,
100000
001000
100001
001000
,
000010
000100
100001
000100
,
000001
001000
000100
100000
,
010000
001000
000100
000001
,
100000
000100
001000
000010
,
000001
100000
000100
001000
,
001100
000001
000001
001000
,
001100
100001
000100
000010
,
100001
101000
001000
000100
,
001100
100001
001000
010000
,
001100
000001
000001
001000
,
100000
000100
000100
000010
,
001100
100000
100000
000100
,
000001
001000
001000
100000
,
000100
100001
001000
000001
,
010000
001100
000001
000100
,
000100
100001
001000
010000
,
000001
001100
100000
000100
,
000010
000100
001000
000001
,
100000
000100
001000
100000
,
000100
010000
001000
000001
,
000100
100000
001000
000001
,
000100
010000
001000
000001
;

//---------------dance-solo - ----------------
#NOTES:
     dance-solo:
     :
     Medium:
     5:
     :
000000
000000
000000
000000
,
000000
000000
000000
000000
,
000000
000000
000000
000000
,
000000
000010
000000
000001
,
000000
000010
000000
000001
,
000000
000100
001000
000000
,
000000
000010
000010
000010
,
000000
000100
000100
000100
,
000000
010000
010000
010000
,
000000
001000
001000
001000
,
000100
000001
000001
000001
,
100000
000000
000100
000000
000100
000000
000100
000100
,
001000
010000
010000
010000
,
000001
000000
001000
000000
001000
000000
001000
001000
,
000010
001000
100001
001000
,
001100
000000
000001
000000
100000
000000
001010
001000
,
100000
001000
100010
001000
,
001100
000000
100000
000000
000001
000000
011000
001000
,
000100
100001
000100
000011
,
001000
000100
101000
000001
,
000100
100010
000100
110000
,
001000
000100
001001
100000
,
000110
001000
000100
100000
,
001010
100000
000001
000100
,
011000
000100
001000
000010
,
010001
000010
100000
001000
,
000000
000100
001000
000000
,
000100
001000
000001
100000
,
001000
000001
000100
010000
,
000100
001000
100000
000010
,
001000
000000
100000
000000
000100
000000
000001
001000
,
001010
000000
000001
000000
000100
000000
100000
001000
,
011000
000000
100000
000000
000100
000000
000001
001000
,
100001
001000
000001
001100
,
100001
001000
010000
001100
,
010001
100000
001000
000001
,
000100
010000
000100
000010
,
101000
000001
001000
100000
,
000100
000010
000100
010000
,
100001
001100
000001
001000
,
100001
001100
100000
001000
,
010001
001000
100000
000100
,
011000
000100
000001
001000
,
000100
000010
000100
001001
,
000100
100000
000100
101000
,
010000
001000
100001
001100
,
100000
000001
001100
100001
,
000110
001000
100000
000100
,
010010
001000
000001
000100
,
011000
000001
001100
100001
,
001010
100000
001100
100001
;

//---------------dance-solo - ----------------
#NOTES:
     dance-solo:
     :
     Hard:
     6:
     :
000000
000000
000000
000000
,
000000
000000
000000
000000
,
000000
000000
000000
000000
,
000000
000000
000000
000000
,
000000
000000
000000
000000
,
000000
000010
010000
000000
,
000001
000000
000001
000000
000001
000001
000001
000000
,
000100
000000
000100
000000
000100
000100
000100
000000
,
100000
000000
100000
000000
100000
100000
100000
000000
,
001000
000000
001000
000000
001000
001000
001000
000000
,
010000
000001
001000
001000
,
000010
001000
100000
100000
,
001000
010000
000100
000100
,
100000
000100
000001
000001
,
000010
001000
100001
001000
,
001100
000000
000001
000000
100000
000000
011000
010000
,
010000
001000
100001
001000
,
001100
000000
100000
000000
000001
000000
001010
000010
,
000010
000000
100100
000000
001000
000000
000001
001000
,
010000
001000
100001
000100
,
010000
000000
000110
000000
001000
000000
010000
001000
,
000010
001000
100001
000100
,
000100
000000
000010
000000
001000
000000
100000
000100
,
010000
000000
001000
000000
100000
000000
000100
000001
,
001000
000000
100000
000000
000100
000000
000010
001000
,
010000
000100
100000
001000
,
000000
000100
001000
000000
,
000100
000000
000001
000000
010000
000000
001000
100000
,
000001
000000
001000
000000
000100
000000
100000
000010
,
001000
000000
100000
000000
000001
000000
000100
000001
,
010000
000000
000100
000000
001000
000000
000010
001000
,
001010
000000
000100
000000
100000
000000
001000
010000
,
011000
000000
000100
000000
100000
000000
001000
000010
,
000101
010000
000010
001000
,
100100
000100
100000
001000
,
010001
100010
000100
001000
,
000001
000000
001000
000000
000100
001000
010000
000000
,
100100
001001
000100
001000
,
100000
000000
001000
000000
010000
001000
000010
000000
,
100000
000100
000001
000100
,
010000
000000
001000
000000
000001
000100
001000
000000
,
000011
001000
110000
000100
,
001100
000000
100001
000000
100000
001000
000010
000000
,
000001
000100
100000
000100
,
000010
000000
001000
000000
100000
000100
001000
000000
,
100010
001000
100001
000100
,
001100
000000
100001
000000
000010
001000
010000
000000
,
000100
000000
100000
000000
001000
000000
000001
000100
,
100000
000000
001000
000000
000001
000000
000100
010000
,
001000
000000
000001
000000
000100
000000
100000
001000
,
000001
000100
010000
000010
;
