#TITLE:LET'S GET DOWN;
#ARTIST:JT PLAYAZ;
#BANNER:LET'S GET DOWN.png;
#BACKGROUND:LET'S GET DOWN-bg.png;
#CDTITLE:../CDTitles/Dancemania 9.png;
#MUSIC:LET'S GET DOWN.ogg;
#SAMPLESTART:7.837;
#SAMPLELENGTH:15;
#DISPLAYBPM:130;
#BPMS:0=30.56,4=129.073;
#BGCHANGES:0=LET'S GET DOWN.avi=1=0=0=0,178=LET'S GET DOWN-bg.png=1=0=0=1;

//---------------dance-single - ----------------
#NOTES:
     dance-single:
     :
     Beginner:
     2:
     :
0000
0000
0000
0000
,
0000
0000
0000
0000
,
0000
0000
0000
0000
,
0000
0000
0000
0000
,
0000
0000
0000
0000
,
0000
0010
0000
0001
,
0000
0100
0000
1001
,
0000
0000
0000
0000
,
0000
0000
0000
0000
,
1000
0000
1000
0000
,
0010
0000
0010
0000
,
0001
0000
0001
0000
,
1001
0000
1001
0000
,
1000
1000
0000
0000
,
0100
0100
0000
0000
,
0001
0001
0000
0000
,
1001
1001
0000
0000
,
0010
0000
0100
0000
,
0010
0000
0100
0000
,
0010
0000
0010
0000
,
0010
0000
0010
0000
,
0110
0000
1001
0000
,
0010
0010
0010
0000
,
0010
0010
0000
0001
,
0000
0100
0000
1001
,
0000
1000
0000
1000
,
0000
0001
0000
0001
,
0000
0010
0000
0001
,
0000
0100
0000
1001
,
0000
0100
0000
0100
,
0000
0010
0000
0010
,
0000
0010
0000
0001
,
0000
0100
0000
1001
,
0000
1000
0000
1000
,
0000
0001
0000
0001
,
0000
0010
0000
0001
,
0000
0100
0000
1001
,
0000
1000
0000
1000
,
0000
0001
0000
0001
,
0000
0010
0000
0001
,
0000
0100
0000
1001
,
0000
1000
1000
0000
,
0000
0001
0001
0000
,
0110
0000
1001
0000
,
0010
0010
0010
0000
;

//---------------dance-single - ----------------
#NOTES:
     dance-single:
     :
     Easy:
     5:
     :
0000
0000
0000
0000
,
0000
0000
0000
0000
,
0000
0000
0000
0000
,
0000
0000
0000
0000
,
0000
0000
0000
0000
,
0000
0010
0001
0100
,
1000
0000
0001
0000
0100
0000
1000
0001
,
0000
0000
0000
0000
,
0000
0000
0000
0000
,
0010
0001
0000
1000
,
0000
0100
0000
0001
,
0010
0010
0000
0000
0001
0000
0000
0000
,
1000
0000
0100
1000
,
0010
0010
0000
0000
0100
0100
0000
0000
,
0001
0001
0000
0000
1000
1000
0000
0000
,
0000
0010
0000
0100
,
0000
1000
0001
0100
,
0010
0010
0001
0000
0000
0000
0100
0000
,
1000
0000
0100
0000
,
0001
0000
0010
0000
,
1000
0100
0001
0010
,
0110
0000
1001
0000
,
0110
1001
0110
0000
,
1001
0010
0001
0100
,
1000
0000
0001
0000
0100
0000
0100
0001
,
0000
0000
0001
0000
,
0100
0000
1000
0000
,
0000
0010
0100
1000
,
0010
0000
0001
0000
0100
0000
0100
1000
,
0000
0000
1000
0000
,
0010
0000
0000
0000
0001
0000
0000
0100
,
0010
0010
1000
0100
,
0001
0000
1000
0000
0100
0000
0001
1000
,
0000
0000
1000
0000
,
0100
0000
0001
0000
,
0000
0010
0100
0010
,
1000
0000
0001
0000
0010
0000
0100
0001
,
0000
0000
1000
0000
,
0010
0000
0001
0000
,
0000
0010
0001
0100
,
1000
0000
0001
0000
0100
0000
1000
0001
,
0000
0000
0100
1000
0000
0000
0000
0100
,
1000
0100
1000
0100
1000
0000
0000
0000
,
0110
0000
1001
0000
,
0110
1001
0110
0000
;

//---------------dance-single - ----------------
#NOTES:
     dance-single:
     :
     Medium:
     6:
     :
0000
0000
0000
0000
,
0000
0000
0000
0000
,
0000
0000
0000
0000
,
0000
0000
0000
0000
,
0000
0000
0000
0000
,
0000
0010
0001
0100
,
1000
0000
0001
0000
0110
0000
1000
0001
,
0000
0000
0000
0000
,
0000
0000
0000
0000
,
0010
0000
0001
0000
0000
0000
1000
1000
,
0000
0000
0100
0000
0000
0000
0001
0001
,
0010
0000
0100
0000
0000
0000
0010
0010
,
0000
0001
1000
0000
,
0010
0001
0010
0000
0100
1000
0100
0000
,
1000
0010
1000
0000
0001
0100
0001
0000
,
0000
0010
1000
0100
,
0001
1000
0100
0000
,
0010
0001
0100
1000
0100
0000
0000
0000
,
0100
0001
0000
0100
,
0001
1000
0010
0001
,
1000
0000
0100
0000
0001
0000
0010
0010
,
0100
0000
0000
0001
1000
0000
0000
0010
,
0100
0001
1000
0010
0100
0000
0000
0001
,
1000
0010
0001
0100
,
1000
0000
0001
0000
0110
0000
0100
0001
,
0000
0001
0100
1000
,
0010
0001
0110
0000
,
0000
0010
0100
1000
,
0010
0000
0001
0000
0110
0000
0100
1000
,
0000
1000
0100
0001
,
0010
0000
0001
0000
0110
0000
0000
0100
,
0010
0010
1000
0100
,
0001
0000
1000
0000
0110
0000
0001
1000
,
0000
0001
0100
1000
,
0010
0001
0110
0000
,
0000
0010
0100
0010
,
1000
0000
0001
0000
0110
0000
0100
0001
,
0000
1000
0100
0001
,
0010
0001
0110
0000
,
0000
0010
0001
0100
,
1000
0000
0001
0000
0100
0000
1000
0001
,
0000
0000
0100
0001
0000
0000
0000
0100
,
1000
0100
0001
0100
1000
0000
0000
0010
,
0100
0000
0000
0001
1000
0000
0000
0010
,
0100
0001
1000
0010
0100
0000
0000
0000
;

//---------------dance-single - ----------------
#NOTES:
     dance-single:
     :
     Hard:
     7:
     :
0000
0000
0000
0000
,
0000
0000
0000
0000
,
0000
0000
0000
0000
,
0000
0000
0000
0000
,
0000
0000
0000
0000
,
0000
0000
1000
0000
0100
0000
0010
0100
,
0001
0000
0010
0000
1001
0000
1000
0100
,
0000
0000
0000
0000
,
0000
0000
0000
0000
,
0010
0000
0100
0000
0000
0000
1000
0100
,
0000
1000
0000
0001
,
0010
0100
1000
0000
0010
0000
0100
0000
,
0001
0010
0001
0100
0001
1000
1001
0000
,
0010
0010
1000
0000
1000
1000
0100
0000
,
0100
0100
0001
0000
0001
0001
0010
0000
,
0010
0010
0001
0000
0001
0001
0100
0000
,
0100
0100
1000
0000
1000
0010
0110
0000
,
0010
0001
1000
0100
0001
0000
0000
0000
,
0010
1000
0000
0001
,
1000
0000
0000
0000
0010
0000
1000
0001
,
0010
0000
1000
0000
0100
0000
0001
1000
,
0010
0000
0000
1000
0100
0000
0000
0001
,
0010
0001
0100
0100
0010
0000
0000
1000
,
0001
0000
1000
0000
0100
0000
0010
0100
,
0001
0000
0010
0000
1001
0000
1000
0100
,
0000
0000
0001
0000
0100
0000
0100
1000
,
0010
0000
0010
0001
0100
0000
0000
0010
,
0100
0000
0001
0000
0100
0000
0010
0100
,
1000
0000
0010
0000
1001
0000
0001
0100
,
0000
0000
1000
0000
0100
0000
0100
0001
,
0010
0000
0010
1000
1010
0000
0000
0100
,
0010
0000
0100
0000
1000
0000
0100
0001
,
1000
0000
0001
0000
0110
0000
0010
1000
,
0000
0000
0001
0000
0100
0000
0100
1000
,
0010
0000
0010
0001
0100
0000
0000
0010
,
0100
0000
0010
0000
0001
0000
0100
1000
,
0001
0000
1000
0000
0110
0000
0010
0001
,
0000
0000
1000
0000
0100
0000
0100
0001
,
0010
0000
0010
1000
1010
0000
0000
0100
,
0010
0000
1000
0000
0100
0000
0010
0100
,
0001
0000
0010
0000
1001
0000
1000
0100
,
0000
0000
0001
0010
0000
0000
0000
0100
,
1000
0010
0001
1000
0100
0000
0000
0010
,
0110
0000
0000
1000
1001
0000
0000
0100
,
0010
0001
1000
0010
0100
0000
0000
0000
;

//---------------dance-single - ----------------
#NOTES:
     dance-single:
     :
     Challenge:
     12:
     :
0000
0000
0000
0000
,
0000
0000
0000
0000
,
0000
0000
0000
0000
,
0000
0000
0000
0000
,
0000
0000
0000
0000
,
0000
0000
0010
0001
0100
0010
1000
0000
,
0100
1000
0100
0010
1001
0000
1000
0100
,
0000
0000
0010
0001
0100
0000
1010
0000
,
0010
0100
0001
0010
0100
1000
0000
0000
,
0101
0000
0000
0000
1000
0000
0000
0000
0100
1000
0100
1000
0000
0000
0000
0000
,
0010
0010
0100
0100
0001
0100
0010
0000
,
1000
0000
0000
0010
1000
0000
0000
0000
0001
0000
0000
0100
0001
0000
0000
0000
,
1000
0100
0010
0001
0100
0010
1001
0000
,
0001
0001
0100
0000
1000
1000
0100
0000
,
0010
0100
1000
0001
0010
0001
1000
0000
,
1010
0000
0000
0000
0010
1000
0000
0000
0011
0000
0000
0000
0010
0001
0000
0000
,
0100
0001
0010
1000
0001
0000
0000
0001
,
0010
0000
0001
1000
0001
0000
1000
0000
0001
0000
0100
0000
0001
0100
0001
0000
,
0000
0000
1000
0001
1000
0000
0001
0000
1000
0000
0100
0000
1000
0100
1000
0000
,
0000
0000
0100
1000
0100
0000
0010
0000
0100
0000
0010
0000
0001
0010
0001
0000
,
0000
0100
0001
1000
0100
0010
0100
0001
,
1000
0000
0000
0010
0100
0000
0000
0001
,
1000
0100
0010
0001
1000
0000
0000
0010
,
0100
0000
0010
0001
0100
0010
1000
0000
,
0100
1000
0100
0010
1001
0000
0001
0100
,
0000
0000
0000
0000
0010
1000
0010
1000
0010
0000
0000
0000
0100
0001
0100
0001
,
0100
0000
0000
0000
0001
1000
0001
1000
0001
0000
0000
0000
1000
0000
0001
0000
,
0100
0000
0010
1000
0100
0010
0001
0000
,
0100
0001
0010
0100
1001
0000
1000
0100
,
0000
0000
0000
0000
1000
0100
1000
0100
1000
0000
0000
0000
0001
0010
0001
0010
,
0001
0000
0000
0000
0010
0100
0010
0100
0010
0000
0000
0000
0001
0000
1000
0000
,
0010
0000
0100
0010
1000
0100
1000
0000
,
0001
0010
0100
1000
1100
0000
0001
0100
,
0000
0000
1000
0000
1000
0000
1000
0100
,
0010
0000
0001
0000
0100
0000
0010
0000
1000
0000
0001
0000
1000
0100
1000
0100
,
1000
0000
0100
0010
0001
0100
0001
0000
,
1000
0010
0100
0001
0101
0000
1000
0100
,
0000
0000
0001
0000
0001
0000
0001
0100
,
0010
0000
1000
0000
0100
0000
0010
0000
0001
0000
0100
0000
0001
0010
0001
0010
,
0001
0000
0010
0001
0100
0010
1000
0000
,
0100
1000
0010
0100
1001
0000
1000
0100
,
1000
0001
0100
0010
0100
0000
0001
0100
,
0010
1000
0100
0001
0100
1000
0000
1010
,
0101
0000
0000
0011
1100
0000
0000
0001
,
0100
0010
1000
0001
1001
0000
0000
0000
;

//---------------dance-double - ----------------
#NOTES:
     dance-double:
     :
     Easy:
     6:
     :
00000000
00000000
00000000
00000000
,
00000000
00000000
00000000
00000000
,
00000000
00000000
00000000
00000000
,
00000000
00000000
00000000
00000000
,
00000000
00000000
00000000
00000000
,
00000000
01000000
00100000
10010000
,
00001000
00000000
00000100
00000000
00000010
00000000
00001000
00000001
,
00000000
00000000
00000000
00000000
,
00000000
00000000
00000000
00000000
,
00000010
00010000
00000000
10000000
,
00000000
01000000
00000000
00010000
,
00100000
00100000
00000000
00000000
00010000
00000000
00000000
00000000
,
00001000
00000010
00000000
00000000
00000100
00000000
00000001
00000000
,
00001000
00010000
00000000
00000000
00100000
10000000
00000000
00000000
,
01000000
00010000
00000000
00000000
00001000
00000100
00000000
00000000
,
00000000
00000010
00000000
00000100
,
00000000
00001000
01000000
00010000
,
01000000
00100000
00010000
00000000
00000000
00000000
01000000
00000000
,
00100000
00000000
00010000
00000000
,
00001000
00000000
00000100
00000000
,
00000010
00010000
00100000
00000100
,
00000110
00000000
00011000
00000000
,
00110000
00011000
00001010
00000000
,
00011000
01000000
00100000
10010000
,
00001000
00000000
00000100
00000000
00000010
00000000
00001000
00000001
,
00000000
00010000
00100000
10000000
,
01000000
00010000
00001000
00000000
,
00000000
00000100
00000010
00001001
,
00010000
00000000
01000000
00000000
00100000
00000000
00010000
10000000
,
00000000
00001000
00000010
00000001
,
00000100
00000000
00001000
00000000
00010000
00000000
00000000
01000000
,
00100000
01000000
00100000
10010000
,
00001000
00000000
00000100
00000000
00000010
00000000
00001000
00000001
,
00000000
00010000
00100000
10000000
,
01000000
00010000
00001000
00000000
,
00000000
00000100
00000010
00001001
,
00010000
00000000
01000000
00000000
00100000
00000000
00010000
10000000
,
00000000
00001000
00000010
00000001
,
00000100
00001000
00010000
00000000
,
00000000
01000000
00100000
10010000
,
00001000
00000000
00000100
00000000
00000010
00000000
00001000
00000001
,
00000000
00000000
00010000
00001000
00000000
00000000
00000000
00010000
,
00001000
00010000
00001000
00010000
00001000
00000000
00000000
00000000
,
00000110
00000000
00011000
00000000
,
01010000
00011000
00001100
00000000
;

//---------------dance-double - ----------------
#NOTES:
     dance-double:
     :
     Medium:
     7:
     :
00000000
00000000
00000000
00000000
,
00000000
00000000
00000000
00000000
,
00000000
00000000
00000000
00000000
,
00000000
00000000
00000000
00000000
,
00000000
00000000
00000000
00000000
,
00000000
00000000
01000000
00000000
00100000
00000000
00010000
00001000
,
00000010
00000000
00000100
00000000
00001001
00000000
00001000
00010000
,
00000000
00000000
00000000
00000000
,
00000000
00000000
00000000
00000000
,
00010000
00100000
00000000
01000000
,
00000000
00001000
00000000
00000100
,
00001000
00010000
01000000
00000000
00001000
00000000
00000100
00000000
,
00001000
00010000
00010000
00000000
00010000
00001000
00011000
00000000
,
00000001
00001000
00000100
00010000
,
01001000
00010000
00100000
00001000
,
00010010
00001000
00000100
00010000
,
01001000
00000000
00010000
00000000
00001000
00010000
00011000
00000000
,
00010000
00001000
01000000
00000000
00011000
00000000
00000000
00000000
,
00100000
10000000
00000000
00010000
,
00001000
00000000
00000010
00010000
,
00001000
00000010
00000100
00010000
,
00011000
00000000
01100000
00000000
,
10010000
00011000
00001001
00000000
,
00000110
00000000
00000100
00000000
00000010
00000000
00001000
00010000
,
00100000
00000000
01000000
00000000
10010000
00000000
00010000
00001000
,
00000000
00000100
00000001
00001000
,
00010000
00000000
01000000
00000000
00100000
00000000
00000000
00100000
,
01000000
00000000
01000000
00000000
00100000
00000000
00010000
00001000
,
00000010
00000000
00000100
00000000
00001001
00000000
00001000
00010000
,
00000000
01000000
10000000
00010000
,
00001000
00000000
00000100
00000000
00000010
00000000
00000000
00000100
,
00000010
00000000
00000010
00000000
00000100
00000000
00001000
00010000
,
01000000
00000000
00100000
00000000
10010000
00000000
00010000
00001000
,
00000000
00000100
00000001
00001000
,
00010000
00000000
01000000
00000000
00100000
00000000
00000000
00100000
,
01000000
00000000
00100000
00000000
01000000
00000000
00010000
00001000
,
00000100
00000000
00000010
00000000
00001001
00000000
00001000
00010000
,
00000000
01000000
10000000
00010000
,
00001000
00000000
00000010
00000000
00000100
00000000
00000000
00001000
,
00010000
00000000
01000000
00000000
00100000
00000000
00010000
00001000
,
00000010
00000000
00000100
00000000
00000001
00000000
00001000
00010000
,
00000000
00000000
01000000
00010000
00000000
00000000
00000000
00001000
,
00000010
00001000
00000100
00001000
00000010
00000000
00000000
00000000
,
00000011
00000000
00001100
00000000
,
00011000
01010000
10100000
00000000
;

//---------------dance-double - ----------------
#NOTES:
     dance-double:
     :
     Hard:
     8:
     :
00000000
00000000
00000000
00000000
,
00000000
00000000
00000000
00000000
,
00000000
00000000
00000000
00000000
,
00000000
00000000
00000000
00000000
,
00000000
00000000
00000000
00000000
,
01000000
00000000
01000000
00010000
00100000
00000000
00001000
00000000
,
00010000
00000000
00000100
00000010
00000100
00000000
00001000
00000001
,
00000000
00000100
00000010
00001000
00000100
00000000
00010000
00000000
,
00001000
00000000
00100000
00010000
00000000
00000000
00000000
00000000
,
10000000
00000000
01000000
00100000
00010000
00000000
01000000
00000000
,
00001000
00000000
00010000
00000100
00001000
00000000
00010000
00000000
,
00001000
01000000
00010000
00000000
00001000
00000000
00010000
00000000
,
00000100
00000010
00000001
00000100
00000010
00000000
00001001
00000000
,
00000100
00010000
00001000
00000000
00000100
00001000
00000001
00000000
,
00000100
00000010
00010000
00000000
00001000
00100000
01000000
00000000
,
10000000
00000000
00010000
00000000
01000000
00001000
00010000
00000000
,
00100000
01000000
10000000
00010000
01000000
00000000
00011000
00000000
,
01000000
00010000
01000000
00000000
00001000
00010000
00001000
00000000
,
00010000
00000000
00010000
00000000
00000100
00000010
00000001
00000000
,
00001000
00000100
00010000
00000010
00000100
00000000
00001001
00000000
,
00000100
00010000
00001000
01000000
00100000
00000000
10000000
01000000
,
00010000
00000000
01000000
10000000
00100000
00000000
11000000
00000000
,
00100000
00001000
00010000
00000100
00001000
00000000
00000101
00000000
,
00001000
00000000
00000100
00000000
00010000
00001000
00100000
00000000
,
00010000
01000000
00100000
10000000
01000000
00000000
00100000
00001000
,
00000000
00010000
00000100
00000010
00000001
00000000
00001000
00000100
,
00000000
00010000
00001000
01000000
00100000
00000000
10000000
01000000
,
00000000
00100000
00000000
00100000
00010000
01000000
00001000
00000000
,
00000000
00010000
00000000
00010000
00000100
00000010
00000001
00000000
,
00001000
00000000
00000100
00010000
00001000
00000000
00100000
00010000
,
01000000
00000000
00100000
10000000
01000000
00000000
00100000
00001000
,
00000000
00010000
00000000
00000100
00000000
00001000
00000000
00000001
,
00000000
00000100
00000000
00000010
00000000
00001000
00000100
00001000
,
00000000
00010000
00001000
01000000
00010000
00000000
10000000
00000000
,
00100000
00000000
01000000
00010000
00000000
00000000
00100000
00001000
,
00000000
00010000
00000000
00010000
00000000
00000100
00000010
00000000
,
00000000
00000001
00000000
00000001
00000000
00000100
00000010
00000000
,
00001100
00010100
00101000
00110000
,
10000000
00000000
00100000
01000000
00100000
00000000
10010000
00000000
,
01000000
00000000
00001000
00000000
00010000
00000100
00000010
00000000
,
00000001
00000000
00000100
00000000
00000010
00001000
00000100
00000000
,
00010000
00001000
01000000
00100000
10000000
01000000
00100000
00000000
,
00001000
00010000
00000100
00000010
00000001
00000000
00000000
00000100
,
00000010
00000000
00000000
00010000
00001000
00000000
00000000
00100000
,
01000000
10000000
00010000
01000000
00001000
00000000
00000000
00000000
;

//---------------dance-double - ----------------
#NOTES:
     dance-double:
     :
     Challenge:
     10:
     :
00000000
00000000
00000000
00000000
,
00000000
00000000
00000000
00000000
,
00000000
00000000
00000000
00000000
,
00000000
00000000
00000000
00000000
,
00000000
00000000
00000000
00000000
,
00000000
00000000
00010000
10000000
01000000
00000000
00010000
00000000
,
00001000
00000100
00000001
00000010
00001100
00000000
00010000
00001000
,
00000000
00000000
00010000
00000010
00001000
00000000
00000110
00000000
,
00001000
00010000
00100000
01000000
10000000
01000000
00000000
00000000
,
01100000
00000000
10000000
00010000
00100000
00000000
00011000
00000000
,
00000110
00000000
00000001
00000010
00000100
00001000
00000001
00000000
,
00001010
00000000
00110000
00000000
,
10000000
01000000
00100000
00010000
00001000
00000100
00000010
00000000
,
00000001
00000000
00000000
00000100
00000001
00000000
00000000
00000000
00001000
00000000
00000000
00000010
00001000
00000000
00000000
00000000
,
00000010
00000100
00001000
00010000
00100000
01000000
10000000
00000000
,
01000000
00000000
00000000
00000000
00010000
00000000
00100000
00000000
00001000
00000000
00000000
00010000
00001000
00000000
00000000
00000000
,
00010000
00000000
00000000
00000000
00000100
00000000
00001000
00000000
00000010
00000000
00000000
00000100
00000010
00000000
00000000
00000000
,
00000100
00000000
00000001
00000000
00000100
00000000
00000001
00000000
00001000
00000000
00000010
00000000
00001000
00000010
00001000
00000000
,
00010000
00000000
01000000
00000000
00010000
00000000
01000000
00000000
00100000
00000000
10000000
00000000
00100000
10000000
00100000
00000000
,
01000000
00000000
00010000
00000000
10000000
00000000
00010000
00000000
00100000
00000000
00001000
00000000
00010000
00001000
00010000
00000000
,
00001000
00010000
00000100
00001000
00000100
00000010
00000001
00000100
,
00000010
00000000
00000000
00001000
00010000
00000000
00000000
00100000
,
01000000
00001000
00010000
00001000
00011000
00000000
00000000
00100000
,
00010000
10000000
01000000
00010000
,
01000000
10000000
01000000
00100000
00010000
00000000
00001000
00010000
,
00000000
00000000
01100000
00000000
01000000
10000000
01000000
00000000
,
00100000
00010000
00001000
00010000
00001000
00000100
00000010
00000001
,
00000100
00000010
00001000
00000100
,
00001000
00000010
00000100
00000001
00000100
00000000
00001000
00010000
,
00000000
00000000
00001001
00000000
00000001
00001000
00000100
00000000
,
00000010
00000001
00000100
00000010
00001000
00000100
00010000
00001000
,
00001000
00000000
01000000
00010000
10000000
01000000
00010000
00000000
,
00001000
00000100
00000001
00001000
00000100
00000000
00010000
00011000
,
00000000
00000000
00001000
01000000
00001000
00010000
00000100
00000000
,
00000010
00000001
00000100
00001000
00010000
00100000
10000000
01000000
,
01000000
00000000
00100000
00010000
01000000
00001000
00010000
00000000
,
00000010
00000100
00000001
00001000
00000100
00000000
00001000
00000110
,
00000000
00000000
00000100
00000010
00010000
00001000
00100000
01000000
,
10000000
00010000
00100000
00001000
00010000
00000010
00000100
00000001
,
00000010
00000000
00000000
00000000
00000100
00000000
00010000
00001000
00010000
00000000
00001000
00000000
00100000
00000000
00000000
00000000
,
00010000
10000000
01000000
00100000
00010000
00000000
00001000
00011000
,
00000000
00000000
00100000
10000000
01000000
00100000
00001000
00010000
,
00001000
00010000
00000100
00000010
00000001
00000100
00000000
00001000
,
00001100
00000000
00000000
00010000
00110000
00000000
00000000
01000000
,
00100000
00001000
00010000
00000100
00000010
00000000
00000000
00000000
;

//---------------dance-couple - ----------------
#NOTES:
     dance-couple:
     :
     Easy:
     3:
     :
00000000
00000000
00000000
00000000
,
00000000
00000000
00000000
00000000
,
00000000
00000000
00000000
00000000
,
00000000
00000000
00000000
00000000
,
00000000
00000000
00000000
00000000
,
00000000
00100010
00010001
01000100
,
10001000
00000000
00010001
00000000
01000100
00000000
10001000
00010001
,
00000000
00000000
00000000
00000000
,
00000000
00000000
00000000
00000000
,
00100010
00010001
00000000
10001000
,
00000000
01000100
00000000
00010001
,
00100010
00000000
00000000
00000000
00010001
00010001
00000000
00000000
,
10001000
00000000
01000100
10001000
,
00100010
00100000
00000000
00000000
01000100
00000100
00000000
00000000
,
00010001
00010000
00000000
00000000
10001000
00001000
00000000
00000000
,
00000000
00100010
00000000
01000100
,
00000000
10001000
00010001
01000100
,
00100010
00100000
00010001
00000001
00000000
00000000
01000100
00000000
,
10000001
00000000
01000100
00000000
,
00011000
00000000
00100010
00000000
,
10000001
01000100
00011000
00100010
,
01100000
00000000
00001001
00000000
,
01100000
00001001
01100000
00000000
,
10011001
00100010
00010100
01000010
,
10001000
00000000
00010001
00000000
01000010
00000000
01000100
00010001
,
00000000
00000000
00010001
00000000
,
01000100
00000000
10001000
00000000
,
00000000
00100010
01000001
10000100
,
00101000
00000000
00010001
00000000
01000100
00000000
01000100
10000001
,
00000000
00000000
10001000
00000000
,
00100010
00000000
00000000
00000000
00010001
00000000
00000000
01000010
,
00100100
00100010
10000001
01000100
,
00011000
00000000
10000001
00000000
01000100
00000000
00011000
10000001
,
00000000
00000000
10001000
00000000
,
01000100
00000000
00010001
00000000
,
00000000
00100010
01000100
00101000
,
10000010
00000000
00010001
00000000
00100100
00000000
01000100
00011000
,
00000000
00000000
10001000
00000000
,
00100010
00000000
00010001
00000000
,
00000000
00100010
00011000
01000100
,
10000001
00000000
00011000
00000000
01000100
00000000
10000001
00011000
,
00000000
00000000
00000100
00000001
00000000
00000000
00000000
10000000
,
01000000
10000100
01000001
10000100
01000001
00000000
00000000
00000000
,
01101001
00000000
10010110
00000000
,
01101001
10010110
01100110
00000000
;

//---------------dance-couple - ----------------
#NOTES:
     dance-couple:
     :
     Medium:
     4:
     :
00000000
00000000
00000000
00000000
,
00000000
00000000
00000000
00000000
,
00000000
00000000
00000000
00000000
,
00000000
00000000
00000000
00000000
,
00000000
00000000
00000000
00000000
,
00000000
00100010
00010001
01000100
,
10001000
00000000
00010001
00000000
01100110
00000000
10001000
00010001
,
00000000
00000000
00000000
00000000
,
00000000
00000000
00000000
00000000
,
00100010
00000000
00010001
00000000
00000000
00000000
10001000
10001000
,
00000000
00000000
01000100
00000000
00000000
00000000
00010001
00010001
,
00100010
00000000
01000100
00000000
00000000
00000000
00100010
00100010
,
00000000
00010001
10001000
00000000
,
00100010
00010001
00100010
00000000
01000100
10001000
01000100
00000000
,
10001000
00100010
10001000
00000000
00010001
01000100
00010001
00000000
,
00000000
00100010
10001000
01000100
,
00010001
10001000
01000100
00000000
,
00100010
00010001
01000100
10001000
01000100
00000000
00000000
00000000
,
01000100
00010001
00000000
01000100
,
00011000
10000001
00100010
00011000
,
10000001
00000000
01000010
00000000
00011000
00000000
00100100
00100001
,
01001000
00000000
00000000
00010010
10000100
00000000
00000000
00100001
,
01001000
00010010
10000100
00100001
01001000
00000000
00000000
00010001
,
10001000
00100010
00010100
01000010
,
10001000
00000000
00010001
00000000
01100110
00000000
01000100
00010001
,
00000000
00010001
01000100
10001000
,
00100010
00000000
00010001
00000000
01100110
00000000
00000000
00100000
,
00010000
00100010
01000001
10000100
,
00101000
00000000
00010001
00000000
01100110
00000000
01000100
10000001
,
00000000
10001000
01000100
00010001
,
00100010
00000000
00010001
00000000
01100110
00000000
00000000
01000010
,
00100100
00100010
10000001
01000100
,
00011000
00000000
10000001
00000000
01100110
00000000
00011000
10000001
,
00000000
00010001
01000100
10001000
,
00100010
00000000
00010001
00000000
01100110
00000000
00000000
00000010
,
00001000
00100010
01000100
00101000
,
10000010
00000000
00010001
00000000
01100110
00000000
01000100
00011000
,
00000000
10001000
01000100
00010001
,
00100010
00010001
01100110
00000000
,
00000000
00100010
00011000
01000100
,
10000001
00000000
00011000
00000000
01000110
00000000
10000001
00011000
,
00000000
00000000
01000100
00011000
00000000
00000000
00000000
01000100
,
10000001
01000100
00011000
01000100
10000001
00000000
00000000
00100001
,
01001000
00000000
00000000
00010010
10000100
00000000
00000000
00100001
,
01001000
00010010
10000100
00100010
01000100
00000000
00000000
00000000
;

//---------------dance-couple - ----------------
#NOTES:
     dance-couple:
     :
     Hard:
     5:
     :
00000000
00000000
00000000
00000000
,
00000000
00000000
00000000
00000000
,
00000000
00000000
00000000
00000000
,
00000000
00000000
00000000
00000000
,
00000000
00000000
00000000
00000000
,
00000000
00000000
10001000
00000000
01000100
00000000
00100010
01000100
,
00010001
00000000
00100010
00000000
10011001
00000000
10001000
01000100
,
00000000
00000000
00000000
00000000
,
00000000
00000000
00000000
00000000
,
00100010
00000000
01000100
00000000
00000000
00000000
10000001
01000100
,
00000000
10000001
00000000
00011000
,
00100010
01000100
10000001
00000000
00100010
00000000
01000100
00000000
,
00011000
00100010
00011000
01000100
00011000
10000001
10011001
00000000
,
00100001
00100001
10000010
00000000
10000010
10000010
01001000
00000000
,
01001000
01001000
00010100
00000000
00010100
00010100
00100001
00000000
,
00100001
00100001
00010100
00000000
00010100
00010100
01001000
00000000
,
01001000
01001000
10000010
00000000
10000010
00100001
01101001
00000000
,
00100100
00011000
10000001
01000010
00011000
00000000
00000000
00000000
,
00100000
00000000
10000010
00000000
00000001
00000000
00011000
00000001
,
10000010
00000000
00001000
00000000
00100000
00000000
10000001
00010000
,
00101001
00000000
01100010
00000000
01001001
00000000
00011000
10000100
,
00100001
00000000
00000000
10000010
01000001
00000000
00000000
00011000
,
00100100
00011000
01000010
01000010
00100100
00000000
00000000
10001000
,
00010001
00000000
10001000
00000000
01000100
00000000
00100010
01000100
,
00010001
00000000
00100010
00000000
10011001
00000000
10001000
01000100
,
00000000
00000000
00010001
00000000
01000100
00000000
01000100
10001000
,
00100010
00000000
00100010
00010001
01000011
00000000
00000000
00100100
,
01000010
00000000
00010010
00000000
01000001
00000000
00100100
01001000
,
10000001
00000000
00101000
00000000
10010110
00000000
00010010
01000001
,
00000000
00000000
10001000
00000000
01000100
00000000
01000100
00010001
,
00100010
00000000
00100010
10001000
10100100
00000000
00000000
01000010
,
00100100
00000000
01000001
00000000
10000100
00000000
01000010
00010100
,
10001000
00000000
00010010
00000000
01101001
00000000
00100001
10000100
,
00000000
00000000
00011000
00000000
01000100
00000000
01000100
10000001
,
00100010
00000000
00100010
00011000
01001010
00000000
00000000
00100100
,
01000010
00000000
00100100
00000000
00011000
00000000
01000100
10000001
,
00011000
00000000
10000001
00000000
01100110
00000000
00100010
00011000
,
00000000
00000000
10000001
00000000
01000100
00000000
01000100
00011000
,
00100010
00000000
00100010
10000001
10100100
00000000
00000000
01000010
,
00100100
00000000
10001000
00000000
01000100
00000000
00100010
01000100
,
00010001
00000000
00100010
00000000
10011001
00000000
10000001
01000100
,
00000000
00000000
00011000
00100010
00000000
00000000
00000000
01000100
,
10000001
00100010
00011000
10000001
01000100
00000000
00000000
00100110
,
01100010
00000000
00000000
10001001
10011000
00000000
00000000
01000010
,
00100100
00011000
10000001
00100100
01000010
00000000
00000000
00000000
;

//---------------dance-couple - ----------------
#NOTES:
     dance-couple:
     :
     Challenge:
     5:
     :
00000000
00000000
00000000
00000000
,
00000000
00000000
00000000
00000000
,
00000000
00000000
00000000
00000000
,
00000000
00000000
00000000
00000000
,
00000000
00000000
00000000
00000000
,
00000000
00000000
10000001
00000000
01000100
00000000
00100010
01000100
,
00011000
00000000
00100010
00000000
10011001
00000000
10000001
01000100
,
00000000
01000100
10000001
01000100
,
00011000
01000100
00011000
00000000
10000001
00000000
01000100
00000000
,
00100000
10000000
00010001
01000000
00100000
01000000
10000001
01000000
,
00010000
00100000
01000001
00010000
00100000
01000000
10000001
01000000
,
00100000
01000000
00010001
10000000
01000000
10000000
00010001
00100000
,
01000000
00010000
10000001
01000000
00100000
10000000
01000001
00000000
,
00000010
00000001
10001000
00000100
00000010
00000100
10000001
00000100
,
00001000
00000010
10000100
00001000
00000010
00000100
10000001
00000100
,
00000010
00000100
10001000
00000001
00000100
00000001
10001000
00000010
,
00000100
00001000
10000001
00000100
00000010
00000001
10000100
00000000
,
00010000
10000000
01000001
01000000
00100000
00010000
10000001
00100000
,
00100000
00010000
10000001
01000000
00010000
01000000
00010001
00000000
,
00000001
00000001
10000100
00000100
00000010
00001000
10000001
00000010
,
00000010
00001000
10000001
00000100
00001000
00000100
10001000
00100000
,
01000000
00000000
00000000
00001000
00000001
00000000
00000000
00000010
,
00000100
00010000
10000000
00001000
00000001
00000000
00000000
01000000
,
00100000
00000010
00000001
10000100
,
00001000
00000000
10000001
00000000
00000110
00000000
10000100
00000001
,
00000000
10000001
00000100
10001000
,
00000010
10000001
00000110
10000000
,
00000000
00100000
00010000
01000001
,
10000000
00000000
00010001
00000000
01100000
00000000
01000001
00010000
,
00000000
00010001
01000000
10000001
,
00100000
00010001
01100000
00000001
,
00000000
00000000
10000100
00000000
00001000
00000000
10000100
00000001
,
00001000
00000000
10000001
00000000
00000110
00000000
10000010
00001000
,
00000000
00000000
10000001
00000000
00000100
00000000
10000100
00001000
,
00000010
00000000
10000010
00000001
00000100
00000000
10000000
00000010
,
00000100
00000000
01000001
00000000
00010000
00000000
01000001
10000000
,
00010000
00000000
10000001
00000000
01100000
00000000
00100001
00010000
,
00000000
00000000
10000001
00000000
01000000
00000000
01000001
00010000
,
00100000
00000000
00100001
10000000
01000000
00000000
00000001
00100000
,
01000000
00000000
00011000
00000000
01000100
00000000
00100010
01000100
,
10000001
00000000
00100010
00000000
10011001
00000000
00011000
01000100
,
00000000
00000000
00000001
00000010
00000000
00000000
00000000
01000000
,
10000000
00000010
00000001
10000000
01000000
00000000
00000000
00000010
,
00000110
00000000
00000000
10000000
10010000
00000000
00000000
00000100
,
00000010
00010000
10000000
00100010
01000100
00000000
00000000
00000000
;

//---------------dance-solo - ----------------
#NOTES:
     dance-solo:
     :
     Easy:
     4:
     :
000000
000000
000000
000000
,
000000
000000
000000
000000
,
000000
000000
000000
000000
,
000000
000000
000000
000000
,
000000
000000
000000
000000
,
000000
010000
000001
001000
,
000100
000000
000001
000000
001000
000000
000100
000001
,
000000
000000
000000
000000
,
000000
000000
000000
000000
,
010000
000001
000000
001000
,
000000
000010
000000
100000
,
000100
000100
000000
000000
001000
000000
000000
000000
,
000010
000000
100000
001000
,
000100
000100
000000
000000
000001
000001
000000
000000
,
010000
010000
000000
000000
000010
000010
000000
000000
,
000000
001000
000000
000001
,
000000
100000
001000
000100
,
000001
000001
010000
000000
000000
000000
000010
000000
,
100000
000000
001000
000000
,
000100
000000
000001
000000
,
100000
001000
010000
000001
,
001100
000000
100001
000000
,
001100
100001
001100
000000
,
100001
000100
000010
001000
,
000100
000000
100000
000000
001000
000000
001000
010000
,
000000
000000
000001
000000
,
001000
000000
000100
000000
,
000000
100000
001000
010000
,
000001
000000
001000
000000
000010
000000
100000
001000
,
000000
000000
000100
000000
,
000001
000000
000000
000000
100000
000000
000000
001000
,
000100
000001
010000
000010
,
100000
000000
000100
000000
001000
000000
000001
100000
,
000000
000000
010000
000000
,
001000
000000
000010
000000
,
000000
001000
000100
000001
,
100000
000000
000001
000000
010000
000000
001000
100000
,
000000
000000
100000
000000
,
000100
000000
001000
000000
,
000000
000010
100000
001000
,
010000
000000
000001
000000
001000
000000
000100
100000
,
000000
000000
001000
010000
000000
000000
000000
000001
,
000100
000001
000100
000001
000100
000000
000000
000000
,
100010
000000
001100
000000
,
010001
001100
100001
000000
;

//---------------dance-solo - ----------------
#NOTES:
     dance-solo:
     :
     Medium:
     5:
     :
000000
000000
000000
000000
,
000000
000000
000000
000000
,
000000
000000
000000
000000
,
000000
000000
000000
000000
,
000000
000000
000000
000000
,
000000
010000
000001
001000
,
000100
000000
100000
000000
010001
000000
001000
000100
,
000000
000000
000000
000000
,
000000
000000
000000
000000
,
000001
000000
010000
000000
000000
000000
000001
000001
,
000000
000000
001000
000000
000000
000000
000010
000010
,
100000
000000
001000
000000
000000
000000
000100
000100
,
000000
000001
010000
000000
,
001000
000100
001000
000000
010000
000001
010000
000000
,
000010
000100
000010
000000
100000
001000
100000
000000
,
000000
000001
001000
000100
,
100000
000010
001000
000000
,
000100
100000
001000
010000
000001
000000
000000
000000
,
001000
000010
000000
100000
,
000001
010000
000010
000100
,
001000
000000
100000
000000
000001
000000
000100
000100
,
001000
000000
000000
010000
000001
000000
000000
100000
,
000100
001000
000001
010000
001000
000000
000000
000100
,
000001
001000
000010
100000
,
001000
000000
000100
000000
100001
000000
001000
000010
,
000000
100000
001000
000100
,
000001
010000
100010
000000
,
000000
000100
001000
100000
,
000001
000000
010000
000000
001100
000000
000001
001000
,
000000
000100
100000
001000
,
000100
000000
000001
000000
100001
000000
000000
001000
,
010000
010000
000001
001000
,
000100
000000
100000
000000
011000
000000
000100
000001
,
000000
100000
001000
000001
,
000100
001000
100001
000000
,
000000
000100
001000
010000
,
000001
000000
100000
000000
001100
000000
100000
000010
,
000000
010000
001000
000100
,
000001
000010
001100
000000
,
000000
100000
000001
001000
,
000100
000000
100000
000000
000010
000000
010000
000001
,
000000
000000
001000
000100
000000
000000
000000
100000
,
001000
000010
001000
010000
001000
000000
000000
100000
,
000001
000000
000000
001000
000100
000000
000000
100000
,
001000
000100
000001
010000
000010
000000
000000
000000
;

//---------------dance-solo - ----------------
#NOTES:
     dance-solo:
     :
     Hard:
     6:
     :
000000
000000
000000
000000
,
000000
000000
000000
000000
,
000000
000000
000000
000000
,
000000
000000
000000
000000
,
000000
000000
000000
000000
,
000000
000000
000010
000000
001000
000000
000100
100000
,
001000
000000
000100
000000
100001
000000
000010
001000
,
000000
000000
000000
000000
,
000000
000000
000000
000000
,
010000
000000
001000
000000
000000
000000
000100
000001
,
000000
100000
000000
000010
,
001000
000001
100000
000000
001000
000000
000100
000000
,
000001
010000
000001
000100
000001
100000
001000
000000
,
000100
000100
000001
000000
010000
010000
001000
000000
,
001000
001000
100000
000000
100000
100000
000001
000000
,
000010
000010
100000
000000
100000
100000
001000
000000
,
001000
001000
000100
000000
000100
000001
000001
000000
,
001000
000010
100000
001000
000100
000000
000000
000000
,
000001
100000
000000
000010
,
010000
000000
000000
000000
000100
000000
100000
000001
,
000100
000000
001000
000000
100000
000000
000001
010000
,
000100
000000
000000
100000
001000
000000
000000
000100
,
000001
000100
001000
001000
100000
000000
000000
000010
,
010000
000000
001000
000000
000100
000000
000001
001000
,
000100
000000
100000
000000
101000
000000
010000
000001
,
000000
000000
001000
000000
000010
000000
000010
100000
,
000100
000000
000100
001000
000001
000000
000000
000100
,
001000
000000
010000
000000
001000
000000
000100
000001
,
100000
000000
000100
000000
001001
000000
000001
001000
,
000000
000000
100000
000000
001000
000000
010000
000001
,
000100
000000
000100
000010
001000
000000
000000
001000
,
000100
000000
100000
000000
000010
000000
000100
000001
,
001000
000000
000100
000000
100001
000000
010000
001000
,
000000
000000
000100
000000
000001
000000
000001
100000
,
000100
000000
000100
010000
001000
000000
000000
000100
,
000001
000000
000100
000000
000010
000000
010000
000100
,
100000
000000
001000
000000
010001
000000
000100
001000
,
000000
000000
100000
000000
000100
000000
000100
010000
,
000010
000000
000010
001000
000001
000000
000000
100000
,
001000
000000
000100
000000
000001
000000
010000
001000
,
000100
000000
000001
000000
010100
000000
100000
001000
,
000000
000000
000001
000100
000000
000000
000000
001000
,
100000
000100
001000
000010
100000
000000
000000
001000
,
001100
000000
000000
000001
100001
000000
000000
001000
,
000010
100000
001000
010000
000001
000000
000000
000000
;
