#TITLE:KUNG FU FIGHTING;
#ARTIST:BUS STOP ft. CARL DOUGLAS;
#BANNER:KUNG FU FIGHTING.png;
#BACKGROUND:KUNG FU FIGHTING-bg.png;
#CDTITLE:../CDTitles/Dancemania EXTRA.png;
#MUSIC:KUNG FU FIGHTING.ogg;
#SAMPLESTART:51.652;
#SAMPLELENGTH:15;
#DISPLAYBPM:116;
#BPMS:0=23.286,4=116.049;
#BGCHANGES:0=KUNG FU FIGHTING.avi=1=0=0=0,164=KUNG FU FIGHTING-bg.png=1=0=0=1;

//---------------dance-single - ----------------
#NOTES:
     dance-single:
     :
     Beginner:
     2:
     :
0000
0000
0000
0000
,
0000
0000
0000
0000
,
0000
0000
0000
0000
,
0000
0000
0001
0001
,
0000
0000
0100
0100
,
0000
0001
0000
1000
,
0000
0010
0000
0100
,
0000
0001
0000
1000
,
0000
0010
0000
0100
,
0000
0001
0000
1000
,
0000
0001
0000
1000
,
0000
0100
0000
0100
,
0000
0001
0000
0001
,
0000
0100
0000
0100
,
0000
1000
0000
1000
,
0000
0001
0000
0001
,
0000
1000
0000
1000
,
0000
0001
0000
0001
,
0000
0100
0000
0100
,
0000
0010
0000
0010
,
0000
0001
0000
1000
,
0000
0001
0000
0000
,
1001
0000
0100
0100
,
0000
0100
0000
0000
,
1001
0000
1000
1000
,
0000
1000
0000
0000
,
1001
0000
0010
0010
,
0000
0010
0000
0000
,
1001
0000
0100
0100
,
0000
1000
0000
0001
,
0000
0001
0000
1000
,
0000
0010
0000
0100
,
0000
0100
0000
0010
,
0000
0001
0000
1000
,
0000
1000
0000
0001
,
0000
0001
0000
0100
,
0000
0010
0000
0000
,
0000
1000
0000
0001
,
0000
1000
0000
0001
,
0000
0100
0000
0010
,
0000
0100
0000
0000
,
1001
0000
0000
0000
;

//---------------dance-single - ----------------
#NOTES:
     dance-single:
     :
     Easy:
     4:
     :
0000
0000
0000
0000
,
0000
0000
0000
0000
,
0000
0000
0000
0000
,
0000
0000
0010
0010
,
0000
0000
0100
0100
,
0000
0000
1000
1000
,
0000
0000
0001
0001
,
0000
0000
0010
0010
,
0000
0000
0100
0100
,
0000
0010
1000
1000
,
0000
0100
0001
0001
,
0000
0010
0100
1001
,
0000
0010
0100
1001
,
0000
0000
0010
0100
,
0000
0000
0001
1000
,
0000
0100
0001
0001
,
0000
0010
1000
1000
,
0000
0010
0001
0100
,
0000
0010
1000
0100
,
0000
1000
0010
0100
,
0000
0001
0010
0100
,
0000
0000
0010
0100
,
1001
0000
0000
0000
,
0000
0000
0010
0100
,
1001
0000
0000
0000
,
0000
0010
0100
0001
,
1001
0100
0100
0000
,
0000
0010
0100
1000
,
1001
0100
0100
0000
,
0000
0010
0000
0001
,
0000
0010
0100
0001
,
0000
0010
0000
1000
,
0000
0010
0100
1000
,
0000
0001
0000
0100
,
0000
1000
0000
1001
,
0000
1000
0000
0010
,
0000
0010
0000
0000
,
0000
1000
0100
1000
,
0010
0100
0010
0100
,
0000
0001
0100
0001
,
0010
0100
0010
0100
,
1001
0000
0000
0000
;

//---------------dance-single - ----------------
#NOTES:
     dance-single:
     :
     Medium:
     5:
     :
0000
0000
0000
0000
,
0000
0000
0000
0000
,
0000
0000
0000
0000
,
0000
1000
0010
0010
,
0000
0001
0100
0100
,
0000
0010
1000
1000
,
0000
0100
0001
0001
,
0000
1000
0010
1000
,
0000
0001
0100
0001
,
1001
0001
1000
1000
,
1001
1000
0001
0001
,
0010
0100
0010
1001
,
0010
0100
0010
1001
,
0000
1001
0010
0100
,
0000
0110
0001
1000
,
0001
1000
0001
0001
,
1000
0001
1000
1000
,
0110
1000
0001
0100
,
0110
0001
1000
0100
,
0000
1000
0010
0100
,
0010
0001
0010
0100
,
0000
0000
0010
0100
,
1001
0000
0000
0000
,
0000
0000
0010
0100
,
1001
0000
0000
0000
,
0000
0010
0100
0001
,
0101
1000
0100
0000
,
0000
0010
0100
1000
,
1100
0001
0100
1001
,
0000
0010
0000
0001
,
0000
0010
0100
0001
,
0000
0010
0000
1000
,
0000
0010
0100
1000
,
0000
0001
0010
1000
,
0000
1000
0100
1001
,
0000
1000
0000
0010
,
0000
0010
0000
0000
,
1100
0001
0100
1000
,
0010
0100
1000
0100
,
0101
1000
0100
0001
,
0010
0100
0001
0100
,
1001
0000
0000
0000
;

//---------------dance-single - ----------------
#NOTES:
     dance-single:
     :
     Hard:
     6:
     :
0000
0000
0000
0000
,
0000
0000
0000
0000
,
0000
0000
0000
0000
,
0000
0000
0000
0000
,
0000
0000
0000
0000
,
0100
0010
1000
1000
,
0010
0100
0001
0001
,
0100
1000
0010
1100
,
0010
0001
0100
0011
,
0110
0001
1000
0100
,
0110
1000
0001
0100
,
0010
0100
1010
0001
,
0010
0100
0011
1000
,
0010
0001
0100
1000
,
0010
1000
0100
0001
,
1001
0000
0110
0000
0001
0100
0001
0000
,
1001
0000
0110
0000
1000
0100
1000
0000
,
0010
1000
0011
0100
,
0010
0000
0001
0000
1010
0000
0100
0001
,
0010
1000
0010
0100
,
0010
0001
0010
0100
,
0000
0000
0010
0100
,
1001
0000
0010
0000
0100
1000
0001
0000
,
0000
0000
0010
0100
,
1001
0000
0010
0000
0100
0001
1000
0000
,
0000
0000
0010
0000
0100
1000
0001
0000
,
0101
0000
1000
0001
0100
0001
1000
0000
,
0000
0000
0010
0000
0100
0001
1000
0000
,
1100
0000
0001
1000
0100
1000
0001
0000
,
1000
0010
1000
0001
,
1000
0000
0010
0000
0100
1000
0001
0000
,
0001
0010
0001
1000
,
0001
0000
0010
0000
0100
0001
1000
0000
,
0000
0001
0010
1000
,
0000
1000
0100
1001
,
0000
1000
0010
0001
,
0000
0100
0000
0000
,
1100
0000
0001
0000
0100
0001
1000
0000
,
0010
0000
0100
1000
0001
0000
0100
0000
,
0101
0000
1000
0000
0100
1000
0001
0000
,
0010
0000
0100
0001
1000
0000
0100
0000
,
1001
0000
0000
0000
;

//---------------dance-single - ----------------
#NOTES:
     dance-single:
     :
     Challenge:
     10:
     :
0000
0000
0000
0000
,
0000
0000
0000
0000
,
0000
0000
0000
0000
,
0000
0000
0000
0000
,
0000
0000
0000
0000
,
1000
0100
1000
0100
0010
0000
0010
0000
0001
0000
0001
0000
0100
0000
0000
0000
,
0001
0100
0001
0100
0010
0000
0010
0000
1000
0000
1000
0000
0100
0000
0000
0000
,
1000
0001
1000
0001
0100
0000
0100
0000
0010
0000
0010
0000
1000
0000
0000
0000
,
0001
1000
0001
1000
0100
0000
0100
0000
0010
0000
0010
0000
0001
0000
0000
0000
,
0100
0001
0100
0001
1000
0000
0100
0000
0001
0000
0010
0000
1000
0000
0000
0000
,
0010
0100
0010
0100
0001
0000
0010
0000
1000
0000
0100
0000
0001
0000
0000
0000
,
1000
0001
1000
0001
0100
0000
1000
0000
0010
0000
0001
0000
0100
0000
0000
0000
,
0220
0000
0000
0330
,
0010
1000
0001
1000
0010
0100
0010
0100
,
0010
1000
0100
0010
0001
0010
0001
0010
,
0001
0100
1000
0100
0001
0100
0001
0100
,
0001
0010
1000
0100
0010
0001
0101
0000
,
0010
0001
0100
0001
1000
0001
1000
0001
,
0010
0100
1000
0001
0100
0010
0110
1001
,
0010
1000
0001
1000
0010
0100
0001
1000
,
2002
0000
0000
3003
,
0011
0000
0000
0001
0010
0000
0000
0010
0100
0000
0100
0000
1000
0001
1000
0000
,
1001
0000
0000
0000
0000
0000
0100
0001
1000
0000
0100
0000
0010
0000
0000
0000
,
0110
0000
0000
0100
1000
0000
0000
1000
0001
0000
0001
0000
0100
0010
0100
0000
,
1001
0000
0000
0000
0000
0000
0010
0001
1000
0000
0001
0000
0010
0000
0000
0000
,
1100
0000
0000
1000
0010
0000
0000
0010
0100
0000
0100
0000
0001
1000
0001
0000
,
0110
0000
0000
0000
0000
0000
0001
1000
0100
0000
1000
0000
0001
0000
0000
0000
,
0011
0000
0000
0010
0100
0000
0000
0100
1000
0000
1000
0000
0001
0100
0001
0000
,
0220
0000
0000
0330
,
0002
0203
2300
3020
,
0031
0010
0001
0010
0000
0100
1000
0000
0001
0000
0100
0000
0001
0000
0000
0000
,
2000
3200
0302
0023
,
1030
0010
1000
0010
0000
0100
0001
0000
0010
0000
0001
0000
0100
0000
0000
0000
,
0101
0000
1000
0010
0001
0100
1000
0000
,
0110
0000
0001
0010
1000
0100
0001
0000
,
0011
0000
1000
0010
0001
0100
1000
0000
,
2002
0000
0000
3003
,
0110
0000
0000
0000
1001
0000
0000
1000
0001
0100
0010
0000
0100
0000
0000
0000
,
0110
0000
0000
0000
1001
0000
0000
0001
1000
0100
0010
0000
0100
0000
0000
0000
,
1100
0000
0000
0000
0101
0000
0000
0001
1000
0010
0100
0000
0010
0000
0000
0000
,
1010
0000
0000
0000
0011
0000
0000
0001
0010
0100
1000
0000
0001
0000
0000
0000
,
1001
0000
0000
0000
;

//---------------dance-double - ----------------
#NOTES:
     dance-double:
     :
     Easy:
     5:
     :
00000000
00000000
00000000
00000000
,
00000000
00000000
00000000
00000000
,
00000000
00000000
00000000
00000000
,
00000000
00000000
00000000
00000000
,
00000000
00000000
00001000
00001000
,
00000000
00000000
01000000
01000000
,
00000000
00000000
00000100
00000100
,
00000000
00000000
00010000
01000000
,
00000000
00000000
00001000
00000100
,
00000000
00000000
00010000
00000100
,
00000000
00000000
00001000
01000000
,
00000000
00000000
00100000
10010000
,
01000000
00001000
00000100
00010000
,
00100000
01000000
00010000
00000100
,
00100000
01000000
00010000
10000000
,
01100000
10000000
00010000
01000000
,
00010000
00001000
00000100
00000001
,
00000110
00000001
00001000
00000100
,
00000010
00000100
00000010
00001001
,
00000100
00010000
01000000
00001000
,
00000100
00000001
00001000
00010000
,
00000000
00000000
00000010
00000100
,
00001001
01000000
10000000
00010000
,
00000000
00000000
00100000
01000000
,
10010000
00000100
00000001
00001000
,
00000000
00000010
00000100
00001000
,
00001001
00000100
00001000
00010000
,
00000000
00100000
01000000
00010000
,
10010000
01000000
00010000
00000000
,
00000000
00100000
00010000
00001000
,
00000000
00000010
00000100
00001000
,
00000000
00000010
00001000
00010000
,
00000000
00100000
01000000
00010000
,
00000000
00010000
00000000
01000000
,
00000000
10000000
00000000
10010000
,
00000000
10000000
00000000
00100000
,
00000000
00100000
00000000
00000000
,
10000000
00010000
00000100
00000001
,
00000010
00000100
00000010
00000100
,
00000001
00001000
01000000
10000000
,
00100000
01000000
00100000
01000000
,
10010000
00000000
00000000
00000000
;

//---------------dance-double - ----------------
#NOTES:
     dance-double:
     :
     Medium:
     6:
     :
00000000
00000000
00000000
00000000
,
00000000
00000000
00000000
00000000
,
00000000
00000000
00000000
00000000
,
00000000
00000000
00000000
00000000
,
00000000
00000000
00000000
00000000
,
00000000
00000000
01000000
01000000
,
00000000
00000000
00000100
00000100
,
00100000
00001000
00000100
00001000
,
00000010
00010000
01000000
00010000
,
00000100
00000001
00000010
00000100
,
00001001
00000010
00000100
00000001
,
00000011
00000100
00001000
00000100
,
00000010
00000001
00000100
00001000
,
01000000
10000000
00100000
01000000
,
10010000
00100000
01000000
10000000
,
10100000
01000000
00010000
01000000
,
00100000
10000000
01000000
00010000
,
00001000
00000001
00000010
00000101
,
00001000
00001100
00000011
00001000
,
00010000
10000000
00100000
11000000
,
00010000
01010000
10100000
00010000
,
00100000
00010000
01000000
10000000
,
10010000
00000100
00000001
00001000
,
00000010
00000100
00001000
00000010
,
00001001
01000000
10000000
00010000
,
10100000
01000000
00010000
00100000
,
10010000
00000100
00000001
00001000
,
00000011
00000100
00001000
00000010
,
00001001
01000000
10000000
00010000
,
00100000
01000000
00010000
00001000
,
00000010
00000100
00000011
00001000
,
00000010
00000100
00001000
00010000
,
00100000
01000000
10100000
00010000
,
00000000
00010000
00100000
10000000
,
00000000
10000000
01000000
10010000
,
00000000
10000000
00000000
00100000
,
00000000
00100000
00000000
00000000
,
10000000
00000000
00100000
00000000
01000000
00010000
00100000
00000000
,
00001000
00000010
00000001
00000100
,
00000001
00000000
00000010
00000000
00000100
00001000
00000010
00000000
,
00010000
00100000
10000000
01000000
,
10010000
00000000
00000000
00000000
;

//---------------dance-double - ----------------
#NOTES:
     dance-double:
     :
     Hard:
     7:
     :
00000000
00000000
00000000
00000000
,
00000000
00000000
00000000
00000000
,
00000000
00000000
00000000
00000000
,
00000000
00000000
00000000
00000000
,
00000000
00000000
00000000
00000000
,
10000000
01000000
00100000
01000000
10000000
00000000
00000000
00000000
,
00010000
01000000
00001000
00100000
00010000
00000000
00000000
00000000
,
00001000
00010000
00000100
00000000
00001000
00000010
00000100
00000000
,
00000001
00000000
00000001
00000000
00001000
00000100
00010000
00000000
,
00001000
00100000
01000000
10000000
00100000
00000000
00000000
00000000
,
01000000
00010000
00100000
00001000
00010000
00000000
00000000
00000000
,
00000100
00000010
00000100
00000000
00010000
00001000
00010000
00000000
,
01000000
00000000
01000000
00000000
00100000
10000000
00100000
00000000
,
00000000
00010000
00000000
00100000
,
00001000
00010000
00001000
00000000
00000110
00000000
00001001
00000000
,
00000000
00000010
00000000
00000100
,
00010000
00001000
00010000
00000000
01100000
00000000
10010000
00000000
,
00000000
00100000
00000000
01000000
,
00010000
01000000
00001000
00100000
00010000
00000000
00011000
00000000
,
00000010
00001000
00000100
00000000
00000010
00000001
00000100
00000000
,
00001100
00011000
00110000
10100000
,
01000000
00010000
00100000
00000000
,
00001000
00010000
00000010
00000100
00000001
00000000
00000000
00000000
,
00001000
00000100
00010000
00000000
,
00001000
01000000
00010000
10000000
01000000
00000000
00110000
00000000
,
01000000
00001000
00010000
00000000
,
00000100
00000010
00000001
00001000
00000100
00000000
00000000
00000000
,
00010000
00001000
01000000
00000000
,
00100000
10000000
01000000
00100000
00010000
00000000
00011000
00000000
,
00000000
00000000
00000100
00000000
00000000
00000000
00000010
00000001
,
00000000
00000000
00001000
00000000
00000100
00010000
00001000
00000000
,
00000000
00000000
00100000
00000000
00000000
00000000
00010000
10000000
,
00000000
00000000
01000000
00000000
00100000
00010000
01000000
00000000
,
00000000
00000000
00001000
00000000
00000000
00000000
00010000
00000100
,
00000000
00000000
00000010
00000000
00000001
00000100
00000010
00000000
,
00000000
00000000
00010000
00000000
00000000
00000000
00001000
00100000
,
00000000
00000000
00010000
00000000
10000000
01000000
00100000
00000000
,
00001000
00010000
00000100
00000010
00000001
00000100
00000010
00000000
,
00011000
00000000
01100000
00000000
10000000
00100000
01000000
00000000
,
00010000
00100000
00001000
00000010
00000001
00000100
00000010
00000000
,
00011000
00000000
01100000
00000000
00010000
10000000
00100000
00000000
,
00011000
00000000
00000000
00000000
;

//---------------dance-double - ----------------
#NOTES:
     dance-double:
     :
     Challenge:
     10:
     :
00000000
00000000
00000000
00000000
,
00000000
00000000
00000000
00000000
,
00000000
00000000
00000000
00000000
,
00000000
00000000
00000000
00000000
,
00000000
00000000
00000000
00000000
,
00000001
00001000
00000001
00001000
00000010
00000000
00000010
00000000
00000100
00000000
00000100
00000000
00000001
00000000
00000000
00000000
,
00001000
00000100
00001000
00000100
00010000
00000000
00010000
00000000
00001000
00000000
00001000
00000000
01000000
00000000
00000000
00000000
,
00100000
01000000
00100000
01000000
00010000
00000000
00010000
00000000
00100000
00000000
00100000
00000000
01000000
00000000
00000000
00000000
,
00010000
01000000
00010000
01000000
10000000
00000000
10000000
00000000
00010000
00000000
00010000
00000000
00100000
00000000
00000000
00000000
,
00001000
00010000
00001000
00010000
00001000
00000000
00001000
00000000
00000100
00000000
00000100
00000000
00000001
00000000
00000000
00000000
,
00001000
00000100
00001000
00000100
00000010
00000000
00000010
00000000
00000001
00000000
00000001
00000000
00001000
00000000
00000000
00000000
,
00000010
00000100
00000010
00000100
00001000
00000000
00001000
00000000
00010000
00000000
00010000
00000000
00100000
00000000
00000000
00000000
,
20020000
00000000
00000000
30030000
,
00200000
01300000
00000020
00000130
,
00200000
01300000
00000020
00000130
,
00000001
00000000
00001000
00000000
00010000
10000000
00010000
00000000
,
10000000
00000000
00010000
00000000
00001000
00000001
00001000
00000000
,
00000020
00000130
00200000
01300000
,
00000020
00000130
00200000
01300000
,
10000000
00000000
00010000
00000000
00001000
00000001
00001000
00000000
,
00000220
00000000
00000000
00000330
,
00001001
00000000
00000000
00000001
00000100
00000000
00000000
00000100
00001000
00000000
00001000
00000000
00010000
00001000
00010000
00000000
,
00012000
00000100
00023000
01030000
,
10010000
00000000
00000000
10000000
01000000
00000000
00000000
01000000
00010000
00000000
00010000
00000000
00001000
00010000
00001000
00000000
,
00021000
01000000
00032000
00003100
,
00001001
00000000
00000000
00000001
00000010
00000000
00000000
00000010
00001000
00000000
00001000
00000000
00010000
00001000
00010000
00000000
,
00012000
00000010
00023000
00130000
,
10010000
00000000
00000000
10000000
00100000
00000000
00000000
00100000
00010000
00000000
00010000
00000000
00001000
00010000
00001000
00000000
,
00021000
00100000
00032000
00003010
,
00001001
01000000
10010000
00000100
,
00001001
00000000
01000000
00000000
00100000
01000000
00100000
00000000
,
10010000
00000100
00001001
01000000
,
10010000
00000000
00000100
00000000
00000010
00000100
00000010
00000000
,
00000001
00000000
00001000
00000000
00100000
01000000
00100000
00000000
,
10000000
00000000
00010000
00000000
00000010
00000100
00000010
00000000
,
00000001
00000000
00001000
00000000
00100000
01000000
00100000
00000000
,
20020000
00000000
00000000
30030000
,
10100000
00000000
00000000
00000000
01010000
00000000
00000000
00010000
10000000
01000000
00010000
00000000
00001000
00000000
00000000
00000000
,
00001010
00000000
00000000
00000000
00000101
00000000
00000000
00000001
00001000
00000100
00000001
00000000
00000100
00000000
00000000
00000000
,
00000011
00000000
00000000
00000000
00001100
00000000
00000000
00001000
00000001
00000100
00001000
00000000
00010000
00000000
00000000
00000000
,
00110000
00000000
00000000
00000000
11000000
00000000
00000000
10000000
00010000
01000000
10000000
00000000
01000000
00000000
00000000
00000000
,
10010000
00000000
00000000
00000000
;

//---------------dance-couple - ----------------
#NOTES:
     dance-couple:
     :
     Easy:
     2:
     :
00000000
00000000
00000000
00000000
,
00000000
00000000
00000000
00000000
,
00000000
00000000
00000000
00000000
,
00000000
00000000
00100010
00100010
,
00000000
00000000
01000100
01000100
,
00000000
00000000
10001000
10001000
,
00000000
00000000
00010001
00010001
,
00000000
00000000
00100010
00100010
,
00000000
00000000
01000100
01000100
,
00000000
00100010
10000001
10000001
,
00000000
01000100
00011000
00011000
,
00000000
00100010
01000100
10011001
,
00000000
00100010
01000100
10011001
,
00000000
00000000
00100010
01000100
,
00000000
00000000
10000001
00011000
,
00000000
01000100
10000001
10000001
,
00000000
00100010
00011000
00011000
,
00000000
00100000
00010000
01000000
,
00000000
00000010
00001000
00000100
,
00000000
10000000
00100000
01000000
,
00000000
00000001
00000010
00000100
,
00000000
00000000
00100010
01000100
,
10011001
00000000
00000000
00000000
,
00000000
00000000
00100010
01000100
,
10011001
00000000
00000000
00000000
,
00000000
00100000
01000000
00010000
,
10010000
01000100
01000100
00000000
,
00000000
00000010
00000100
00001000
,
00001001
01000100
01000100
00000000
,
00000000
00100010
00000000
00011000
,
00000000
00100010
01000100
00011000
,
00000000
00100010
00000000
10000001
,
00000000
00100010
01000100
10000001
,
00000000
00010001
00000000
01000100
,
00000000
10001000
00000000
10011001
,
00000000
10001000
00000000
00100010
,
00000000
00100010
00000000
00000000
,
00000000
10001000
01000100
10001000
,
00100010
01000100
00100010
01000100
,
00000000
00010001
01000100
00010001
,
00100010
01000100
00100010
01000100
,
10011001
00000000
00000000
00000000
;

//---------------dance-couple - ----------------
#NOTES:
     dance-couple:
     :
     Medium:
     3:
     :
00000000
00000000
00000000
00000000
,
00000000
00000000
00000000
00000000
,
00000000
00000000
00000000
00000000
,
00000000
10001000
00100010
00100010
,
00000000
00010001
01000100
01000100
,
00000000
00100010
10001000
10001000
,
00000000
01000100
00010001
00010001
,
00000000
10001000
00100010
10001000
,
00000000
00010001
01000100
00010001
,
10011001
00010001
10001000
10001000
,
10011001
10001000
00010001
00010001
,
00100010
01000100
00100010
10011001
,
00100010
01000100
00100010
10011001
,
00000000
10010100
00100000
01000100
,
00000000
01000110
00000001
01001000
,
00011000
10000001
00011000
00011000
,
10000001
00011000
10000001
10000001
,
01100110
10001000
00010001
01000100
,
01100110
00010001
10001000
01000100
,
00000000
10001000
00100010
01000100
,
00100010
00010001
00100010
01000100
,
00000000
00000000
00100010
01000100
,
10011001
00000000
00000000
00000000
,
00000000
01000010
00000100
01000001
,
00000101
10001000
01000100
10001000
,
00000000
00100100
01000000
10000100
,
11000000
00010001
01000100
00010001
,
00000000
10000001
01000100
00011000
,
10011001
01000100
10000001
00000000
,
00000000
00100000
00000010
00010000
,
00000001
00100000
01000010
00010100
,
00000001
00100000
00000010
10000000
,
00001000
00100010
01000100
10001000
,
00000000
00010001
00100010
10001000
,
00000000
10001000
01000100
10011001
,
10000000
00001000
00000100
01000000
,
00010000
00000001
01100110
00000000
,
11001100
00010001
01000100
10001000
,
00100010
01000100
10001000
01000100
,
01010101
10001000
01000100
00010001
,
00100010
01000100
00010001
01000100
,
10011001
00000000
00000000
00000000
;

//---------------dance-couple - ----------------
#NOTES:
     dance-couple:
     :
     Hard:
     4:
     :
00000000
00000000
00000000
00000000
,
00000000
00000000
00000000
00000000
,
00000000
00000000
00000000
00000000
,
00000000
00000000
00000000
00000000
,
00000000
00000000
00000000
00000000
,
01000100
00100010
10001000
10001000
,
00100010
01000100
00010001
00010001
,
01000100
10001000
00100010
11001100
,
00100010
00010001
01000100
00110011
,
01100110
00010001
10001000
01000100
,
01100110
10001000
00010001
01000100
,
00100010
01000100
10101010
00010001
,
00100010
01000100
00110011
10001000
,
00100010
00010001
01000100
10001000
,
00100010
10001000
01000100
00010001
,
10011001
00000000
01100110
00000000
00010001
01000100
00010001
00000000
,
10011001
00000000
01100110
00000000
10001000
01000100
10001000
00000000
,
00100010
10001000
00110011
01000100
,
00100010
00000000
00010001
00000000
10101010
00000000
01000100
00010001
,
00100010
10001000
00100010
01000100
,
00100010
00010001
00100010
01000100
,
00000000
00000000
00100010
01000100
,
10011001
00000000
00100010
00000000
01000100
10000001
00011000
00000000
,
00000000
00000000
00100010
01000100
,
10011001
00000000
00100010
00000000
01000100
00011000
10000001
00000000
,
00000000
00000000
00100000
00000000
01000000
10000000
00010000
00000000
,
01010000
00000000
10001000
00010001
01000100
00010001
10001000
00000000
,
00000000
00000000
00000010
00000000
00000100
00000001
00001000
00000000
,
00001100
00000000
00010001
10001000
01000100
10001000
00010001
00000000
,
00001000
00100010
00001000
00010001
,
00001000
00000000
00100010
00000000
00000100
00001000
00010001
00000000
,
00010000
00100010
00010000
10001000
,
00010000
00000000
00100010
00000000
01000000
00010000
10001000
00000000
,
00000000
10000001
00100010
00011000
,
00000000
00011000
01000100
10011001
,
00000000
00011000
00100010
10000001
,
00000000
01000100
00000000
00000000
,
11001100
00000000
00010001
00000000
01000100
00010001
10001000
00000000
,
00100010
00000000
01000100
10001000
00010001
00000000
01000100
00000000
,
01010101
00000000
10001000
00000000
01000100
10001000
00010001
00000000
,
00100010
00000000
01000100
00010001
10001000
00000000
01000100
00000000
,
10011001
00000000
00000000
00000000
;

//---------------dance-couple - ----------------
#NOTES:
     dance-couple:
     :
     Challenge:
     4:
     :
00000000
00000000
00000000
00000000
,
00000000
00000000
00000000
00000000
,
00000000
00000000
00000000
00000000
,
00010000
00000000
10000000
00000000
10000000
10000000
00010000
00000000
,
00000001
00000000
00001000
00000000
00001000
00001000
00000001
00000000
,
10010000
00000000
01000001
00000000
10010000
10010000
01000001
00000000
,
00100000
10000000
00100001
10000000
10000000
10000000
01000001
00000000
,
00010000
00010000
00010001
00010000
00010000
10000000
01000001
00000000
,
10000000
00010000
10000001
00010000
10000000
10000000
01000001
00000000
,
00001001
00000000
10000100
00000000
00001001
00001001
10000100
00000000
,
00000010
00001000
10000010
00001000
00001000
00001000
10000100
00000000
,
00000001
00000001
10000001
00000001
00000001
00001000
10000100
00000000
,
00001000
00000001
10001000
00000001
00001000
00001000
10000100
00000000
,
10010000
00000000
00100001
00000000
10000000
01000000
00100001
00000000
,
00100000
10000000
00100001
10000000
00010000
00010000
01000001
00000000
,
00001001
00000000
10000010
00000000
00001000
00000100
10000010
00000000
,
00000010
00001000
10000010
00001000
00000001
00000001
10000100
00000000
,
10001000
00000000
01000100
00010001
00010001
00000000
01000100
00000000
,
00100010
00000000
00100010
00000000
00000000
00000000
01100110
10011001
,
00000000
01000100
00000000
01000100
,
00000000
00000000
00000000
00000000
00100010
00100010
00100010
00000000
,
00010000
00010000
10000001
10000000
00010000
10000000
00010001
10000000
,
10010000
00000000
01000001
01000000
00010000
01000000
01000001
00000000
,
00100000
10000000
01000001
01000000
00100000
10000000
01000001
00000000
,
10010000
00000000
01000001
01000000
00010000
01000000
01000001
00000000
,
00000001
00000001
10001000
00001000
00000001
00001000
10000001
00001000
,
00001001
00000000
10000100
00000100
00000001
00000100
10000100
00000000
,
00000010
00001000
10000100
00000100
00000010
00001000
10000100
00000000
,
00001001
00000000
10000100
00000100
00000001
00000100
10000100
00000000
,
10010000
00001001
10010000
00001001
,
10010000
00000000
00001001
00000000
00100010
01000100
01000100
00000000
,
00010000
00010000
01000000
00000000
10000000
10000000
01000000
00000000
,
00000001
00000001
00000100
00000000
00001000
00001000
00000100
00000000
,
10010000
00000000
01000000
00000000
00100000
01000000
00100000
00000000
,
00001001
00000000
00000100
00000000
00000010
00000100
00000010
00000000
,
00010000
00010000
00010000
00000000
00001000
00001000
00001000
00000000
,
11000101
00000000
00000000
00000000
,
11000000
00000000
00010001
00000000
01000000
00010000
10000001
00000000
,
00100000
00000000
01000001
00000000
00010000
10000000
01000001
00000000
,
00001100
00000000
10000001
00000000
00000100
00000001
10001000
00000000
,
00000010
00000000
10000100
00000000
00000001
00001000
10000100
00000000
,
00010001
00000000
00000000
00000000
;

//---------------dance-solo - ----------------
#NOTES:
     dance-solo:
     :
     Easy:
     3:
     :
000000
000000
000000
000000
,
000000
000000
000000
000000
,
000000
000000
000000
000000
,
000100
000100
000000
000000
,
001000
001000
000000
000000
,
000100
000100
000001
000000
,
100000
100000
001000
000000
,
010000
100000
001000
000000
,
000010
000001
001000
000000
,
100000
000100
000001
000000
,
000001
100000
000001
000000
,
000001
000100
100000
000000
,
100000
000001
001000
000000
,
000100
100000
001000
000001
,
000001
001000
100000
000100
,
010000
000010
001000
000100
,
100000
000001
010000
000010
,
000100
000001
001000
100000
,
100000
001000
000001
000100
,
001000
000000
100001
000000
,
010000
000010
001000
000100
,
000000
000000
000001
100000
,
010010
000010
000010
000000
,
000000
000000
100000
000001
,
010010
010000
010000
000000
,
000000
000100
001000
000001
,
100001
001000
001000
000000
,
000000
000100
001000
100000
,
100001
001000
001000
100001
,
000000
000010
000000
010000
,
000000
000010
000000
010000
,
000000
010010
000000
000100
,
000000
000001
000000
100000
,
000000
000010
000000
010000
,
000000
100001
000000
000100
,
000000
000010
000000
010000
,
100001
000000
000000
000000
,
100000
001000
100000
000100
,
001000
000100
001000
000000
,
000001
001000
000001
000100
,
001000
000100
001000
000000
,
100001
000000
000000
000000
;

//---------------dance-solo - ----------------
#NOTES:
     dance-solo:
     :
     Medium:
     5:
     :
000000
000000
000000
000000
,
000000
000000
000000
000000
,
000000
000000
000000
000000
,
000010
000100
000100
000000
,
100000
000001
000001
000000
,
001000
000000
001000
000001
001000
000010
000010
000000
,
000100
000000
000100
100000
000100
010000
010000
000000
,
000001
000010
000001
000100
001000
000000
001000
000000
,
100000
010000
100000
000100
001000
000000
001000
000000
,
100000
000000
100000
000001
100000
001000
001000
000000
,
000001
000000
000001
100000
000001
001000
001000
000000
,
000100
001000
000100
100000
000100
010000
010000
000000
,
000100
001000
000100
000001
000100
000010
000010
000000
,
000100
100000
000000
001000
000001
000000
000001
000000
,
000001
001000
100000
000000
000100
000000
000100
000000
,
000100
100000
001000
000000
000001
000010
000001
000000
,
000100
000001
001000
000000
100000
010000
100000
000000
,
000100
100000
001000
000000
000001
000000
000001
000000
,
000001
001000
100000
000000
000100
000000
000100
000000
,
000100
001000
000100
000000
100000
000001
100000
000000
,
010010
000000
100001
000000
001000
001000
001000
000000
,
000100
000010
100000
000000
000100
010000
000001
000000
,
100001
000000
000000
001001
001001
000000
000000
000000
,
000100
010000
000001
000000
000100
000010
100000
000000
,
100001
000000
000000
000000
101000
101000
000000
000000
,
001000
010000
001000
100000
001000
010000
001000
000000
,
100001
000000
000000
000000
,
001000
000010
001000
000001
001000
000010
001000
000000
,
100001
000000
000000
000000
,
001000
000001
000010
000000
001000
100000
010000
000000
,
001000
000000
000010
000000
000001
001000
100000
000000
,
100000
001000
000001
000000
001001
000000
101000
000000
,
000001
001000
100000
000000
101000
000000
001001
000000
,
001000
000001
000010
000000
001000
100000
010000
000000
,
001000
000000
000010
000000
000001
001000
100000
000000
,
100000
001000
000001
000000
001001
000000
101000
000000
,
100001
000000
000000
000000
,
101000
000001
010000
000010
,
000100
001000
100000
000001
,
001001
000100
100000
000001
,
010000
000010
001000
000100
,
100001
000000
000000
000000
;

//---------------dance-solo - ----------------
#NOTES:
     dance-solo:
     :
     Hard:
     7:
     :
000000
000000
000000
000000
,
000000
000000
000000
000000
,
000000
000000
000000
000000
,
000000
000000
000000
000000
,
000000
000000
000000
000000
,
100000
000001
000100
000000
000001
100000
000100
000000
,
100000
000001
001000
000000
000001
100000
001000
000000
,
001000
100000
001000
100000
001000
000000
001000
000000
001000
000000
010000
000000
010000
000000
000000
000000
,
001000
100000
001000
100000
001000
000000
001000
000000
001000
000000
010000
000000
010000
000000
000000
000000
,
000100
001000
000001
000001
,
000100
001000
100000
100000
,
001000
000001
001000
000001
001000
000000
001000
000000
001000
000000
000010
000000
000010
000000
000000
000000
,
001000
000001
001000
000001
001000
000000
001000
000000
001000
000000
000010
000000
000010
000000
000000
000000
,
001000
000100
100000
000010
001000
000100
100000
000010
,
001000
000100
100000
000010
001000
000100
100000
000010
,
001000
000100
000001
010000
001000
000100
000001
010000
,
001000
000100
000001
010000
001000
000100
000001
000000
,
100000
010000
100000
000000
100000
000010
100000
000000
,
000001
000010
000001
000000
000001
010000
000001
000000
,
000001
100000
001000
000100
000010
010000
001000
000100
,
100001
010000
000010
000010
000010
000010
000010
000000
,
000011
110000
000110
010100
,
100001
000000
000000
001000
001000
000000
000000
000000
,
000011
110000
001010
011000
,
100001
000000
000000
000100
000100
000000
000000
000000
,
011000
100001
001100
100001
,
010010
000000
001000
000001
100000
000000
000000
000000
,
000101
101000
001100
100000
,
100001
000000
000001
001000
100000
000000
100001
000000
,
001000
000100
100000
000010
001000
000100
100000
000010
,
001000
000100
100000
000001
000100
001000
010000
000000
,
000001
000100
001000
010000
000001
000100
001000
010000
,
000001
000100
001000
010000
000001
100000
000100
000000
,
001000
000010
100000
000100
001000
000010
100000
000100
,
001000
000010
100000
000100
001000
000001
100000
000000
,
001000
010000
000001
000100
001000
010000
000001
000100
,
001000
010000
000001
000100
001000
100000
000001
000000
,
101000
000000
000001
000000
010000
000001
001000
000000
,
000100
000000
100000
000010
001000
000000
100000
000000
,
001001
000000
100000
000000
000100
001000
000010
000000
,
100000
000000
001000
010000
000001
000000
001000
000000
,
100001
000000
000000
000000
;
