#TITLE:our intention;
#SUBTITLE:;
#ARTIST:TOMOYUKi;
#TITLETRANSLIT:;
#SUBTITLETRANSLIT:;
#ARTISTTRANSLIT:;
#GENRE:;
#CREDIT:;
#BANNER:our_intention-bn.png;
#BACKGROUND:our_intention-bg.png;
#CDTITLE:eternal_tune-cdtitle.png;
#MUSIC:our_intention.ogg;
#OFFSET:-0.244;
#SAMPLESTART:42.420000;
#SAMPLELENGTH:12.000000;
#SELECTABLE:YES;
#BPMS:0.000=187.000
,162.000=280.500
,162.500=187.001
;
#STOPS:162.000=0.013
,162.125=0.013
,162.250=0.013
,162.375=0.013
;
#BGCHANGES:357.000=note_movie.avi=1.000=1=0=0=StretchNoLoop==CrossFade==,
388.000=our_intention-bg.png=1.000=0=0=0=StretchNoLoop====,
99999.000=-nosongbg-=1.000=0=0=0=StretchNoLoop====
;
#FGCHANGES:;

//---------------dance-single - NAOKI----------------
#NOTES:
     dance-single:
     NAOKI:
     Beginner:
     6:
     0.187000,0.256000,0.008000,0.204000,0.000000:
0000
0000
0000
0000
,
0000
0000
0000
0000
,
0000
0000
0000
0000
,
0000
0000
0000
0000
,
0000
0000
0000
0000
,
2000
0000
0000
3000
0000
0000
0000
0000
,
0000
0000
0000
0000
,
0002
0000
0000
0003
0000
0000
0000
0000
,
0000
0000
0000
0000
,
0020
0000
0000
0030
0000
0000
0000
0000
,
0000
0000
0000
0000
,
0200
0000
0000
0300
0000
0000
0000
0000
,
0000
0000
0000
0000
,
0002
0000
0000
0003
0000
0000
0000
0000
,
0000
0000
0000
0000
,
2000
0000
0000
3000
0000
0000
0000
0000
,
0020
0000
0000
0030
,
0100
0000
0001
0000
,
1000
0000
0100
0000
,
0010
0000
0001
0000
,
0100
0000
0100
0000
,
0010
0000
1000
0000
,
0001
0000
0010
0000
,
0100
0000
0100
0000
,
1000
0000
0002
0000
,
0103
0000
0010
0000
,
1000
0000
1000
0000
,
0100
0000
0010
0000
,
0001
0000
0002
0000
,
1003
0000
0010
0000
,
0100
0000
0001
0000
,
0010
0000
0100
0000
,
1000
0000
0000
0000
,
0001
0000
0100
0000
,
0010
0010
0010
0000
,
1000
0000
0100
0000
,
0010
0010
0010
0000
,
0001
0000
1000
0000
,
0010
0010
0010
0000
,
0100
0000
0001
0000
,
0010
0000
0100
0000
,
1000
0000
0010
0000
,
0100
0100
0100
0000
,
0001
0000
0010
0000
,
0100
0100
0100
0000
,
1000
0000
0001
0000
,
0100
0100
0100
0000
,
0010
0000
1000
0000
,
0001
0000
0010
0000
,
0200
0000
0300
0000
,
2000
0000
3000
0000
,
0002
0000
0003
0000
,
0200
0000
0300
0000
,
0020
0000
0030
0000
,
2000
0000
3000
0000
,
0002
0000
0003
0000
,
0020
0000
0030
0000
,
0001
0000
0000
0000
,
1000
0000
0000
0000
,
0010
0000
0000
0000
,
0100
0000
0000
0000
,
0001
0000
0000
0000
,
1000
0000
0000
0000
,
0010
0000
0100
0000
,
0001
1000
0001
1000
,
0001
0000
0100
0000
,
0010
0000
1000
0000
,
0001
0000
0010
0000
,
0001
0000
1000
0000
,
0010
0000
0100
0000
,
0001
0000
1000
0000
,
0100
0000
1000
0000
,
0001
0000
0100
0000
,
0010
0000
0010
0000
,
1000
0000
0100
0000
,
0010
0000
0010
0000
,
0001
0000
1000
0000
,
0100
0000
0100
0000
,
0010
0000
0001
0000
,
0100
0000
0100
0000
,
0010
0000
1000
0000
,
0002
0000
0003
0000
,
0020
0000
0030
0000
,
0200
0000
0300
0000
,
2000
0000
3000
0000
,
0002
0000
0003
0000
,
0200
0000
0300
0000
,
0020
0000
0030
0000
,
2000
0000
3000
0000
,
0100
0000
0000
0000
,
0010
0000
0000
0000
,
0001
0000
0000
0000
,
1000
0000
0000
0000
,
0010
0000
0000
0000
,
0100
0000
0000
0000
,
0001
0000
1000
0000
,
2002
0000
0000
0000
0000
0000
0000
0000
0000
0000
0000
0000
0000
0000
0000
3003
;

//---------------dance-single - NAOKI----------------
#NOTES:
     dance-single:
     NAOKI:
     Easy:
     8:
     0.298000,0.480000,0.098000,0.287000,0.000000:
0000
0000
0000
0000
,
0000
0000
0000
0000
,
0000
0000
0000
0000
,
0000
0000
0000
0000
,
0000
0000
0000
0000
,
0010
0000
0000
0010
0000
0000
0000
0000
,
0100
0000
0001
1000
,
0100
0000
0000
0100
0000
0000
0000
0000
,
0010
0000
0001
0000
,
0100
0000
0000
0100
0000
0000
0000
0000
,
0010
0000
1000
0001
,
0010
0000
0000
0010
0000
0000
0000
0000
,
0100
0000
1000
0000
,
0010
0000
0000
0010
0000
0000
0000
0000
,
0100
0000
0001
1000
,
0100
0000
0000
0100
0000
0000
0000
0000
,
0020
0000
0000
0030
,
0001
0000
1000
0000
,
0010
0100
0010
0000
,
1000
0000
0100
0000
,
0010
0000
0100
0000
,
1000
0000
0001
0000
,
0100
0010
0100
0000
,
0001
0000
0010
0000
,
0100
0000
0010
0000
,
0001
0000
1000
0000
,
0100
0010
0100
0000
,
1000
0000
0010
0000
,
0100
0000
0010
0000
,
1000
0000
0001
0000
,
0010
0100
0010
0000
,
0001
0000
0100
0000
,
0010
0000
0100
0000
,
0002
0000
1003
0000
,
2000
3200
0320
0031
,
1000
0010
0200
0300
,
0001
0000
0010
0100
,
2000
0000
3001
0000
,
0002
0203
0320
1030
,
0001
0010
0200
0300
,
1000
0000
0010
0100
,
0002
0000
1003
0000
,
2000
3020
0230
0301
,
1000
0100
0020
0030
,
0001
0000
0100
0010
,
2000
0000
3001
0000
,
0002
0023
0230
1300
,
0001
0100
0020
0030
,
1000
0000
0001
0000
,
1002
0000
1003
0000
,
0010
0000
0010
0000
,
0100
0000
0100
0000
,
0001
0000
1000
0000
,
2001
0000
3001
0000
,
0010
0000
0010
0000
,
0100
0000
0100
0000
,
1000
0000
0001
0000
,
1001
0000
0000
0000
,
0010
0000
0000
0000
,
0110
0000
0000
0000
,
0100
0000
0000
0000
,
0101
0000
0000
0000
,
1010
0000
0000
0000
,
1100
0000
0011
0000
,
1001
0110
1001
0110
,
0010
1000
0100
0010
,
0002
1000
1003
0010
,
0200
0001
0000
1300
,
0000
0100
0010
1000
,
0100
0010
0001
0100
,
0020
0030
1000
0001
,
0010
0000
0100
0000
,
1000
0010
0200
0300
,
0100
0001
0010
0100
,
2000
0001
3001
0100
,
0020
1000
0000
0031
,
0000
0010
1000
0100
,
0010
0001
0100
0020
,
0030
1000
0001
0010
,
0100
0000
1000
0000
,
1001
0000
0000
0000
,
0001
0000
0001
0000
,
0100
0000
0100
0000
,
0010
0000
0010
0000
,
1000
0000
0001
0000
,
1000
0000
1000
0000
,
0100
0000
0100
0000
,
0010
0000
0010
0000
,
0001
0000
1000
0000
,
0002
0000
0103
0000
,
0200
0000
0310
1000
,
0200
0000
0310
0000
,
0002
0000
0103
0010
,
2000
0000
3100
0000
,
0200
0000
0310
0001
,
0200
0000
0310
0000
,
1000
0100
0010
0001
,
0200
0000
0000
0300
;

//---------------dance-single - NAOKI----------------
#NOTES:
     dance-single:
     NAOKI:
     Medium:
     11:
     0.435000,0.480000,0.008000,0.272000,0.000000:
0000
0000
0000
0000
,
0000
0000
0000
0000
,
0000
0000
0000
0000
,
0000
0000
0000
0000
,
0000
0000
0000
0000
,
0010
0000
0000
0010
0000
1000
0001
0000
,
0010
0000
0100
1000
,
0001
0000
0000
0001
0000
0100
0010
0000
,
1000
0100
0010
0001
,
0100
0000
0000
0100
0000
0001
1000
0000
,
0100
0000
0010
0001
,
1000
0000
0000
1000
0000
0010
0100
0000
,
0001
0000
1000
0100
,
0010
0000
0000
0010
0000
0001
1000
0000
,
0010
0100
0001
1000
,
0100
0000
0000
0100
0000
1000
0001
0000
,
0200
0000
0000
0300
,
0010
0000
1000
0001
0000
0000
0010
0000
,
0100
1000
0001
0100
,
0010
0000
1000
0001
0000
0000
0010
0000
,
0100
1000
0010
0010
,
0100
0000
0001
1000
0000
0000
0100
0000
,
0010
0001
1000
0010
,
0100
0000
0001
1000
0000
0000
0100
0000
,
0010
0001
0010
0010
,
0100
0000
1000
0001
0000
0000
0100
0000
,
0010
1000
0001
0010
,
0100
0000
1000
0001
0000
0000
0100
0000
,
0010
1000
0001
0010
,
0100
0000
1000
0001
0000
0000
0100
0000
,
0010
1000
0100
0100
,
0010
0000
0001
1000
0000
0000
0010
0000
,
0100
0000
0010
0000
,
2000
3002
0023
0130
,
0010
0000
0001
0000
1000
0010
0100
0000
,
0002
2003
3020
0130
,
0010
0000
1000
0000
0001
0010
0100
0000
,
2000
3002
0203
0310
,
0100
0000
0001
0000
1000
0100
0010
0000
,
0002
2003
3200
0310
,
0001
0100
0010
1000
,
0200
0320
0032
1003
,
0010
0000
0100
0000
0001
1000
0100
0000
,
0020
0032
0203
1300
,
0100
0000
0010
1000
0001
0000
0010
0000
,
0200
2300
3020
0031
,
0010
0000
0100
0000
0001
1000
0100
0000
,
0010
0001
1000
0010
,
0100
0001
1000
0100
0010
0001
1000
0000
,
2001
0000
3001
0100
,
0020
0000
1030
0001
,
0020
0000
0130
1000
,
0001
0100
0010
1000
,
0002
0000
1003
0010
,
0200
0000
0301
1000
,
0200
0000
0310
0001
,
1000
0010
0100
0001
,
1000
0000
0000
1000
0000
0000
0100
0000
,
0010
0000
0000
0010
0000
0000
0001
0000
,
0100
0000
0000
0100
0000
0000
0010
0000
,
1000
0000
0100
0010
,
0001
0000
0000
0001
0000
0000
0100
0000
,
0010
0000
0000
0010
0000
0000
1000
0000
,
0100
0000
0010
0000
,
0001
1000
0010
0100
,
0001
0001
0010
0100
,
1000
0001
1000
0000
0010
0000
0100
0000
,
0001
0100
0010
0000
1000
0100
0010
0000
,
0001
1000
0010
0100
,
0001
1000
0000
0100
0010
0000
0001
0000
,
1000
0010
0100
0001
,
0010
0000
0100
0000
1000
0001
0100
0000
,
0020
0000
0130
0000
0001
1000
0100
0010
,
0001
0000
0100
0000
0010
1000
0010
0000
,
0100
0000
0001
0000
1000
0100
1000
0000
,
0001
0000
0100
0000
0010
1000
0001
0000
,
0010
0000
0100
0000
1000
0001
0100
0010
,
1000
0000
0100
0000
0010
0001
0010
0000
,
0100
0000
1000
0000
0001
0100
0001
0000
,
1000
0100
0010
0000
0001
0100
0010
0000
,
1000
0001
0100
0010
1000
0001
0010
0100
,
2000
0000
3010
0100
,
0002
0000
1003
0100
,
0020
0000
0031
1000
,
0010
0100
0000
0100
0010
0000
1000
0000
,
0002
0000
0013
0100
,
2000
0000
3001
0100
,
0020
0000
1030
0001
,
0010
0100
0000
0100
0010
0000
0001
0000
,
1000
0000
0010
0100
,
0001
0000
0010
0100
,
1000
0000
0001
0100
,
0010
1000
0100
0010
,
0001
0000
0100
0010
,
1000
0000
0100
0010
,
0001
0000
1000
0010
,
0100
0001
1000
0100
,
0020
0000
0000
0030
;

//---------------dance-single - NAOKI----------------
#NOTES:
     dance-single:
     NAOKI:
     Hard:
     13:
     0.664000,0.776000,0.038000,0.317000,0.166000:
0000
0000
0000
0000
,
0000
0000
0000
0000
,
0000
0000
0000
0000
,
0000
0000
0000
0000
,
0000
0000
0000
0000
,
1010
0000
0010
0100
0000
0100
0001
0000
,
1000
0100
0000
0010
0001
1000
0010
0100
,
0001
0000
0010
0100
0000
0100
1000
0000
,
0001
0000
0100
0000
0010
0000
1000
0000
0100
0000
0000
0010
0000
0000
0001
0000
,
0011
0000
0010
0100
0000
0100
1000
0000
,
0001
0100
0000
0010
1000
0001
0010
0100
,
1000
0000
0010
0100
0000
0100
0001
0000
,
1000
0100
0010
0000
0001
0100
0010
1000
,
1100
0000
0100
0010
0000
0010
0001
0000
,
1000
0010
0000
0100
0001
1000
0100
0010
,
0001
0000
0100
0010
0000
0010
1000
0000
,
0001
0010
0100
1000
0100
0010
0001
1000
,
0010
0000
0100
0001
0000
1000
0100
0000
,
0010
0001
0100
0010
1000
0100
0010
0001
,
1000
0000
0010
0100
0000
0100
0001
0000
,
0010
0100
1000
0000
0001
0100
0010
1000
,
0100
0000
0010
0001
0000
1000
0010
0000
,
0100
0001
0010
0100
1000
0010
0100
0001
,
1000
0000
0100
0010
0000
0010
0001
0000
,
1000
0010
0100
0001
0100
0010
1000
0001
,
0010
0000
0100
1000
0000
0001
0100
0000
,
0010
1000
0100
0010
0001
0100
0010
1000
,
0001
0000
0010
0100
0000
0100
1000
0000
,
0001
0100
0010
0000
1000
0100
0010
0001
,
0100
0000
0010
1000
0000
0001
0010
0000
,
0100
1000
0010
0100
0001
0010
0100
1000
,
0001
0000
0100
0010
0000
0010
1000
0000
,
2002
0000
3003
0000
0001
0010
0100
1000
,
0002
0000
1003
0010
0200
0000
0310
0000
,
0100
0010
0100
0001
1000
0001
0010
0100
0010
0001
1000
0001
,
2000
0000
3001
0010
0200
0000
0310
0000
,
0001
0000
0000
0000
0000
0000
1000
0000
0010
0000
0100
0000
0001
0000
0000
0010
0000
0000
0200
0000
0000
0300
0000
0000
,
2000
0000
3001
0100
0020
0000
0130
0000
,
0010
0100
0010
1000
0001
1000
0100
0010
0100
1000
0001
1000
,
0001
0100
0010
1000
,
0100
0000
0000
0000
0010
0000
0001
0000
0100
0000
0000
0010
0000
0000
0100
0000
,
0002
0000
1003
0100
0020
0000
0130
0000
,
0010
0100
0010
0001
1000
0001
0100
0010
0100
0001
1000
0001
,
2000
0000
3001
0010
0200
0000
1300
0000
,
0010
0000
0000
0000
0000
0000
0100
0000
0001
0000
1000
0000
0100
0000
0000
0010
0000
0000
0001
0000
0000
0000
0000
0000
,
0200
0000
0310
1000
0200
0000
0310
0000
,
0100
0010
0100
1000
0001
1000
0010
0100
0010
1000
0001
1000
,
0002
0000
1003
0100
0000
0100
0010
0000
0010
0001
0000
0000
,
1000
0000
0010
0000
0100
0000
0001
0000
1000
0001
1000
0000
0001
0000
0100
0000
,
0020
1000
0000
0130
0001
1000
0100
0000
,
0020
0001
0000
0130
1000
0001
0100
0010
,
1000
0000
0001
0010
0100
0000
1000
0000
,
0001
0000
0100
0010
1000
0000
0001
0010
,
0200
1000
0000
0310
0001
1000
0010
0000
,
0200
0001
0000
0310
1000
0001
0010
0100
,
1000
0000
0001
0100
0010
0000
1000
0000
,
0100
0010
0001
1000
0001
0100
0010
0000
,
0100
0010
0000
0010
0000
0000
0000
0000
,
1000
0001
0000
0001
0000
0000
0000
0000
,
0001
1000
0000
1000
0000
0000
0000
0000
,
0100
0010
0000
0010
0001
0000
1000
0000
,
0010
0100
0000
0100
0000
0000
0000
0000
,
0001
1000
0000
1000
0000
0000
0000
0000
,
1000
0001
0000
0001
0010
0100
0000
0100
,
1000
0001
0100
0010
1000
0100
0001
0100
,
1000
0000
0001
0100
0010
0000
1000
0000
,
0100
0010
0001
0100
0000
0010
1000
0100
,
0010
0002
0103
0010
2000
3001
0010
0100
,
0000
0000
2000
0000
0000
3020
0000
0000
0230
0000
0000
0302
0000
0000
1003
0000
,
0100
0100
0001
0100
0100
1000
0010
0100
,
0002
0000
0000
0003
1000
0000
0100
0000
0010
0000
0001
0000
1000
0000
0010
0000
,
0000
0100
0001
0010
0100
1000
0001
0200
,
0300
0020
0030
1000
0001
0010
0100
1000
,
0001
0100
1000
0100
0010
1000
0100
0000
,
0010
0001
0100
0010
0001
0010
0100
0001
,
0010
0100
1000
0001
0100
0010
1000
1000
,
0001
0010
0100
0000
1000
0010
0100
0001
,
1000
0100
0001
0100
0010
0001
0100
0000
,
0010
1000
0100
0010
1000
0010
0100
1000
,
0010
0100
0001
1000
0100
0010
0001
0001
,
0200
0000
0310
1000
0001
0010
0100
1000
,
0001
0100
0000
0100
0000
0000
0010
0000
,
1000
0100
0000
0100
0010
0000
0001
0000
,
1000
0010
0000
0010
0100
0000
0001
0000
,
1000
0100
0010
0001
2000
3000
0002
0003
,
1000
0010
0000
0010
0000
0000
0100
0000
,
0001
0010
0000
0010
0100
0000
1000
0000
,
0001
0100
0000
0100
0010
0000
1000
0000
,
0001
0010
0100
1000
0002
0003
2000
3000
,
0020
0000
0030
0000
0100
0001
1000
0100
,
0020
0000
0030
0000
0001
0100
0010
1000
,
0002
0000
0003
0000
1000
0100
0010
0001
,
2000
3000
0010
0110
,
0200
0000
0300
0000
0010
1000
0001
0010
,
0200
0000
0300
0000
1000
0010
0100
0001
,
2000
0000
3000
0000
0001
0010
0100
1000
,
0001
0100
0010
1000
0100
0010
0001
0100
,
0020
0000
0000
0030
;

//---------------dance-single - NAOKI----------------
#NOTES:
     dance-single:
     NAOKI:
     Challenge:
     16:
     0.915000,1.000000,0.053000,0.529000,0.605000:
0000
0000
0000
0000
,
0012
0000
1003
0010
0000
0100
0001
0000
,
1000
0100
0000
0010
0100
1000
0001
0100
,
2010
0000
3001
0010
0000
0100
1000
0000
,
0001
0100
0000
0010
1000
0001
0010
0100
,
2000
0000
3001
0100
0000
0010
1000
0000
,
0001
0010
0000
0100
0010
0001
1000
0010
,
0102
0000
1003
0100
0000
0010
0001
0000
,
0100
0000
0010
0000
1000
0000
0100
0000
0012
0000
0000
2003
0000
0000
3010
0000
,
0100
0001
1000
0100
0000
0010
0001
0000
,
1000
0010
0000
0100
0010
1000
0001
0010
,
0100
1000
0001
0100
0000
0010
1000
0000
,
0001
0010
0000
0100
0010
0001
1000
0010
,
0100
0001
0100
0000
0010
0000
1000
0001
1000
0000
0100
0000
0010
0000
0000
0000
,
0001
2000
3000
0010
0100
0002
1003
0100
,
0010
0001
1000
0001
0100
0001
1000
0010
1000
0001
1000
0100
0010
0001
1000
0001
,
0100
0010
1000
0001
0010
0100
1000
0001
0100
0010
1000
0100
0010
0001
1000
0010
,
0100
0001
1000
0100
0000
0010
0001
0000
,
1000
0001
0100
0010
0001
0010
0100
0001
,
1000
0100
0010
1000
0010
0100
1000
0001
,
0100
0000
0010
0000
2000
0000
3000
0000
0001
0010
0001
1000
0010
1000
0001
0010
,
0100
1000
0001
0100
0000
0010
1000
0000
,
0001
1000
0100
0010
1000
0010
0100
1000
,
0001
0100
0010
0001
0010
0100
0001
1000
,
0100
0000
0010
0000
0001
0000
0100
0000
0010
1000
0001
0010
0001
1000
0001
0100
,
0010
1000
0001
0010
0000
0100
1000
0000
,
0001
1000
0010
0100
1000
0100
0010
1000
,
0001
0010
0100
0001
0100
0010
0001
1000
,
0010
0000
0100
0000
0002
0000
0003
0000
1000
0100
1000
0001
0100
0001
1000
0100
,
0010
0001
1000
0010
0000
0100
0001
0000
,
1000
0001
0010
0100
0001
0100
0010
0001
,
1000
0010
0100
1000
0100
0010
1000
0001
,
0020
0000
0030
0000
0100
0000
1000
0000
0001
0100
0010
0100
0001
0100
0010
0100
,
0002
0000
2003
3010
0200
0000
0310
0000
,
1000
0100
1000
0001
0100
0010
1000
0100
0010
0001
1000
0010
,
0200
0000
0302
1003
0200
0000
0310
0000
,
0100
0000
0000
0000
1000
0000
0000
0000
0001
0000
0000
0000
0100
0000
0000
0010
0000
0000
1000
0000
0000
0001
0000
0000
0010
0000
0000
0001
0000
0000
1000
0000
0000
0010
0000
0000
0100
0000
0000
0000
0000
0000
0000
0000
0000
0000
0000
0000
,
0002
0000
1003
0100
0020
0000
0130
0000
,
1000
0001
0100
0001
1000
0100
0010
0001
1000
0010
0100
0001
,
0010
0000
0010
0100
0000
0100
2000
0000
0000
3001
0000
0000
,
0100
0000
0000
0000
0000
0000
0000
0000
0010
0000
0000
0000
0000
0000
0000
0000
1000
0000
0000
0000
0000
0000
0000
0000
0001
0000
0000
0000
0000
0000
0010
0000
0000
0000
0000
0000
0100
0000
0000
0000
0000
0000
0010
0000
0000
0000
0000
0000
0004
0000
0000
0000
0000
0000
0000
0000
0000
0003
0000
0000
1000
0000
0000
0000
0000
0000
0010
0000
0000
0000
0000
0000
0100
0000
0000
0000
0000
0000
0000
0000
0000
0000
0000
0000
0010
0000
0000
0000
0000
0000
0000
0000
0000
0000
0000
0000
,
2000
0000
3002
0013
0200
0000
0310
0000
,
0001
0000
0100
0000
0010
0000
1000
0000
0001
0000
0010
M00M
0010
0000
1000
0000
0100
0000
0010
0000
0001
0000
1000
0000
,
0020
0000
2030
3001
0200
0000
0310
0000
,
0100
0000
0000
0000
0001
0000
0000
0000
1000
0000
0000
0000
0100
0000
0000
0010
0000
0000
0100
0000
0000
1000
0000
0000
0001
0000
0100
0000
0010
0000
1000
0000
0000
0100
0000
0000
0010
0000
0000
0000
0000
0000
0000
0000
0000
0000
0000
0000
,
0002
0000
2003
3010
0200
0000
1300
0000
,
0100
0000
0001
0000
0010
0000
0100
0000
1000
0000
0010
M00M
0010
0000
0001
0000
0100
0000
0010
0000
1000
0000
0100
0000
,
0010
0000
0000
0001
1000
0000
0010
0000
0200
0000
0301
1000
0200
0000
0310
0000
,
0100
0000
0000
0000
0000
0000
0000
0000
1000
0000
0000
0000
0000
0000
0000
0000
0001
0000
0000
0000
0000
0000
0000
0000
0100
0000
0000
0000
0000
0000
0010
0000
0000
0000
0000
0000
0100
0000
0000
0000
0000
0000
0001
0000
0000
0000
0000
0000
4000
0000
0000
3000
0000
0000
0400
0000
0000
0300
0000
0000
0040
0000
0000
0030
0000
0000
0004
0000
0000
0003
0000
0000
1000
0000
0000
0000
0000
0000
0000
0000
0000
0000
0000
0000
0010
0000
0000
0000
0000
0000
0100
0000
0000
0000
0000
0000
,
0002
1000
0000
0103
0010
1000
0100
0010
,
0001
0200
0000
0310
1000
0001
0010
0100
,
1000
0010
0001
0010
1000
0000
1001
0000
,
0001
0000
0010
0100
1000
0001
0100
0010
,
2000
0001
0000
3100
0010
0001
0100
0010
,
1000
0200
0000
0310
0001
1000
0010
0100
,
0001
0010
1000
0010
0001
0000
1001
0000
,
1000
0010
0100
0001
0020
2030
3002
0203
,
1300
0010
0000
0010
0000
0000
0100
0000
,
0001
0010
0000
0010
0100
1000
0001
0100
,
0010
1000
0000
1000
0000
0000
0100
0000
,
0010
0001
0000
0001
0200
2300
3002
0023
,
1030
0100
0000
0100
0000
0000
0010
0000
,
0001
0100
0000
0100
0010
1000
0001
0010
,
1000
0010
0001
0100
1000
0100
0010
1000
,
0001
0010
0001
0100
0001
1000
0100
0010
0001
1000
0010
1000
0100
1000
0001
0100
,
0010
0000
1000
0000
0001
0000
0010
0000
0100
1000
0001
0100
0010
0100
0001
1000
,
0100
0010
0001
0200
0000
0310
1000
0001
,
0010
0000
0000
0000
0000
0000
0100
0000
0000
0010
0000
0000
0001
0000
0000
0000
0000
0000
1000
0000
0000
0000
0000
0000
0010
0000
0000
0100
0000
0000
0001
0000
0000
0000
0000
0000
1000
0000
0000
0000
0100
0000
0000
0000
0010
0000
0000
0000
,
0001
0000
0000
0000
0000
0000
0000
0000
2000
0000
0000
0000
0000
0000
0000
0000
3020
0000
0000
0000
0000
0000
0000
0000
0230
0000
0000
0000
0000
0000
0000
0000
0301
0000
0000
0000
1000
0000
0000
0100
0000
0000
0010
0000
0000
0001
0000
0000
,
1000
0100
0100
0001
0100
0100
1000
0001
,
0200
0000
0310
1000
0001
0010
0100
1000
,
0000
0001
0100
0010
1000
0001
0010
0200
,
0300
0000
0000
0000
0020
0000
0000
0000
0030
0000
0000
0000
0001
1000
0000
0000
0010
0000
0100
0000
0001
0000
0100
0000
0010
0000
1000
0000
0001
0000
0010
0000
,
0100
0010
0001
1000
0010
0100
0002
0003
,
1000
0010
0100
1000
0100
0010
1000
1000
,
0001
0010
0100
0001
0100
0010
0001
1000
,
0010
0000
0100
0000
0002
0000
0003
0000
0100
0010
1000
0001
0010
0100
0010
0001
,
1000
0100
0010
1000
0010
0100
2000
3000
,
0001
0100
0010
0001
0010
0100
0001
1000
,
0001
0010
0001
0000
1000
0010
1000
0000
0001
0100
0001
0000
1000
0100
1000
0000
,
0001
0100
0010
0100
0001
1000
0100
0010
0100
1000
0001
0100
0010
1000
0100
0010
,
0001
0100
0000
0100
0000
0000
0010
0000
,
1000
0100
0000
0100
0010
0001
1000
0010
,
0100
0001
0000
0001
1000
0000
0100
0000
,
0010
0001
0000
1000
0010
0100
0001
0000
,
1000
0100
0000
0100
0000
0000
0010
0000
,
0001
0100
0000
0100
0010
1000
0001
0010
,
0100
1000
0000
1000
0001
0000
0100
0000
,
0010
1000
0100
0010
0001
0100
0010
0000
,
2000
0000
0000
0000
3001
0010
0100
1000
,
0002
0000
0000
0000
0103
0010
1000
0100
,
0020
1000
0031
0100
,
0020
0000
0001
0000
1030
0001
0010
0100
,
2000
0000
0000
0000
3010
0100
0001
0010
,
0200
0000
0000
0000
1300
0001
0100
0010
,
1000
0010
1000
0000
0001
0010
0001
0000
1000
0100
1000
0000
0001
0100
0001
0000
,
1000
0010
1000
0001
1000
0100
0010
0001
1000
0001
0100
0010
1000
0100
0010
0001
,
0200
0000
0000
0300
;

//---------------dance-double - [FG v1.00] NAOKI----------------
#NOTES:
     dance-double:
     [FG v1.00] NAOKI:
     Beginner:
     6:
     0.187000,0.256000,0.008000,0.204000,0.000000:
00000000
00000000
00000000
00000000
,
00000000
00000000
00000000
00000000
,
00000000
00000000
00000000
00000000
,
00000000
00000000
00000000
00000000
,
00000000
00000000
00000000
00000000
,
00020000
00000000
00000000
00030000
00000000
00000000
00000000
00000000
,
00000000
00000000
00000000
00000000
,
00002000
00000000
00000000
00003000
00000000
00000000
00000000
00000000
,
00000000
00000000
00000000
00000000
,
00200000
00000000
00000000
00300000
00000000
00000000
00000000
00000000
,
00000000
00000000
00000000
00000000
,
02000000
00000000
00000000
03000000
00000000
00000000
00000000
00000000
,
00000000
00000000
00000000
00000000
,
00002000
00000000
00000000
00003000
00000000
00000000
00000000
00000000
,
00000000
00000000
00000000
00000000
,
00020000
00000000
00000000
00030000
00000000
00000000
00000000
00000000
,
00000200
00000000
00000000
00000300
,
00001000
00000000
00000001
00000000
,
00000010
00000000
00000100
00000000
,
00010000
00000000
00000010
00000000
,
00001000
00000000
00001000
00000000
,
00000100
00000000
00010000
00000000
,
00001000
00000000
00100000
00000000
,
01000000
00000000
01000000
00000000
,
10000000
00000000
00020000
00000000
,
00130000
00000000
00001000
00000000
,
00010000
00000000
00010000
00000000
,
00000010
00000000
00000100
00000000
,
00000001
00000000
00000002
00000000
,
00000013
00000000
00000100
00000000
,
00010000
00000000
00001000
00000000
,
01000000
00000000
00100000
00000000
,
10000000
00000000
00000000
00000000
,
00010000
00000000
00100000
00000000
,
00001000
00001000
00001000
00000000
,
01000000
00000000
00010000
00000000
,
10000000
10000000
10000000
00000000
,
01000000
00000000
00100000
00000000
,
00010000
00010000
00010000
00000000
,
01000000
00000000
00001000
00000000
,
00010000
00000000
00000100
00000000
,
00001000
00000000
00000001
00000000
,
00000010
00000010
00000010
00000000
,
00000100
00000000
00010000
00000000
,
00001000
00001000
00001000
00000000
,
00100000
00000000
00010000
00000000
,
01000000
01000000
01000000
00000000
,
00001000
00000000
00010000
00000000
,
00000100
00000000
00000010
00000000
,
00000002
00000000
00000003
00000000
,
00000200
00000000
00000300
00000000
,
00000020
00000000
00000030
00000000
,
00020000
00000000
00030000
00000000
,
00002000
00000000
00003000
00000000
,
00200000
00000000
00300000
00000000
,
00020000
00000000
00030000
00000000
,
02000000
00000000
03000000
00000000
,
00010000
00000000
00000000
00000000
,
00100000
00000000
00000000
00000000
,
00001000
00000000
00000000
00000000
,
00010000
00000000
00000000
00000000
,
00000100
00000000
00000000
00000000
,
00001000
00000000
00000000
00000000
,
00000010
00000000
00000100
00000000
,
00000001
00001000
00000001
00001000
,
00000001
00000000
00000010
00000000
,
00000100
00000000
00010000
00000000
,
00001000
00000000
01000000
00000000
,
00001000
00000000
00100000
00000000
,
00010000
00000000
01000000
00000000
,
00100000
00000000
10000000
00000000
,
01000000
00000000
10000000
00000000
,
00010000
00000000
00100000
00000000
,
00001000
00000000
00001000
00000000
,
00010000
00000000
00000100
00000000
,
00001000
00000000
00001000
00000000
,
00000010
00000000
00010000
00000000
,
00000100
00000000
00000100
00000000
,
00001000
00000000
00000010
00000000
,
00010000
00000000
00010000
00000000
,
00001000
00000000
00100000
00000000
,
02000000
00000000
03000000
00000000
,
20000000
00000000
30000000
00000000
,
00020000
00000000
00030000
00000000
,
00200000
00000000
00300000
00000000
,
02000000
00000000
03000000
00000000
,
20000000
00000000
30000000
00000000
,
00020000
00000000
00030000
00000000
,
02000000
00000000
03000000
00000000
,
00001000
00000000
00000000
00000000
,
00010000
00000000
00000000
00000000
,
00000100
00000000
00000000
00000000
,
00000010
00000000
00000000
00000000
,
00000001
00000000
00000000
00000000
,
00001000
00000000
00000000
00000000
,
00000100
00000000
00010000
00000000
,
00020200
00000000
00000000
00000000
00000000
00000000
00000000
00000000
00000000
00000000
00000000
00000000
00000000
00000000
00000000
00030300
;

//---------------dance-double - [FG v1.00] NAOKI----------------
#NOTES:
     dance-double:
     [FG v1.00] NAOKI:
     Easy:
     8:
     0.298000,0.480000,0.098000,0.287000,0.000000:
00000000
00000000
00000000
00000000
,
00000000
00000000
00000000
00000000
,
00000000
00000000
00000000
00000000
,
00000000
00000000
00000000
00000000
,
00000000
00000000
00000000
00000000
,
00000100
00000000
00000000
00000100
00000000
00000000
00000000
00000000
,
00001000
00000000
00000010
00010000
,
00001000
00000000
00000000
00001000
00000000
00000000
00000000
00000000
,
00100000
00000000
01000000
00000000
,
10000000
00000000
00000000
10000000
00000000
00000000
00000000
00000000
,
00010000
00000000
01000000
00001000
,
00100000
00000000
00000000
00100000
00000000
00000000
00000000
00000000
,
00010000
00000000
01000000
00000000
,
00001000
00000000
00000000
00001000
00000000
00000000
00000000
00000000
,
00010000
00000000
00000010
00000100
,
00000001
00000000
00000000
00000001
00000000
00000000
00000000
00000000
,
00000020
00000000
00000000
00000030
,
00000100
00000000
00010000
00000000
,
00001000
01000000
00001000
00000000
,
00010000
00000000
00000100
00000000
,
00000010
00000000
00000100
00000000
,
00010000
00000000
00001000
00000000
,
00100000
00010000
00100000
00000000
,
00001000
00000000
00010000
00000000
,
00000010
00000000
00010000
00000000
,
00001000
00000000
01000000
00000000
,
00010000
10000000
00010000
00000000
,
01000000
00000000
00100000
00000000
,
10000000
00000000
00100000
00000000
,
01000000
00000000
00001000
00000000
,
00010000
00000100
00010000
00000000
,
00000010
00000000
00001000
00000000
,
00000001
00000000
00001000
00000000
,
00000020
00000000
00000130
00000000
,
00000200
00000302
00002003
00003100
,
00010000
00001000
02000000
03000000
,
00010000
00000000
00100000
01000000
,
20000000
00000000
30010000
00000000
,
00020000
02030000
03002000
00013000
,
00000010
00000100
00000002
00000003
,
00001000
00000000
00000100
00000010
,
00000002
00000000
00001003
00000000
,
00002000
00003200
00020300
00031000
,
01000000
00100000
20000000
30000000
,
00010000
00000000
01000000
00001000
,
00200000
00000000
00310000
00000000
,
00020000
20030000
32000000
03100000
,
00001000
00010000
00000200
00000300
,
00001000
00000000
00000010
00000000
,
00001020
00000000
00001030
00000000
,
00000100
00000000
00000100
00000000
,
00010000
00000000
00010000
00000000
,
00000010
00000000
00001000
00000000
,
00002010
00000000
00003010
00000000
,
00010000
00000000
00010000
00000000
,
00001000
00000000
00001000
00000000
,
01000000
00000000
00100000
00000000
,
01100000
00000000
00000000
00000000
,
00010000
00000000
00000000
00000000
,
10010000
00000000
00000000
00000000
,
10000000
00000000
00000000
00000000
,
10100000
00000000
00000000
00000000
,
01010000
00000000
00000000
00000000
,
01001000
00000000
00010100
00000000
,
00001100
00000011
00010100
00101000
,
00001000
01000000
00010000
00100000
,
00002000
00010000
00013000
00000010
,
00000200
00000001
00000000
00001300
,
00000000
00000100
00000001
00001000
,
00000010
00010000
00001000
01000000
,
00200000
00300000
10000000
00010000
,
01000000
00000000
00001000
00000000
,
00100000
00010000
02000000
03000000
,
01000000
00001000
00010000
00000100
,
00000020
00000001
00000031
00001000
,
00000020
00000100
00000000
00000031
,
00000000
00000010
00001000
00000100
,
00010000
00001000
01000000
00020000
,
00030000
10000000
00100000
01000000
,
00001000
00000000
00100000
00000000
,
00110000
00000000
00000000
00000000
,
00010000
00000000
00010000
00000000
,
01000000
00000000
01000000
00000000
,
00001000
00000000
00001000
00000000
,
00010000
00000000
00000010
00000000
,
00010000
00000000
00010000
00000000
,
00000100
00000000
00000100
00000000
,
00001000
00000000
00001000
00000000
,
00000010
00000000
00000100
00000000
,
00000020
00000000
00010030
00000000
,
00020000
00000000
00031000
00100000
,
02000000
00000000
13000000
00000000
,
00200000
00000000
01300000
00001000
,
00020000
00000000
00030100
00000000
,
00000200
00000000
00001300
00000001
,
00000020
00000000
00000130
00000000
,
00010000
00001000
01000000
00100000
,
20000000
00000000
00000000
30000000
;

//---------------dance-double - [FG v1.00] NAOKI----------------
#NOTES:
     dance-double:
     [FG v1.00] NAOKI:
     Medium:
     11:
     0.435000,0.480000,0.008000,0.272000,0.000000:
00000000
00000000
00000000
00000000
,
00000000
00000000
00000000
00000000
,
00000000
00000000
00000000
00000000
,
00000000
00000000
00000000
00000000
,
00000000
00000000
00000000
00000000
,
00000100
00000000
00000000
00000100
00000000
00010000
00001000
00000000
,
01000000
00000000
00100000
10000000
,
00010000
00000000
00000000
00010000
00000000
01000000
00001000
00000000
,
00010000
00000010
00001000
00000001
,
00000010
00000000
00000000
00000010
00000000
00000001
00001000
00000000
,
00000100
00000000
00010000
00001000
,
00100000
00000000
00000000
00100000
00000000
00010000
01000000
00000000
,
00001000
00000000
00010000
00000100
,
00001000
00000000
00000000
00001000
00000000
00000010
00010000
00000000
,
00001000
01000000
00100000
10000000
,
01000000
00000000
00000000
01000000
00000000
10000000
00010000
00000000
,
00200000
00000000
00000000
00300000
,
00001000
00000000
00010000
00000100
00000000
00000000
00001000
00000000
,
00000001
00000010
00000100
00010000
,
00000010
00000000
00001000
00000100
00000000
00000000
00010000
00000000
,
00001000
01000000
00010000
00010000
,
10000000
00000000
00100000
01000000
00000000
00000000
00001000
00000000
,
00010000
00000100
00001000
00000001
,
00000100
00000000
00000010
00010000
00000000
00000000
00001000
00000000
,
01000000
00100000
01000000
01000000
,
00010000
00000000
00100000
00001000
00000000
00000000
00010000
00000000
,
00000100
00000010
00000001
00001000
,
00000010
00000000
00010000
00001000
00000000
00000000
00100000
00000000
,
00010000
10000000
01000000
00100000
,
00001000
00000000
00010000
00000100
00000000
00000000
00001000
00000000
,
00000010
00000100
00000001
00000001
,
00001000
00000000
00000100
00010000
00000000
00000000
00001000
00000000
,
01000000
00000000
00001000
00000000
,
00200000
00320000
20030000
31000000
,
10000000
00000000
00010000
00000000
00100000
00001000
00010000
00000000
,
00000020
00002030
00003200
00010300
,
00000100
00000000
00000010
00000000
00000001
00001000
00000010
00000000
,
00020000
00032000
02003000
03010000
,
01000000
00000000
00001000
00000000
00100000
00010000
10000000
00000000
,
02000000
03200000
00302000
00013000
,
00000100
00000010
00000001
00001000
,
00000200
00020300
00030020
00001030
,
00000100
00000000
00010000
00000000
00001000
00100000
01000000
00000000
,
20000000
30020000
02030000
13000000
,
01000000
00000000
00010000
00100000
00001000
00000000
00010000
00000000
,
00000200
00002300
00003020
00000031
,
00000010
00000000
00000100
00000000
00000001
00001000
00000100
00000000
,
00010000
00001000
00100000
00010000
,
10000000
00100000
01000000
00001000
00100000
00010000
01000000
00000000
,
02010000
00000000
03010000
00100000
,
00002000
00000000
00013000
00000100
,
00000020
00000000
00000031
00001000
,
00000010
00010000
00000100
00001000
,
00000020
00000000
00001030
00000100
,
00020000
00000000
00031000
01000000
,
00200000
00000000
10300000
00010000
,
01000000
00001000
00010000
00000100
,
00000010
00000000
00000000
00000010
00000000
00000000
00000001
00000000
,
00001000
00000000
00000000
00001000
00000000
00000000
00000100
00000000
,
00010000
00000000
00000000
00010000
00000000
00000000
00001000
00000000
,
01000000
00000000
00100000
10000000
,
00010000
00000000
00000000
00010000
00000000
00000000
01000000
00000000
,
00001000
00000000
00000000
00001000
00000000
00000000
00010000
00000000
,
00000100
00000000
00001000
00000000
,
00000001
00000100
00000010
00010000
,
00001000
00001000
00100000
01000000
,
10000000
00010000
10000000
00000000
01000000
00000000
00100000
00000000
,
00010000
00100000
00001000
00000000
00010000
00000010
00000100
00000000
,
00000001
00001000
00000100
00010000
,
00000010
00001000
00000000
00000100
00010000
00000000
00001000
00000000
,
01000000
00010000
10000000
00100000
,
01000000
00000000
00001000
00000000
00010000
00000100
00001000
00000000
,
00000020
00000000
00001030
00000000
00000001
00000100
00000010
00010000
,
00001000
00000000
00100000
00000000
01000000
10000000
01000000
00000000
,
00100000
00000000
00001000
00000000
00010000
00000010
00010000
00000000
,
00000100
00000000
00000010
00000000
00000001
00001000
00000100
00000000
,
00010000
00000000
00001000
00000000
01000000
00010000
10000000
00100000
,
01000000
00000000
00001000
00000000
00010000
00000010
00010000
00000000
,
00001000
00000000
00100000
00000000
00010000
01000000
00010000
00000000
,
00100000
00001000
00010000
00000000
00000100
00001000
00000001
00000000
,
00000010
00000100
00001000
00000010
00000100
00000001
00001000
00000100
,
00020000
00000000
00031000
00100000
,
02000000
00000000
13000000
00010000
,
00200000
00000000
01300000
10000000
,
00010000
01000000
00000000
01000000
00010000
00000000
00100000
00000000
,
00002000
00000000
00013000
00000100
,
00000020
00000000
00000031
00000100
,
00000020
00000000
00001030
00000100
,
00010000
00001000
00000000
00001000
00010000
00000000
00000010
00000000
,
00001000
00000000
00000100
00010000
,
00001000
00000000
01000000
00010000
,
10000000
00000000
00100000
01000000
,
00001000
00010000
00000010
00001000
,
00000100
00000000
00010000
00001000
,
01000000
00000000
00010000
10000000
,
00100000
00000000
01000000
00001000
,
00010000
00000010
00001000
00000001
,
00000200
00000000
00000000
00000300
;

//---------------dance-double - [FG v1.00] NAOKI----------------
#NOTES:
     dance-double:
     [FG v1.00] NAOKI:
     Hard:
     13:
     0.664000,0.776000,0.038000,0.317000,0.166000:
00000000
00000000
00000000
00000000
,
00000000
00000000
00000000
00000000
,
00000000
00000000
00000000
00000000
,
00000000
00000000
00000000
00000000
,
00000000
00000000
00000000
00000000
,
00010100
00000000
00000100
00001000
00000000
00001000
00000010
00000000
,
00010000
00001000
00000000
00100000
01000000
10000000
00010000
01000000
,
00001000
00000000
00010000
00000010
00000000
00000010
00001000
00000000
,
00000001
00000000
00000100
00000000
00000010
00000000
00010000
00000000
00001000
00000000
00000000
00100000
00000000
00000000
00010000
00000000
,
00110000
00000000
00100000
01000000
00000000
01000000
10000000
00000000
,
00010000
01000000
00000000
00001000
00010000
00000100
00001000
00000001
,
00000010
00000000
00000100
00001000
00000000
00001000
00000001
00000000
,
00000100
00000010
00010000
00000000
00001000
00100000
01000000
10000000
,
10010000
00000000
00010000
01000000
00000000
01000000
00001000
00000000
,
00010000
00000100
00000000
00000010
00000001
00001000
00000100
00010000
,
00001000
00000000
00100000
00010000
00000000
00010000
10000000
00000000
,
00100000
01000000
00001000
00100000
00001000
00010000
00000100
00001000
,
00000001
00000000
00000100
00000010
00000000
00010000
00001000
00000000
,
00100000
00010000
01000000
00001000
00010000
00000010
00001000
00000001
,
00000100
00000000
00000010
00010000
00000000
00010000
00001000
00000000
,
01000000
00100000
10000000
00000000
01000000
00100000
00001000
00010000
,
00000100
00000000
00001000
00000001
00000000
00000100
00000010
00000000
,
00001000
00000100
00010000
00001000
01000000
00010000
10000000
00100000
,
01000000
00000000
00001000
00010000
00000000
00010000
00000010
00000000
,
00000100
00000001
00001000
00000010
00001000
00000100
00010000
00001000
,
01000000
00000000
00010000
10000000
00000000
00100000
01000000
00000000
,
00010000
10000000
00100000
01000000
00001000
00010000
00000100
00001000
,
00000010
00000000
00010000
00001000
00000000
00001000
00100000
00000000
,
00010000
01000000
00001000
00000000
00010000
00000100
00000010
00000001
,
00000100
00000000
00000010
00010000
00000000
00001000
01000000
00000000
,
00010000
10000000
00100000
01000000
00001000
00010000
00000100
00001000
,
00000001
00000000
00000100
00000010
00000000
00000010
00010000
00000000
,
00022000
00000000
00033000
00000000
00001000
00100000
01000000
10000000
,
00200000
00000000
10300000
00010000
02000000
00000000
03010000
00000000
,
01000000
00010000
01000000
00001000
00010000
00001000
00100000
00010000
00100000
00001000
00010000
00001000
,
00020000
00000000
00031000
00100000
00020000
00000000
00130000
00000000
,
00001000
00000000
00000000
00000000
00000000
00000000
00010000
00000000
00000100
00000000
00001000
00000000
00000001
00000000
00000000
00000010
00000000
00000000
00000200
00000000
00000000
00000300
00000000
00000000
,
00002000
00000000
00003010
00010000
00000200
00000000
00010300
00000000
,
00000100
00010000
00000100
00001000
00000001
00001000
00000010
00010000
00000010
00001000
00000001
00001000
,
00000001
00000100
00000010
00010000
,
00001000
00000000
00000000
00000000
01000000
00000000
00100000
00000000
10000000
00000000
00000000
01000000
00000000
00000000
10000000
00000000
,
00200000
00000000
01300000
00001000
00020000
00000000
00031000
00000000
,
00010000
00001000
00010000
00000100
00001000
00000100
00010000
00001000
00010000
00000010
00001000
00000010
,
00002000
00000000
00003010
00000100
00000002
00000000
00000013
00000000
,
00000100
00000000
00000000
00000000
00000000
00000000
00010000
00000000
00001000
00000000
01000000
00000000
00010000
00000000
00000000
00100000
00000000
00000000
01000000
00000000
00000000
00000000
00000000
00000000
,
20000000
00000000
30100000
01000000
00002000
00000000
00013000
00000000
,
00001000
00010000
00001000
01000000
00010000
01000000
00001000
00010000
00001000
00100000
00010000
00100000
,
00020000
00000000
00130000
01000000
00000000
01000000
10000000
00000000
10000000
00010000
00000000
00000000
,
01000000
00000000
00001000
00000000
00010000
00000000
00000010
00000000
00000100
00000010
00000100
00000000
00000010
00000000
00001000
00000000
,
00000002
00000100
00000000
00000013
00000100
00001000
00000001
00000000
,
00000200
00000010
00000000
00000301
00000010
00000100
00010000
00001000
,
01000000
00000000
00100000
10000000
01000000
00000000
00100000
00000000
,
00001000
00000000
01000000
00010000
10000000
00000000
01000000
00100000
,
00020000
10000000
00000000
00130000
00001000
00010000
00000100
00000000
,
00002000
00000001
00000000
00003100
00010000
00000010
00000100
00000001
,
00001000
00000000
00000100
00010000
00001000
00000000
01000000
00000000
,
00100000
10000000
00010000
01000000
00010000
00100000
00001000
00000000
,
00100000
00001000
00000000
00001000
00000000
00000000
00000000
00000000
,
01000000
00010000
00000000
00010000
00000000
00000000
00000000
00000000
,
00010000
01000000
00000000
01000000
00000000
00000000
00000000
00000000
,
00001000
00010000
00000000
00010000
00000010
00000000
00001000
00000000
,
00000001
00000100
00000000
00000100
00000000
00000000
00000000
00000000
,
00000010
00001000
00000000
00001000
00000000
00000000
00000000
00000000
,
00001000
00000010
00000000
00000010
00000100
00000001
00000000
00000001
,
00000010
00000100
00010000
00001000
00100000
01000000
00010000
01000000
,
10000000
00000000
00010000
00100000
00001000
00000000
01000000
00000000
,
00010000
10000000
01000000
00100000
00000000
00001000
00010000
00000100
,
00001000
00000002
00000103
00000010
00020000
00031000
00100000
00010000
,
00000000
00000000
02000000
00000000
00000000
03002000
00000000
00000000
00023000
00000000
00000000
00030020
00000000
00000000
00001030
00000000
,
00000100
00000100
00000001
00000100
00000100
00001000
00000010
00010000
,
00002000
00000000
00000000
00003000
00100000
00000000
00010000
00000000
10000000
00000000
01000000
00000000
00100000
00000000
00001000
00000000
,
00000000
01000000
00010000
10000000
01000000
00100000
00001000
00020000
,
00030000
00000200
00000300
00001000
00000010
00010000
00001000
00100000
,
00010000
01000000
10000000
01000000
00010000
00100000
00001000
00000000
,
00010000
00000100
00001000
00000010
00000001
00000010
00001000
00000001
,
00000100
00000010
00010000
00001000
01000000
00010000
10000000
10000000
,
00100000
01000000
00001000
00000000
00010000
00000100
00001000
00000001
,
00000010
00000100
00000001
00000100
00001000
00000010
00010000
00000000
,
00001000
01000000
00010000
00100000
10000000
00100000
00010000
01000000
,
00001000
00010000
00000100
00001000
00000010
00010000
00001000
00001000
,
02000000
00000000
03010000
00100000
00001000
00010000
00000100
00001000
,
00000010
00010000
00000000
00010000
00000000
00000000
00000100
00000000
,
00000010
00000001
00000000
00000001
00001000
00000000
00000100
00000000
,
00010000
00001000
00000000
00001000
00100000
00000000
00010000
00000000
,
10000000
01000000
00100000
00010000
20000000
30000000
00020000
00030000
,
10000000
01000000
00000000
01000000
00000000
00000000
00100000
00000000
,
00001000
00010000
00000000
00010000
00000100
00000000
00001000
00000000
,
00000001
00000010
00000000
00000010
00000100
00000000
00001000
00000000
,
00000010
00010000
00001000
01000000
00200000
00300000
02000000
03000000
,
00020000
00000000
00030000
00000000
00100000
00001000
01000000
00010000
,
00200000
00000000
00300000
00000000
00001000
00010000
00000100
00001000
,
00000002
00000000
00000003
00000000
00001000
00000100
00010000
00001000
,
02000000
03000000
00010000
10010000
,
20000000
00000000
30000000
00000000
00010000
01000000
00001000
00010000
,
00000020
00000000
00000030
00000000
00000100
00000001
00001000
00000010
,
00000200
00000000
00000300
00000000
00000010
00001000
00000100
00010000
,
00001000
00100000
01000000
10000000
00100000
01000000
00001000
00010000
,
00000200
00000000
00000000
00000300
;

//---------------dance-double - [FG v1.00] NAOKI----------------
#NOTES:
     dance-double:
     [FG v1.00] NAOKI:
     Challenge:
     16:
     0.915000,1.000000,0.053000,0.529000,0.605000:
00000000
00000000
00000000
00000000
,
01002000
00000000
00013000
00000010
00000000
00000100
00000001
00000000
,
00001000
00000010
00000000
00010000
00000010
00001000
00000100
00010000
,
02001000
00000000
03010000
10000000
00000000
00100000
01000000
00000000
,
00010000
00100000
00000000
00001000
00010000
00000100
00001000
00000001
,
00000020
00000000
00000130
00010000
00000000
00001000
00100000
00000000
,
01000000
10000000
00000000
00100000
10000000
00010000
01000000
00001000
,
00010200
00000000
00001300
00000001
00000000
00000100
00000010
00000000
,
00010000
00000000
00001000
00000000
00100000
00000000
00010000
00000000
01002000
00000000
00000000
00203000
00000000
00000000
00310000
00000000
,
01000000
00001000
00010000
00000100
00000000
00001000
00000001
00000000
,
00000100
00000010
00000000
00001000
00000010
00010000
00001000
01000000
,
00010000
10000000
01000000
00100000
00000000
00001000
00010000
00000000
,
00000100
00001000
00000000
00000001
00001000
00000010
00010000
00001000
,
00100000
00010000
00100000
00000000
01000000
00000000
10000000
00010000
10000000
00000000
01000000
00000000
00100000
00000000
00000000
00000000
,
00001000
00020000
00030000
00000100
00000010
00000002
00000103
00000010
,
00001000
00000100
00010000
00000100
00001000
00000100
00010000
00001000
00010000
00000010
00010000
00001000
01000000
00010000
10000000
00010000
,
01000000
00100000
10000000
00010000
01000000
00100000
10000000
00010000
00100000
01000000
10000000
00010000
00100000
00001000
00010000
00000010
,
00001000
00000100
00000010
00000001
00000000
00001000
00000100
00000000
,
00000010
00000100
00010000
00001000
00000100
00001000
00010000
00000010
,
00001000
00000001
00000010
00001000
00000010
00000100
00010000
00001000
,
01000000
00000000
00010000
00000000
00200000
00000000
00300000
00000000
00001000
00010000
00001000
01000000
00010000
01000000
00001000
00010000
,
00000100
00001000
00000010
00010000
00000000
00001000
01000000
00000000
,
00100000
01000000
00001000
00010000
01000000
00010000
00001000
00100000
,
01000000
10000000
00100000
00010000
00100000
01000000
00001000
00100000
,
01000000
00000000
10000000
00000000
00010000
00000000
00100000
00000000
00001000
00010000
00000100
00001000
00000100
00010000
00000100
00001000
,
00000001
00000010
00000100
00010000
00000000
00000010
00001000
00000000
,
00000001
00001000
00000010
00000100
00001000
00000100
00000010
00010000
,
00001000
00100000
01000000
00010000
01000000
10000000
00010000
01000000
,
00001000
00000000
00010000
00000000
00000200
00000000
00000300
00000000
00001000
00000001
00001000
00000010
00010000
00000010
00001000
00000001
,
00000100
00000010
00010000
00001000
00000000
00100000
00010000
00000000
,
10000000
00010000
00100000
01000000
00010000
01000000
00100000
00001000
,
00010000
00000010
00000100
00001000
00000100
00000001
00001000
00000100
,
00020000
00000000
00030000
00000000
00001000
00000000
00100000
00000000
00010000
01000000
00001000
01000000
00010000
01000000
00001000
01000000
,
00020000
00000000
20030000
31000000
00200000
00000000
01300000
00000000
,
10000000
00100000
10000000
00010000
01000000
00001000
00010000
00000010
00001000
00000001
00000100
00000010
,
00002000
00000000
00003200
00000310
00000002
00000000
00000103
00000000
,
00000001
00000000
00000000
00000000
00001000
00000000
00000000
00000000
00000100
00000000
00000000
00000000
00010000
00000000
00000000
00001000
00000000
00000000
00100000
00000000
00000000
00010000
00000000
00000000
10000000
00000000
00000000
00010000
00000000
00000000
00100000
00000000
00000000
00001000
00000000
00000000
00010000
00000000
00000000
00000000
00000000
00000000
00000000
00000000
00000000
00000000
00000000
00000000
,
00000200
00000000
00001300
00000010
00000200
00000000
00000310
00000000
,
00010000
00000100
00001000
00000100
00010000
00001000
01000000
00010000
10000000
01000000
00100000
00010000
,
10000000
00000000
10000000
01000000
00000000
01000000
00200000
00000000
00000000
00310000
00000000
00000000
,
01000000
00000000
00000000
00000000
00000000
00000000
00000000
00000000
00100000
00000000
00000000
00000000
00000000
00000000
00000000
00000000
10000000
00000000
00000000
00000000
00000000
00000000
00000000
00000000
00010000
00000000
00000000
00000000
00000000
00000000
01000000
00000000
00000000
00000000
00000000
00000000
00001000
00000000
00000000
00000000
00000000
00000000
01000000
00000000
00000000
00000000
00000000
00000000
00040000
00000000
00000000
00000000
00000000
00000000
00000000
00000000
00000000
00030000
00000000
00000000
10000000
00000000
00000000
00000000
00000000
00000000
00100000
00000000
00000000
00000000
00000000
00000000
01000000
00000000
00000000
00000000
00000000
00000000
00000000
00000000
00000000
00000000
00000000
00000000
00100000
00000000
00000000
00000000
00000000
00000000
00000000
00000000
00000000
00000000
00000000
00000000
,
20000000
00000000
32000000
03100000
00020000
00000000
00130000
00000000
,
01000000
00000000
10000000
00000000
00010000
00000000
00100000
00000000
00001000
00000000
00010000
00M0M000
00010000
00000000
01000000
00000000
00001000
00000000
00010000
00000000
00000100
00000000
00001000
00000000
,
00000002
00000000
00002003
00003100
00020000
00000000
00030010
00000000
,
00010000
00000000
00000000
00000000
00001000
00000000
00000000
00000000
00100000
00000000
00000000
00000000
00010000
00000000
00000000
10000000
00000000
00000000
00010000
00000000
00000000
01000000
00000000
00000000
00001000
00000000
00010000
00000000
00000010
00000000
00001000
00000000
00000000
00000001
00000000
00000000
00000010
00000000
00000000
00000000
00000000
00000000
00000000
00000000
00000000
00000000
00000000
00000000
,
00000200
00000000
00002300
00003010
00000200
00000000
00001300
00000000
,
00000100
00000000
00000001
00000000
00001000
00000000
00000010
00000000
00010000
00000000
00001000
000M000M
00001000
00000000
00000100
00000000
00010000
00000000
00001000
00000000
01000000
00000000
00010000
00000000
,
10000000
00000000
00000000
00100000
01000000
00000000
00001000
00000000
00200000
00000000
00310000
01000000
00002000
00000000
00103000
00000000
,
00001000
00000000
00000000
00000000
00000000
00000000
00000000
00000000
00010000
00000000
00000000
00000000
00000000
00000000
00000000
00000000
00000100
00000000
00000000
00000000
00000000
00000000
00000000
00000000
00001000
00000000
00000000
00000000
00000000
00000000
00000001
00000000
00000000
00000000
00000000
00000000
00001000
00000000
00000000
00000000
00000000
00000000
00000010
00000000
00000000
00000000
00000000
00000000
00000400
00000000
00000000
00000300
00000000
00000000
00000004
00000000
00000000
00000003
00000000
00000000
00004000
00000000
00000000
00003000
00000000
00000000
00000040
00000000
00000000
00000030
00000000
00000000
00010000
00000000
00000000
00000000
00000000
00000000
00000000
00000000
00000000
00000000
00000000
00000000
00001000
00000000
00000000
00000000
00000000
00000000
01000000
00000000
00000000
00000000
00000000
00000000
,
00020000
10000000
00000000
00130000
00001000
00010000
00000010
00001000
,
00000100
00000020
00000000
00000031
00000100
00000010
00001000
00000100
,
00010000
00001000
00000100
00001000
00010000
00000000
00010010
00000000
,
00000010
00000000
00001000
00000001
00000010
00000100
00010000
00001000
,
02000000
00100000
00000000
03010000
00100000
00001000
00010000
00000100
,
00001000
00000002
00000000
00000013
00000100
00010000
00000010
00001000
,
00000001
00000010
00001000
00000010
00000100
00000000
00010100
00000000
,
00010000
00001000
01000000
00010000
00200000
20300000
30020000
02030000
,
03100000
00001000
00000000
00001000
00000000
00000000
01000000
00000000
,
00010000
00100000
00000000
00100000
00001000
01000000
00010000
00100000
,
00001000
00010000
00000000
00010000
00000000
00000000
00000100
00000000
,
00001000
00000001
00000000
00000001
00000200
00002300
00003002
00000023
,
00001030
00000001
00000000
00000001
00000000
00000000
00000100
00000000
,
00000010
00010000
00000000
00010000
00000100
00001000
00000001
00000010
,
00001000
00000010
00000001
00000100
00001000
00000100
00000001
00001000
,
00000100
00010000
00000100
00001000
00000100
00000010
00000001
00001000
00000010
00010000
00001000
00010000
00000010
00010000
00001000
00100000
,
00010000
00000000
10000000
00000000
01000000
00000000
00100000
00000000
00001000
01000000
00010000
10000000
01000000
10000000
00010000
01000000
,
00001000
00100000
00010000
02000000
00000000
03100000
10000000
00010000
,
01000000
00000000
00000000
00000000
00000000
00000000
00001000
00000000
00000000
01000000
00000000
00000000
00010000
00000000
00000000
00000000
00000000
00000000
00100000
00000000
00000000
00000000
00000000
00000000
00001000
00000000
00000000
01000000
00000000
00000000
00010000
00000000
00000000
00000000
00000000
00000000
10000000
00000000
00000000
00000000
00100000
00000000
00000000
00000000
01000000
00000000
00000000
00000000
,
00010000
00000000
00000000
00000000
00000000
00000000
00000000
00000000
00200000
00000000
00000000
00000000
00000000
00000000
00000000
00000000
00302000
00000000
00000000
00000000
00000000
00000000
00000000
00000000
02003000
00000000
00000000
00000000
00000000
00000000
00000000
00000000
03010000
00000000
00000000
00000000
00100000
00000000
00000000
00001000
00000000
00000000
00010000
00000000
00000000
00000010
00000000
00000000
,
00001000
00000100
00000100
00000001
00000100
00000100
00001000
00000010
,
00020000
00000000
00031000
00100000
00010000
01000000
00001000
00100000
,
00000000
00010000
01000000
00001000
00010000
00000010
00001000
00000200
,
00000300
00000000
00000000
00000000
00002000
00000000
00000000
00000000
00003000
00000000
00000000
00000000
00000010
00010000
00000000
00000000
00001000
00000000
01000000
00000000
00010000
00000000
01000000
00000000
00001000
00000000
00010000
00000000
00000100
00000000
00001000
00000000
,
00000001
00001000
00000100
00010000
00000010
00001000
00000200
00000300
,
00010000
00000010
00000100
00001000
00000100
00000010
00010000
00010000
,
00001000
00100000
01000000
00010000
01000000
00100000
00001000
00010000
,
00000010
00000000
00001000
00000000
00000002
00000000
00000003
00000000
00001000
00000010
00010000
00001000
01000000
00010000
01000000
00001000
,
00010000
00000100
00000010
00001000
00000010
00000100
00020000
00030000
,
00001000
01000000
00100000
00010000
00100000
10000000
00010000
01000000
,
00010000
10000000
00010000
00000000
01000000
00100000
01000000
00000000
00001000
00100000
00001000
00000000
00010000
00000100
00010000
00000000
,
00001000
00100000
00010000
00100000
00001000
00010000
00000100
00001000
00000100
00010000
00001000
01000000
00010000
10000000
00100000
01000000
,
00010000
10000000
00000000
10000000
00000000
00000000
01000000
00000000
,
00100000
00001000
00000000
00001000
00010000
00000100
00001000
00000010
,
00000100
00000001
00000000
00000001
00000010
00000000
00000100
00000000
,
00010000
00000010
00000000
00000100
00000001
00001000
00000010
00000000
,
00010000
00001000
00000000
00001000
00000000
00000000
01000000
00000000
,
00010000
10000000
00000000
10000000
01000000
00100000
00010000
01000000
,
00001000
00010000
00000000
00010000
00000100
00000000
00000010
00000000
,
00000001
00001000
00000100
00000010
00000001
00001000
00000010
00000000
,
00020000
00000000
00000000
00000000
00031000
01000000
00100000
10000000
,
00020000
00000000
00000000
00000000
01030000
00001000
00010000
00000100
,
00000020
00001000
00000031
00000100
,
00000020
00000000
00000001
00000000
00001030
00000100
00010000
00001000
,
00200000
00000000
00000000
00000000
01300000
10000000
00010000
01000000
,
00200000
00000000
00000000
00000000
10300000
00010000
01000000
00001000
,
00100000
00001000
00100000
00000000
00010000
10000000
00010000
00000000
01000000
00001000
01000000
00000000
00010000
10000000
00010000
00000000
,
00100000
00001000
00100000
00010000
00100000
00001000
00010000
00000100
00001000
00000100
00010000
00001000
01000000
00010000
10000000
01000000
,
00200000
00000000
00000000
00300000
;
