#TITLE:nation of love;
#SUBTITLE:;
#ARTIST:Tachibana Tomoyuki;
#TITLETRANSLIT:;
#SUBTITLETRANSLIT:;
#ARTISTTRANSLIT:;
#GENRE:;
#CREDIT:;
#BANNER:nation_of_love-bn.png;
#BACKGROUND:nation_of_love-bg.png;
#CDTITLE:eternal_tune-cdtitle.png;
#MUSIC:nation_of_love.ogg;
#OFFSET:-0.043;
#SAMPLESTART:58.155000;
#SAMPLELENGTH:12.000000;
#SELECTABLE:YES;
#DISPLAYBPM:128.000;
#BPMS:0.000=128.000
,116.000=64.000
,119.000=128.000
,183.563=256.000
,183.625=128.000
,183.688=256.000
,183.750=128.000
,183.813=256.000
,183.875=128.000
,183.938=256.000
,184.000=128.000
;
#STOPS:119.000=0.117
,119.250=0.059
,119.375=0.059
,119.500=0.029
,119.563=0.029
,119.625=0.029
,119.688=0.029
,119.750=0.029
,119.813=0.029
,119.875=0.029
,119.938=0.029
,183.563=0.015
,183.688=0.015
,183.813=0.015
,183.938=0.015
;
#BGCHANGES:;
#FGCHANGES:;

//---------------dance-single - NAOKI----------------
#NOTES:
     dance-single:
     NAOKI:
     Beginner:
     2:
     0.127000,0.155000,0.037000,0.067000,0.000000:
0000
0000
0000
0000
,
0000
0000
0000
0000
,
0000
0000
0000
0000
,
0000
0000
0000
0000
,
0000
0000
0000
0000
,
0010
0000
0010
0000
,
0100
0000
0100
0000
,
0001
0000
0001
0000
,
1000
0000
1000
0000
,
0100
0000
0100
0000
,
0010
0000
0010
0000
,
0001
0000
0001
0000
,
1000
0000
1000
0000
,
0010
0000
0010
0000
,
0100
0000
0100
0000
,
0001
0000
0001
0000
,
1000
0000
1000
0000
,
0100
0000
0100
0000
,
0010
0000
0010
0000
,
0001
0000
0001
0000
,
1000
0000
1000
0000
,
0020
0000
0030
0000
,
0200
0000
0300
0000
,
0002
0000
0003
0000
,
2000
0000
3000
0000
,
0200
0000
0300
0000
,
0020
0000
0030
0000
,
0002
0000
0003
0000
,
2000
0000
3000
0000
,
0020
0000
0000
0030
,
0100
0000
0100
0000
,
0100
0000
0100
0000
,
0010
0000
0010
0000
,
0010
0000
0010
0000
,
1000
0000
1000
0000
,
1000
0000
1000
0000
,
0001
0000
0001
0000
,
0001
0000
0001
0000
,
0010
0000
0010
0000
,
0010
0000
0010
0000
,
0100
0000
0100
0000
,
0100
0000
0100
0000
,
1000
0000
1000
0000
,
1000
0000
1000
0000
,
0001
0000
0001
0000
,
0001
0000
0001
0000
,
1001
0000
0000
0000
,
0010
0000
0010
0000
,
1001
0000
0000
0000
,
0100
0000
0100
0000
,
1001
0000
0000
0000
,
0010
0000
0010
0000
,
1001
0000
0000
0000
,
0100
0000
0100
0000
,
0010
0000
0000
0000
,
1000
0000
0000
0000
,
0001
0000
0000
0000
,
0010
0000
0100
0000
,
1000
0000
0000
0000
,
0010
0000
0000
0000
,
0100
0000
0000
0000
,
0001
0000
0010
0000
,
0100
0000
0000
0000
,
1000
0000
0000
0000
,
0001
0000
0000
0000
,
0100
0000
0010
0000
,
1000
0000
0000
0000
,
0001
0000
0000
0000
,
0010
0000
0000
0000
,
0100
0000
1000
0000
,
1001
0000
0000
0000
;

//---------------dance-single - NAOKI----------------
#NOTES:
     dance-single:
     NAOKI:
     Easy:
     5:
     0.241000,0.312000,0.155000,0.104000,0.000000:
0000
0000
0000
0000
,
0000
0000
0000
0000
,
0000
0000
0000
0000
,
0000
0000
0000
0000
,
0000
0000
0000
0000
,
1000
1000
0100
0000
,
0001
0001
0100
0000
,
0010
0010
0100
0000
,
1000
0100
0010
0001
,
1000
1000
0010
0000
,
0001
0001
0010
0000
,
0100
0100
0010
0000
,
0001
0010
0100
1000
,
1001
0001
0100
0000
,
1000
1000
0100
0000
,
0010
0010
0100
0000
,
1000
0010
0100
0001
,
1001
1000
0100
0000
,
0001
0001
0100
0000
,
0010
0010
0100
0000
,
0001
0001
1000
1000
,
2001
0000
3000
0000
,
0020
0000
0030
0000
,
0200
0000
0300
0000
,
0002
0000
0023
0000
,
0230
0000
0300
0000
,
2000
0000
3000
0000
,
0020
0000
0030
0000
,
0200
0000
0302
0000
,
2000
0000
0000
3003
,
0010
1001
1000
0100
,
0010
0100
0000
0100
,
0010
1001
0001
0100
,
0010
0100
0000
0100
,
0010
1001
1000
0100
,
0010
0100
0000
0100
,
0010
1001
0001
0100
,
0010
0100
0000
0100
,
0010
1001
1000
0100
,
0010
0100
0000
0100
,
0010
1001
0001
0100
,
0010
0100
0000
0100
,
0010
1001
1000
0100
,
0010
0100
0000
0100
,
0010
1001
0001
0100
,
0210
0010
0010
0310
,
1000
0100
0100
0000
,
0010
0100
0110
0000
,
0001
0100
0100
0000
,
0010
0100
0110
0000
,
1000
0010
0010
0000
,
0100
0001
0011
0000
,
0001
0010
0010
0000
,
0100
1000
1010
0000
,
0010
0100
0000
0100
,
0001
0010
0000
0010
,
0100
1000
0000
1000
,
0001
0100
0000
0100
,
0110
0010
0000
0010
,
1000
0100
0000
0100
,
0010
0001
0000
0001
,
1000
0010
0000
0010
,
0110
0100
0000
0100
,
0001
0010
0000
0010
,
0100
1000
0000
1000
,
0001
0100
0000
0100
,
0110
0010
0000
0010
,
1000
0100
0000
0100
,
0010
0001
0000
0001
,
1000
0010
0000
0110
,
2002
3003
0000
0000
;

//---------------dance-single - NAOKI----------------
#NOTES:
     dance-single:
     NAOKI:
     Medium:
     9:
     0.410000,0.442000,0.370000,0.207000,0.015000:
0000
0000
0000
0000
,
0000
0000
0000
0000
,
0000
0000
0000
0000
,
0000
0000
0000
0000
,
0000
0000
0000
0000
,
0010
0000
0110
0000
0100
0001
1000
0000
,
0100
0000
0110
0000
0010
0001
1000
0000
,
0010
0000
0110
0000
1000
0001
0010
0000
,
0100
0000
0110
0000
1000
0100
0010
0001
,
0100
0000
0100
0000
0010
1000
0001
0000
,
0010
0000
0010
0000
0100
1000
0001
0000
,
0100
0000
0100
0000
0010
1000
0001
0000
,
2000
3100
0002
0103
,
0010
0000
1001
0000
0001
0010
0100
0000
,
0010
0000
1001
0000
1000
0010
0100
0000
,
0001
0000
1001
0000
0100
1000
0010
0000
,
1000
0000
1001
0000
0010
0001
0100
0010
,
1000
0000
1100
0000
0010
0001
0100
0000
,
0010
0000
0101
0000
0100
0001
0010
0000
,
0100
0000
0011
0000
0100
1000
0010
0000
,
0100
0000
1010
0000
0100
0001
0010
0100
,
2000
0000
0020
3000
,
0200
0030
0002
0300
,
0020
0003
0200
0030
,
2000
0300
3010
0100
,
0020
0000
2000
0030
,
0200
3000
0020
0300
,
0002
0030
0200
0003
,
0020
0300
1030
0001
,
2002
0000
0000
3003
,
0110
0000
1001
0000
1000
0100
0001
0000
,
0100
1000
0020
0000
0001
0000
1030
0000
,
0110
0000
1001
0000
0001
0100
1000
0000
,
0100
0001
0020
0000
1000
0000
0031
0000
,
0110
0000
1001
0000
1000
0010
0001
0000
,
0010
1000
0200
0000
0001
0000
1300
0000
,
0110
0000
1001
0000
0100
0010
0100
0000
,
0210
0000
0010
0310
0000
1000
0001
0000
,
0101
0000
1100
0000
1000
0010
0001
0000
,
0010
1000
0100
0000
0001
0100
1000
0000
,
1100
0000
0101
0000
0001
0010
1000
0000
,
0010
0001
0100
0000
1000
0100
0001
0000
,
0011
0000
1010
0000
1000
0100
0001
0000
,
0100
1000
0010
0000
0001
0010
1000
0000
,
1010
0000
0011
0000
0001
0100
1000
0000
,
0101
1100
0011
1010
,
1001
0000
0001
0100
0000
1000
0100
0000
,
0001
0000
0010
0000
0000
0010
0000
0000
0010
0000
0100
0000
0000
0000
0000
0000
,
1001
0000
1000
0100
0000
0001
0100
0000
,
1000
0000
0010
0000
0000
0010
0000
0000
0010
0000
0100
0000
0000
0000
0000
0000
,
1001
0000
0001
0010
0000
1000
0010
0000
,
0001
0000
0100
0000
0000
0100
0000
0000
0100
0000
0010
0000
0000
0000
0000
0000
,
1001
0000
1000
0010
0000
0001
0010
0000
,
1000
0000
0100
0000
0000
0100
0000
0000
0100
0000
0010
0000
0001
0000
1000
0000
,
0010
0000
0110
0000
1000
0100
0001
0000
,
0100
0000
0110
0000
0001
0100
1000
0000
,
0100
0000
0110
0000
0001
0010
1000
0000
,
0010
0000
0110
0000
1000
0001
0100
0010
,
1000
0000
0101
0000
0010
1000
0100
0000
,
0001
0000
1100
0000
0010
0001
0100
0000
,
0001
0000
1010
0000
0100
1000
0010
0000
,
0020
0000
0100
0000
0130
0001
0010
0100
,
1000
0000
0011
0000
1000
0100
0001
0000
,
1000
0000
0101
0000
1000
0010
0001
0000
,
0100
0000
1010
0000
0001
0100
1000
0000
,
0001
0000
1100
0000
0001
1000
0010
0100
,
0002
0000
0100
0000
0103
0010
1000
0000
,
2000
0000
0100
0000
3100
0010
0001
0000
,
0200
0000
0010
0000
0310
1000
0001
0000
,
0100
0000
0100
0000
0010
1000
0100
0010
,
2002
3003
0000
0000
;

//---------------dance-single - NAOKI----------------
#NOTES:
     dance-single:
     NAOKI:
     Hard:
     12:
     0.576000,0.546000,0.518000,0.333000,0.230000:
0000
0000
0000
0000
,
0000
0000
0000
0000
,
0000
0000
0000
0000
,
0000
0000
0000
0000
,
0000
0000
0000
0000
,
0011
0000
0000
0010
0100
0000
1000
0000
0001
0000
0100
0000
0100
0000
0000
0000
,
2001
0000
0000
3100
0010
0000
0001
0000
1000
0000
0010
0000
0100
0000
0000
0000
,
1010
0000
0000
0010
0100
0000
0001
0000
1000
0000
0100
0000
0100
0000
0000
0000
,
1002
0000
0000
0103
0010
0000
1000
0000
0001
0000
0010
0000
0100
0000
1000
0000
,
0011
0000
0000
0010
0100
0000
1000
0000
0001
0000
0100
0000
0010
0000
0000
0000
,
2001
0000
0000
3100
0010
0000
0001
0000
1000
0000
0010
0000
0100
0000
0000
0000
,
1010
0000
0000
0010
0100
0000
0001
0000
1000
0000
0100
0000
0010
0000
0000
0000
,
2002
0000
0003
0000
3001
0100
0010
0000
,
0110
0000
0100
0001
1000
0000
0100
0000
0010
0000
0001
0000
0100
0000
0000
0000
,
0110
0000
0010
1000
0001
0000
0010
0000
0100
0000
1000
0000
0010
0000
0000
0000
,
0100
0000
0001
1000
0100
0000
0010
0000
0001
0000
0100
0000
0010
0000
0000
0000
,
1000
0000
0100
0010
0001
0000
1000
0000
0010
0000
0100
0000
0001
0000
0010
0000
,
0110
0000
0100
1000
0001
0000
0100
0000
0010
0000
1000
0000
0100
0000
0000
0000
,
0110
0000
0010
0001
1000
0000
0010
0000
0100
0000
0001
0000
0010
0000
0000
0000
,
0100
0000
1000
0001
0100
0000
0010
0000
1000
0000
0100
0000
0010
0000
0000
0000
,
0001
0000
0100
0010
0100
0000
0010
0000
1000
0000
0001
0000
0010
0000
0100
0000
,
2000
0000
0001
0000
0000
0010
0000
0000
0001
0000
0000
3100
0000
0000
0010
0000
,
0002
0000
1000
0000
0000
0100
0000
0000
1000
0000
0000
0013
0000
0000
0100
0000
,
0020
0000
1000
0000
0000
0031
0000
0000
0100
0000
0000
0100
0000
0000
0100
0000
,
0020
0000
0001
0000
0000
1030
0000
0000
0010
0000
1000
0000
0100
0000
0010
0000
,
0002
0000
1000
0000
0000
0100
0000
0000
1000
0000
0000
0013
0000
0000
0100
0000
,
2000
0000
0001
0000
0000
0010
0000
0000
0001
0000
0000
3100
0000
0000
0010
0000
,
0200
0000
0001
0000
0000
1300
0000
0000
0010
0000
0000
0010
0000
0000
0010
0000
,
0200
0000
1000
0000
0000
0301
0000
0000
0100
0000
0001
0000
0010
0000
0100
0000
,
2002
0000
0000
3003
,
1010
0000
0011
0000
0100
1000
0010
0000
,
0100
0001
0000
1000
0100
0000
0010
0000
0001
0000
0100
0000
1000
0000
0000
0000
,
0011
0000
1010
0000
0100
0001
0010
0000
,
0100
1000
0000
0001
0100
0000
0010
0000
1000
0000
0100
0000
0010
0000
0001
0000
,
1100
0000
0101
0000
0010
1000
0100
0000
,
0010
0001
0000
1000
0010
0000
0100
0000
0001
0000
0010
0000
1000
0000
0000
0000
,
0101
0000
1100
0000
0010
0001
0100
0000
,
2010
0000
3001
0012
0000
0013
0100
0000
,
1100
0000
0101
0000
0010
1000
0100
0000
,
0010
0001
0000
1000
0010
0000
0100
0000
0001
0000
0010
0000
1000
0000
0000
0000
,
0101
0000
1100
0000
0010
0001
0100
0000
,
0010
1000
0000
0001
0010
0000
0100
0000
1000
0000
0010
0000
0100
0000
0001
0000
,
1010
0000
0011
0000
0100
1000
0010
0000
,
0100
0001
0000
1000
0100
0000
0010
0000
0001
0000
0100
0000
1000
0000
0000
0000
,
0011
0000
1010
0000
0100
0001
0010
0000
,
1100
0101
1010
0011
,
2100
0000
0000
3010
0000
0000
0101
0000
0000
0000
0001
0000
0010
0000
0100
0000
,
1000
0000
0001
0100
0000
0001
0100
0000
0010
0000
1001
0000
0100
0000
0000
0000
,
0102
0000
0000
0013
0000
0000
1100
0000
0000
0000
1000
0000
0010
0000
0100
0000
,
0001
0000
1000
0100
0000
1000
0100
0000
0010
0000
1001
0000
0100
0000
0000
0000
,
2010
0000
0000
3100
0000
0000
0011
0000
0000
0000
0001
0000
0100
0000
0010
0000
,
1000
0000
0001
0010
0000
0001
0010
0000
0100
0000
1001
0000
0010
0000
0000
0000
,
0012
0000
0000
0103
0000
0000
1010
0000
0000
0000
1000
0000
0100
0000
0010
0000
,
0001
0000
1000
0010
0000
1000
0010
0000
0100
0000
1001
0000
0010
0000
0000
0000
,
1010
0000
1000
0001
0000
0000
0102
0000
0000
0000
0013
0000
0200
0000
0000
0300
,
1000
0000
0100
0010
0000
0000
0012
0000
0000
0000
1003
0000
0100
0000
0010
0000
,
0001
0000
0010
0100
0000
0000
2100
0000
0000
0000
3010
0000
0200
0000
0000
0300
,
0001
0000
0100
0010
0000
0000
2010
0000
0000
0000
3001
0000
0010
0000
0100
0000
,
1000
0000
0100
0010
0000
0000
0012
0000
0000
0000
0103
0000
0020
0000
0000
0030
,
1000
0000
0010
0100
0000
0000
0102
0000
0000
0000
1003
0000
0010
0000
0100
0000
,
0001
0000
0100
0010
0000
0000
2010
0000
0000
0000
3100
0000
0020
0000
0000
0030
,
0001
0000
0010
0100
0000
0000
1100
0000
0000
0000
0010
0000
0001
0000
0100
0000
,
0101
0000
0001
0000
1000
0000
2100
0000
0000
0000
3010
0000
0200
0000
0000
0300
,
0001
0010
0100
1002
0000
0103
0100
0010
,
1010
0000
1000
0000
0001
0000
0012
0000
0000
0000
0103
0000
0020
0000
0000
0030
,
1000
0100
0010
2001
0000
3010
1000
0100
,
1100
0000
1000
0000
0001
0000
0102
0000
0000
0000
0013
0000
0200
0000
0000
0300
,
1000
0010
0100
2001
0000
3100
0100
0010
,
0011
0000
0001
0000
1000
0000
2010
0000
0000
0000
3100
0000
0020
0000
0000
0030
,
0001
0000
0000
0101
0000
0000
1100
0000
0000
0000
0001
0000
0010
0000
0100
0000
,
2002
3003
0000
0000
;

//---------------dance-single - NAOKI----------------
#NOTES:
     dance-single:
     NAOKI:
     Challenge:
     15:
     0.424000,0.442000,0.429000,0.244000,0.130000:
0000
0000
0000
0000
,
0000
0000
0000
0000
,
0000
0000
0000
0000
,
0000
0000
0000
0000
,
0000
0000
0000
0000
,
0010
0000
0001
1000
0000
0010
0100
0010
1000
0000
0001
0010
0000
0100
1000
0000
,
0010
0000
0100
0001
0000
1000
0100
0010
0001
0000
1000
0010
0200
0000
0301
1000
,
0100
0000
0010
0001
0000
1000
0010
0100
0001
0000
1000
0100
0000
0010
0001
0000
,
0100
0000
0010
1000
0000
0001
0010
0000
0100
1000
0001
0100
0010
1000
0001
0010
,
0100
0000
1000
0001
0000
0010
0100
0010
0001
0000
1000
0010
0000
0100
0001
0000
,
0010
0000
0100
1000
0000
0001
0100
0010
1000
0000
0001
0010
0200
0000
1300
0001
,
0100
0000
0010
1000
0000
0001
0010
0100
1000
0000
0001
0100
0000
0010
1000
0000
,
0001
0000
0010
0000
0100
1000
0000
0001
0100
0000
0100
0010
0000
1000
0001
0000
,
0010
0100
1000
0001
0100
0010
0001
0010
0200
0000
0310
0000
1000
0001
0010
0000
,
0100
0000
0010
0000
0001
0000
1000
0000
0010
0000
0100
0000
1000
0000
0100
0000
0020
0000
0000
0000
2030
0000
0000
0000
3200
0000
0000
0300
0001
0000
0100
0000
,
1000
0000
0001
0100
0000
0010
0100
0010
1000
0000
0001
0010
0000
0100
1000
0000
,
0001
0000
0100
0010
0000
1000
0001
0000
0010
0100
1000
0001
0100
0010
1000
0100
,
0010
0000
0001
1000
0000
0010
0100
0010
1000
0000
0001
0010
0000
0100
0010
0100
,
1000
0000
0000
0000
0001
0000
0100
0000
0000
0000
0010
0000
1000
0000
0100
0000
0020
0000
0000
0000
0032
0000
0000
0000
0203
0000
0000
0300
1000
0000
0100
0000
,
0001
0000
1000
0100
0000
0010
0100
0010
0001
0000
1000
0010
0000
0100
0001
1000
,
0100
0000
0010
0001
0000
0010
0100
1000
0001
0100
0010
0100
0001
1000
0100
0010
,
0001
0000
0200
00M0
0300
0020
M000
0030
2000
0M00
3000
0200
000M
0300
M001
0000
,
0100
0010
0001
0000
1000
0010
0000
0001
0010
0000
0100
1000
0000
0100
0001
0000
,
1000
0000
0200
00M0
0300
0020
000M
0030
0002
0M00
0003
0200
M000
0300
100M
0000
,
0100
0010
1000
0000
0001
0010
0000
0100
1000
0001
0100
0010
1000
0001
0010
0100
,
1000
0001
0100
0000
0020
0100
0030
2000
0001
3000
0200
0010
0300
0010
0001
0000
,
1000
0010
0100
0000
0001
0010
0000
1000
0010
0000
0100
0001
0000
0100
1000
0000
,
0001
0100
0010
0000
0200
0010
0300
0002
1000
0003
0020
0100
0030
0100
1000
0000
,
0001
0100
0010
0000
1000
0001
0000
0010
0100
1000
0001
0100
0010
1000
0100
0010
,
0002
0000
0000
0000
0000
0000
0000
0000
0000
0000
0000
0000
0000
0000
0000
0000
M000
0000
0000
0000
0000
0000
0000
0000
M000
0000
0000
0000
0000
0000
0000
0000
M000
0000
0000
0000
0000
0000
0000
0000
M000
0000
0000
0000
0000
0000
0000
0000
M103
0000
0000
0000
M000
0000
M100
0000
M000
M000
M000
M000
M100
M000
M000
M000
,
0010
1000
0000
0001
0020
0000
0130
1000
0001
0100
0000
1000
0400
0300
0010
0010
,
1000
0100
0000
0001
0100
0000
0010
0001
1000
0010
0000
0100
0001
0000
1000
0100
,
0010
0001
0000
1000
0020
0000
0130
0001
1000
0100
0000
0001
0400
0300
0010
0010
,
0001
0100
0000
1000
0100
0000
0010
1000
0100
0010
0001
1000
0010
0100
0001
0010
,
0100
1000
0000
0001
0200
0000
0310
1000
0001
0010
0000
1000
0040
0030
0100
0100
,
1000
0010
0000
0100
1000
0000
0100
0001
1000
0100
0000
0010
0001
0000
1000
0010
,
0100
0001
0000
1000
0200
0000
0310
0001
1000
0010
0000
0100
4000
3000
0100
0100
,
0001
0010
0000
0100
1000
0000
1001
0000
0001
0100
0010
1000
0100
0010
0001
1000
,
0010
0000
0100
0000
0000
0000
0001
0000
0020
0000
0000
0000
0130
0000
1000
0000
0001
0000
0100
0000
0000
0000
0010
0000
1000
0000
0100
M00M
0100
0000
0001
0000
,
0010
0100
0000
0010
0001
0000
0100
0010
1000
0100
0000
0010
0001
0000
1000
0010
,
0100
0000
0001
0000
0000
0000
0010
0000
0200
0000
0000
0000
1300
0000
0001
0000
0100
0000
1000
0000
0000
0000
0100
0000
0001
0000
0010
M00M
0010
0000
1000
0000
,
0001
0010
0000
0100
1000
0000
0010
0100
0001
1000
0100
0010
0001
0100
0010
1000
,
0100
0000
0010
0000
0000
0000
0001
0000
0200
0000
0000
0000
0310
0000
1000
0000
0001
0000
0010
0000
0000
0000
0100
0000
1000
0000
0010
M00M
0010
0000
0001
0000
,
0100
0010
0000
1000
0001
0000
0010
0100
1000
0001
0000
0100
0010
0000
1000
0100
,
0010
0000
0001
0000
0000
0000
1000
0000
0020
0000
0000
0000
0130
0000
0001
0000
1000
0000
0100
0000
0000
0000
0010
0000
0001
0000
0100
M00M
0100
0000
1000
0000
,
2001
0000
0000
0000
0000
0000
0000
0000
3000
0000
0000
0000
0001
0000
0000
0000
1002
0000
0000
0000
0000
0000
0000
0000
1003
0000
0000
0000
0000
0000
0000
0000
0020
0000
0000
0000
0230
0000
0000
0000
0302
0000
0000
0000
2003
0000
0000
0000
3200
0000
0000
0000
0320
0000
0000
0000
0034
0003
4000
3000
0004
0003
4000
3000
,
0004
0003
0000
0000
0000
0000
0000
0000
0100
0000
0000
0000
0010
0000
0000
0000
0000
0000
0000
0000
0100
0000
0000
0000
0001
0000
0000
0000
1000
0000
0000
0000
0100
0000
0000
0000
0000
0000
0000
0000
0040
0000
0000
0000
1030
0000
0000
0000
0000
0000
0000
0000
0010
0000
0000
0000
0001
0000
0000
0000
1000
0000
0000
0000
,
0010
0000
0100
2000
3000
0100
0002
0003
0010
0000
0110
0000
0100
0000
1000
0001
,
0100
0000
0010
0100
0000
0010
1000
0001
0010
0000
0400
0301
0000
0100
1000
0001
,
0100
0000
0010
0002
0003
0010
2000
3000
0001
0010
0100
0010
0001
1000
0010
0100
,
0001
0000
0010
0100
0000
0010
0001
1000
0010
0000
0400
1300
0000
0100
0001
1000
,
0100
0000
0010
2000
3000
0010
0002
0003
0100
0000
0110
0000
0010
0000
1000
0001
,
0010
0000
0100
0010
0000
0100
1000
0001
0100
0000
0040
0031
0000
0010
1000
0001
,
0010
0000
0100
0002
0003
0100
2000
3000
0010
0100
0001
1000
0100
0010
0001
1000
,
0020
0000
0030
0100
0010
0000
1000
0000
0001
0000
0010
0000
0200
0000
0300
0000
,
0002
0000
0003
0100
0010
0000
0001
0000
0100
0000
0010
0000
2000
0000
3001
0000
,
0020
0000
0030
1000
0010
0000
0100
0000
1000
0000
0001
0000
0200
0000
0300
0000
,
2000
0000
3000
0100
0010
0000
1000
0000
0100
0000
0010
0000
0001
0000
0100
0000
,
0020
0000
0030
1000
0001
0000
0010
0000
0100
0000
1000
0000
0020
0000
0030
0000
,
0002
0000
0003
0010
0100
0000
0001
0000
0010
0000
0100
0000
2000
0000
3001
0000
,
0200
0000
0300
1000
0100
0000
0010
0000
1000
0000
0001
0000
0020
0000
0030
0000
,
2000
0000
3000
0010
0100
0000
1000
0000
0000
0000
0010
0000
0100
0000
0001
0000
,
0020
0000
0000
0000
0000
0000
0000
0000
0030
0000
0000
0000
0100
0000
0000
0000
1000
0000
0000
0000
0000
0001
0000
0000
0020
0000
0000
0000
0000
0030
0000
0000
0100
0000
0000
0000
0000
1000
0000
0000
0001
0000
0000
0000
0000
0000
0000
0000
0200
0000
0000
0000
0000
0310
0000
0000
1000
0000
0000
0000
0000
0000
0000
0000
,
0100
0000
0000
0000
0000
0000
0000
0000
0000
0000
0000
0000
0000
0000
0000
0010
0000
0000
0000
0000
0000
0000
0000
0000
0001
0000
0000
0000
0000
0000
0000
0000
0000
0000
0000
0000
1000
0000
0000
0000
0000
0000
0000
0000
0000
0000
0000
0000
0010
0000
0000
0000
0000
0000
0000
0000
0000
0000
0000
0000
0000
0000
0000
0100
0000
0000
0000
0000
0000
0000
0000
0000
2000
0000
0000
0000
0000
0000
0000
0000
0000
0000
0000
0000
0000
0000
0000
0000
3000
0000
0000
0000
0000
0000
0000
0000
0100
0000
0000
0000
0000
0000
0000
0000
0000
0000
0000
0000
0000
0000
0000
0001
0000
0000
0000
0000
0000
0000
0000
0000
1000
0000
0000
0000
0000
0000
0000
0000
0000
0000
0000
0000
0000
0000
0000
0000
0000
0000
0000
0000
0000
0000
0000
0000
0200
0000
0000
0000
0000
0000
0000
0000
0000
0000
0000
0000
0000
0000
0000
0310
0000
0000
0000
0000
0000
0000
0000
0000
0001
0000
0000
0000
0000
0000
0000
0000
0000
0000
0000
0000
0000
0000
0000
0000
0000
0000
0000
0000
0000
0000
0000
0000
,
0010
0000
0000
0000
0000
0000
0000
0000
0000
0000
0000
0000
0000
0000
0000
0100
0000
0000
0000
0000
0000
0000
0000
0000
1000
0000
0000
0000
0000
0000
0000
0000
0000
0000
0000
0000
0001
0000
0000
0000
0000
0000
0000
0000
0000
0000
0000
0000
0100
0000
0000
0000
0000
0000
0000
0000
0000
0000
0000
0000
0000
0000
0000
0010
0000
0000
0000
0000
0000
0000
0000
0000
0002
0000
0000
0000
0000
0000
0000
0000
0000
0000
0000
0000
0000
0000
0000
0000
0003
0000
0000
0000
0000
0000
0000
0000
0010
0000
0000
0000
0000
0000
0000
0000
0000
0000
0000
0000
0000
0000
0000
1000
0000
0000
0000
0000
0000
0000
0000
0000
0001
0000
0000
0000
0000
0000
0000
0000
0000
0000
0000
0000
0000
0000
0000
0000
0000
0000
0000
0000
0000
0000
0000
0000
0020
0000
0000
0000
0000
0000
0000
0000
0000
0000
0000
0000
0000
0000
0000
0130
0000
0000
0000
0000
0000
0000
0000
0000
1000
0000
0000
0000
0000
0000
0000
0000
0000
0000
0000
0000
0000
0000
0000
0000
0000
0000
0000
0000
0000
0000
0000
0000
,
0010
0000
0000
0000
0000
0000
0000
0000
0000
0000
0000
0000
0000
0000
0000
0100
0000
0000
0000
0000
0000
0000
0000
0000
0001
0000
0000
0000
0000
0000
0000
0000
0000
0000
0000
0000
1000
0000
0000
0000
0000
0000
0000
0000
0000
0000
0000
0000
0100
0000
0000
0000
0000
0000
0000
0000
0000
0000
0000
0000
0000
0000
0000
0010
0000
0000
0000
0000
0000
0000
0000
0000
2000
0000
0000
0000
0000
0000
0000
0000
0000
0000
0000
0000
0000
0000
0000
0000
3000
0000
0000
0000
0000
0000
0000
0000
0010
0000
0000
0000
0000
0000
0000
0000
0000
0000
0000
0000
0000
0000
0000
0001
0000
0000
0000
0000
0000
0000
0000
0000
1000
0000
0000
0000
0000
0000
0000
0000
0000
0000
0000
0000
0000
0000
0000
0000
0000
0000
0000
0000
0000
0000
0000
0000
0010
0000
0000
0000
0000
0000
0000
0000
0000
0000
0000
0000
0000
0000
0000
0000
0000
0000
0000
0000
0000
0000
0000
0000
0100
0000
0000
0000
0000
0000
0000
0000
0000
0000
0000
0000
0000
0000
0000
0000
0000
0000
0000
0000
0000
0000
0000
0000
,
0001
0000
0000
0000
0000
0000
0000
0000
0000
0000
0000
0000
0000
0000
0000
1000
0000
0000
0000
0000
0000
0000
0000
0000
0100
0000
0000
0000
0000
0000
0000
0000
0000
0000
0000
0000
0010
0000
0000
0000
0000
0000
0000
0000
0000
0000
0000
0000
0001
0000
0000
0000
0000
0000
0000
0000
0000
0000
0000
0000
0000
0000
0000
1000
0000
0000
0000
0000
0000
0000
0000
0000
0020
0000
0000
0000
0000
0000
0000
0000
0000
0000
0000
0000
0000
0000
0000
0000
0030
0000
0000
0000
0000
0000
0000
0000
0100
0000
0000
0000
0000
0000
0000
0000
0000
0000
0000
0000
0000
0000
0000
0001
0000
0000
0000
0000
0000
0000
0000
0000
1000
0000
0000
0000
0000
0000
0000
0000
0000
0000
0000
0000
0000
0000
0000
0000
0000
0000
0000
0000
0000
0000
0000
0000
0200
0000
0000
0000
0000
0000
0000
0000
0000
0000
0000
0000
0000
0000
0000
0310
0000
0000
0000
0000
0000
0000
0000
0000
0001
0000
0000
0000
0000
0000
0000
0000
0000
0000
0000
0000
0000
0000
0000
0000
0000
0000
0000
0000
0000
0000
0000
0000
,
0100
0000
0000
0000
0000
0000
0000
0000
0000
0000
0000
0000
0000
0000
0000
0010
0000
0000
0000
0000
0000
0000
0000
0000
1000
0000
0000
0000
0000
0000
0000
0000
0000
0000
0000
0000
0001
0000
0000
0000
0000
0000
0000
0000
0000
0000
0000
0000
0010
0000
0000
0000
0000
0000
0000
0000
0000
0000
0000
0000
0000
0000
0000
0100
0000
0000
0000
0000
0000
0000
0000
0000
0002
0000
0000
0000
0000
0000
0000
0000
0000
0000
0000
0000
0000
0000
0000
0000
0003
0000
0000
0000
0000
0000
0000
0000
0100
0000
0000
0000
0000
0000
0000
0000
0000
0000
0000
0000
0000
0000
0000
1000
0000
0000
0000
0000
0000
0000
0000
0000
0001
0000
0000
0000
0000
0000
0000
0000
0000
0000
0000
0000
0000
0000
0000
0000
0000
0000
0000
0000
0000
0000
0000
0000
0200
0000
0000
0000
0000
0000
0000
0000
0000
0000
0000
0000
0000
0000
0000
0310
0000
0000
0000
0000
0000
0000
0000
0000
1000
0000
0000
0000
0000
0000
0000
0000
0000
0000
0000
0000
0000
0000
0000
0000
0000
0000
0000
0000
0000
0000
0000
0000
,
0100
0000
0000
0000
0000
0000
0000
0000
0000
0000
0000
0000
0000
0000
0000
0010
0000
0000
0000
0000
0000
0000
0000
0000
0001
0000
0000
0000
0000
0000
0000
0000
0000
0000
0000
0000
1000
0000
0000
0000
0000
0000
0000
0000
0000
0000
0000
0000
0010
0000
0000
0000
0000
0000
0000
0000
0000
0000
0000
0000
0000
0000
0000
0100
0000
0000
0000
0000
0000
0000
0000
0000
2000
0000
0000
0000
0000
0000
0000
0000
0000
0000
0000
0000
0000
0000
0000
0000
3000
0000
0000
0000
0000
0000
0000
0000
0100
0000
0000
0000
0000
0000
0000
0000
0000
0000
0000
0000
0000
0000
0000
0001
0000
0000
0000
0000
0000
0000
0000
0000
1000
0000
0000
0000
0000
0000
0000
0000
0000
0000
0000
0000
0000
0000
0000
0000
0000
0000
0000
0000
0000
0000
0000
0000
0200
0000
0000
0000
0000
0000
0000
0000
0000
0000
0000
0000
0000
0000
0000
0310
0000
0000
0000
0000
0000
0000
0000
0000
0001
0000
0000
0000
0000
0000
0000
0000
0000
0000
0000
0000
0000
0000
0000
0000
0000
0000
0000
0000
0000
0000
0000
0000
,
0010
0000
0000
0000
0000
0100
0000
0000
1000
0000
0000
0000
0001
0000
0000
0000
0100
0000
0000
0000
0000
0010
0000
0000
1000
0000
0000
0000
0000
0000
0000
0000
0100
0000
0000
0000
0000
0010
0000
0000
0001
0000
0000
0000
0000
0000
0000
0000
0100
0000
0000
0000
0000
0010
0000
0000
1000
0000
0000
0000
0000
0000
0000
0000
,
2002
3003
0000
0000
;

//---------------dance-single - SHOCK ARROW----------------
#NOTES:
     dance-single:
     SHOCK ARROW:
     Edit:
     10:
     0.000000,0.000000,0.000000,0.000000,0.000000:
0000
0000
0000
0000
,
0000
0000
0000
0000
,
0000
0000
0000
0000
,
0000
0000
0000
0000
,
0000
0000
0000
0000
,
1001
0000
MMMM
0000
0010
1000
0100
0000
,
0110
0000
MMMM
0000
0010
0001
0100
0000
,
0110
0000
MMMM
0000
0100
1000
0010
0000
,
1001
0000
MMMM
0000
0100
0001
0010
0100
,
1000
0000
0000
0010
0000
0000
0100
0000
0001
0000
0010
0000
MMMM
0000
0000
0000
,
0001
0000
0000
0010
0000
0000
0100
0000
1000
0000
0010
0000
0100
0000
MMMM
0000
,
0100
0000
0000
0010
0000
0000
1000
0000
0001
0000
0010
0000
MMMM
0000
0000
0000
,
2000
0000
3100
0000
0002
0100
0103
0000
,
1010
0000
0100
0001
0010
0100
MMMM
0000
,
0011
0000
0100
1000
0010
MMMM
0010
0000
,
0101
0000
0010
1000
0100
0010
MMMM
0000
,
1100
0000
0010
0001
0100
0010
0100
MMMM
,
0010
0000
0000
1000
0000
0000
0001
0000
0010
0000
0100
0000
MMMM
0000
0000
0000
,
0010
0000
0000
0001
0000
0000
1000
0000
0010
0000
0100
0000
0010
0000
MMMM
0000
,
0100
0000
0000
0001
0000
0000
1000
0000
0100
0000
0010
0000
MMMM
0000
0000
0000
,
0100
0000
0000
1000
0000
0000
0001
0000
0100
0000
MMMM
0000
0100
0000
MMMM
0000
,
2000
0000
0010
0000
0001
0000
3100
MMMM
,
0002
0000
0010
0000
1000
0000
0103
MMMM
,
0020
0000
1000
0000
0100
0000
0031
MMMM
,
0200
0000
1000
0000
0010
0000
0301
MMMM
,
2000
0000
0100
0000
0001
0000
3010
MMMM
,
0002
0000
0100
0000
1000
0000
0013
MMMM
,
0200
0000
0001
0000
0010
0000
1300
MMMM
,
0020
0001
0100
1030
,
2002
0000
0000
3003
,
1001
0000
MMMM
0000
0010
1000
0100
0000
,
0010
0001
0100
1000
0100
0001
0010
0000
,
1001
0000
MMMM
0000
0010
0001
0100
0000
,
0010
1000
0100
0001
0100
1000
0010
0000
,
1001
0000
MMMM
0000
0100
1000
0010
0000
,
0100
0001
0010
1000
0010
0001
0100
0000
,
1001
0000
MMMM
0000
0100
0001
0010
0000
,
0100
1000
0001
0100
MMMM
0000
MMMM
0000
,
0110
0000
MMMM
0000
0001
0010
1000
0000
,
0001
0100
1000
0010
1000
0100
0001
0000
,
0110
0000
MMMM
0000
0001
0100
1000
0000
,
0001
0010
1000
0100
1000
0010
0001
0000
,
0110
0000
MMMM
0000
1000
0100
0001
0000
,
1000
0010
0001
0100
0001
0010
1000
0000
,
0110
0000
MMMM
0000
1000
0010
0001
0000
,
0011
1010
0101
1100
,
2010
0000
0000
3100
0000
0000
0011
0000
0000
0000
0001
0000
0100
0000
0000
0000
,
MMMM
0000
1000
0100
0000
1000
0100
0000
0010
0000
0001
0000
0100
0000
0000
0000
,
0012
0000
0000
0103
0000
0000
1010
0000
0000
0000
1000
0000
0100
0000
0000
0000
,
MMMM
0000
0001
0100
0000
0001
0100
0000
0010
0000
1000
0000
0100
0000
0000
0000
,
2100
0000
0000
3010
0000
0000
0101
0000
0000
0000
0001
0000
0010
0000
0000
0000
,
MMMM
0000
1000
0010
0000
1000
0010
0000
0100
0000
0001
0000
0010
0000
0000
0000
,
0102
0000
0000
0013
0000
0000
1100
0000
0000
0000
1000
0000
0010
0000
0000
0000
,
MMMM
0000
0001
0010
0000
0001
0010
0000
0100
0000
1000
0000
0010
0000
0000
0000
,
0110
0000
0000
MMMM
0000
0000
1002
0000
0000
0000
0013
0000
0100
0000
0000
0000
,
0110
0000
0000
MMMM
0000
0000
2001
0000
0000
0000
3010
0000
0100
0000
0000
0000
,
0110
0000
0000
MMMM
0000
0000
1002
0000
0000
0000
0103
0000
0010
0000
0000
0000
,
0110
0000
0000
MMMM
0000
0000
2001
0000
0000
0000
3100
0000
0010
0000
0001
0000
,
1000
0000
0000
MMMM
0000
0000
0120
0000
0000
0000
1030
0000
0001
0000
0000
0000
,
1001
0000
0000
MMMM
0000
0000
0210
0000
0000
0000
0301
0000
1000
0000
0000
0000
,
1001
0000
0000
MMMM
0000
0000
0120
0000
0000
0000
0031
0000
1000
0000
0000
0000
,
1001
0000
0000
MMMM
0000
0000
0210
0000
0000
0000
0010
0000
0310
0000
MMMM
0000
,
1001
0000
0000
MMMM
0000
0000
2010
0000
0000
0000
3100
0000
0010
0000
0000
0000
,
1100
0000
0000
MMMM
0000
0000
0102
0000
0000
0000
0013
0000
0100
0000
0000
0000
,
1001
0000
0000
MMMM
0000
0000
0012
0000
0000
0000
0103
0000
0010
0000
0000
0000
,
0101
0000
0000
MMMM
0000
0000
2100
0000
0000
0000
3010
0000
0100
0000
0001
0000
,
1000
0000
0000
MMMM
0000
0000
0120
0000
0000
0000
1030
0000
0100
0000
0000
0000
,
1001
0000
0000
MMMM
0000
0000
0120
0000
0000
0000
0031
0000
0100
0000
0000
0000
,
1001
0000
0000
MMMM
0000
0000
0210
0000
0000
0000
1300
0000
0010
0000
0000
0000
,
0100
0000
0000
MMMM
0000
0000
0010
0000
0000
0000
0010
0000
0100
0000
MMMM
0000
,
2002
3003
0000
0000
;

//---------------dance-double - [FG v1.00] NAOKI----------------
#NOTES:
     dance-double:
     [FG v1.00] NAOKI:
     Beginner:
     2:
     0.127000,0.155000,0.037000,0.067000,0.000000:
00000000
00000000
00000000
00000000
,
00000000
00000000
00000000
00000000
,
00000000
00000000
00000000
00000000
,
00000000
00000000
00000000
00000000
,
00000000
00000000
00000000
00000000
,
00000010
00000000
00000010
00000000
,
00001000
00000000
00001000
00000000
,
00000100
00000000
00000100
00000000
,
00010000
00000000
00010000
00000000
,
00001000
00000000
00001000
00000000
,
01000000
00000000
01000000
00000000
,
00100000
00000000
00100000
00000000
,
10000000
00000000
10000000
00000000
,
00010000
00000000
00010000
00000000
,
01000000
00000000
01000000
00000000
,
00001000
00000000
00001000
00000000
,
00010000
00000000
00010000
00000000
,
00000100
00000000
00000100
00000000
,
00001000
00000000
00001000
00000000
,
00000001
00000000
00000001
00000000
,
00000010
00000000
00000010
00000000
,
00000200
00000000
00000300
00000000
,
00020000
00000000
00030000
00000000
,
00002000
00000000
00003000
00000000
,
00200000
00000000
00300000
00000000
,
00020000
00000000
00030000
00000000
,
02000000
00000000
03000000
00000000
,
00200000
00000000
00300000
00000000
,
20000000
00000000
30000000
00000000
,
00020000
00000000
00000000
00030000
,
00100000
00000000
00100000
00000000
,
00100000
00000000
00100000
00000000
,
00010000
00000000
00010000
00000000
,
00010000
00000000
00010000
00000000
,
01000000
00000000
01000000
00000000
,
01000000
00000000
01000000
00000000
,
00001000
00000000
00001000
00000000
,
00001000
00000000
00001000
00000000
,
00010000
00000000
00010000
00000000
,
00010000
00000000
00010000
00000000
,
00000010
00000000
00000010
00000000
,
00000010
00000000
00000010
00000000
,
00000100
00000000
00000100
00000000
,
00000100
00000000
00000100
00000000
,
00000001
00000000
00000001
00000000
,
00000001
00000000
00000001
00000000
,
00000101
00000000
00000000
00000000
,
00001000
00000000
00001000
00000000
,
00000101
00000000
00000000
00000000
,
00001000
00000000
00001000
00000000
,
00000011
00000000
00000000
00000000
,
00001000
00000000
00001000
00000000
,
00000101
00000000
00000000
00000000
,
00001000
00000000
00001000
00000000
,
00000010
00000000
00000000
00000000
,
00010000
00000000
00000000
00000000
,
00001000
00000000
00000000
00000000
,
01000000
00000000
00010000
00000000
,
10000000
00000000
00000000
00000000
,
00100000
00000000
00000000
00000000
,
01000000
00000000
00000000
00000000
,
00010000
00000000
10000000
00000000
,
00100000
00000000
00000000
00000000
,
01000000
00000000
00000000
00000000
,
00010000
00000000
00000000
00000000
,
10000000
00000000
01000000
00000000
,
00100000
00000000
00000000
00000000
,
00001000
00000000
00000000
00000000
,
00010000
00000000
00000000
00000000
,
00000010
00000000
00001000
00000000
,
00001100
00000000
00000000
00000000
;

//---------------dance-double - [FG v1.00] NAOKI----------------
#NOTES:
     dance-double:
     [FG v1.00] NAOKI:
     Easy:
     5:
     0.241000,0.312000,0.155000,0.104000,0.000000:
00000000
00000000
00000000
00000000
,
00000000
00000000
00000000
00000000
,
00000000
00000000
00000000
00000000
,
00000000
00000000
00000000
00000000
,
00000000
00000000
00000000
00000000
,
00010000
00010000
00001000
00000000
,
00000010
00000010
00001000
00000000
,
00010000
00010000
00001000
00000000
,
01000000
00001000
00100000
01000000
,
10000000
10000000
00100000
00000000
,
00010000
00010000
01000000
00000000
,
00001000
00001000
01000000
00000000
,
00100000
01000000
00001000
00010000
,
00010010
00000010
00000100
00000000
,
00001000
00001000
00000001
00000000
,
00000100
00000100
00000001
00000000
,
00001000
00000100
00010000
00001000
,
00101000
00100000
01000000
00000000
,
00010000
00010000
10000000
00000000
,
01000000
01000000
10000000
00000000
,
00010000
00010000
00100000
00100000
,
00210000
00000000
00300000
00000000
,
00002000
00000000
00003000
00000000
,
00020000
00000000
00030000
00000000
,
00000200
00000000
00000320
00000000
,
00000032
00000000
00000003
00000000
,
00000200
00000000
00000300
00000000
,
00000020
00000000
00000030
00000000
,
00020000
00000000
00030200
00000000
,
00002000
00000000
00000000
00003300
,
00000001
00001010
00001000
00000100
,
00010000
00000100
00000000
00000100
,
00010000
00000011
00000001
00001000
,
00000100
00001000
00000000
00001000
,
00000100
00010010
00010000
00001000
,
01000000
00001000
00000000
00001000
,
01000000
00110000
00010000
10000000
,
01000000
10000000
00000000
10000000
,
01000000
00110000
00100000
00001000
,
01000000
00001000
00000000
00001000
,
01000000
00010010
00000010
00000100
,
00000001
00000100
00000000
00000100
,
00000001
00010010
00010000
00001000
,
00100000
00001000
00000000
00001000
,
00100000
11000000
01000000
00100000
,
00210000
00010000
00010000
00310000
,
01000000
00001000
00001000
00000000
,
00010000
00001000
00011000
00000000
,
00000100
00000010
00000010
00000000
,
00000001
00000010
00000011
00000000
,
00000100
00000001
00000001
00000000
,
00001000
00000100
00010100
00000000
,
00000100
00010000
00010000
00000000
,
00001000
01000000
01010000
00000000
,
00010000
10000000
00000000
10000000
,
00100000
01000000
00000000
01000000
,
00001000
00010000
00000000
00010000
,
00000100
00001000
00000000
00001000
,
00001010
00000010
00000000
00000010
,
00010000
00001000
00000000
00001000
,
00100000
00010000
00000000
00010000
,
01000000
00001000
00000000
00001000
,
00101000
00100000
00000000
00100000
,
01000000
10000000
00000000
10000000
,
00010000
01000000
00000000
01000000
,
00001000
00010000
00000000
00010000
,
00010100
00000100
00000000
00000100
,
00000010
00000001
00000000
00000001
,
00001000
00000100
00000000
00000100
,
00010000
00001000
00000000
01001000
,
20200000
30300000
00000000
00000000
;

//---------------dance-double - [FG v1.00] NAOKI----------------
#NOTES:
     dance-double:
     [FG v1.00] NAOKI:
     Medium:
     9:
     0.410000,0.442000,0.370000,0.207000,0.015000:
00000000
00000000
00000000
00000000
,
00000000
00000000
00000000
00000000
,
00000000
00000000
00000000
00000000
,
00000000
00000000
00000000
00000000
,
00000000
00000000
00000000
00000000
,
00000100
00000000
00001100
00000000
00001000
00000001
00000100
00000000
,
00000010
00000000
00010010
00000000
00010000
00001000
00100000
00000000
,
01000000
00000000
11000000
00000000
00100000
00001000
01000000
00000000
,
00010000
00000000
01010000
00000000
10000000
00010000
00100000
00001000
,
00010000
00000000
00010000
00000000
00000010
00000100
00000001
00000000
,
00001000
00000000
00001000
00000000
00000010
00010000
00001000
00000000
,
01000000
00000000
01000000
00000000
00010000
00100000
00001000
00000000
,
00200000
01300000
00020000
01030000
,
10000000
00000000
00101000
00000000
00001000
00010000
00000010
00000000
,
00010000
00000000
00000101
00000000
00000100
00000010
00010000
00000000
,
00000100
00000000
00001100
00000000
00000001
00001000
00000100
00000000
,
00001000
00000000
00001010
00000000
00010000
00000010
00001000
00000100
,
00010000
00000000
00011000
00000000
00100000
01000000
10000000
00000000
,
00100000
00000000
10010000
00000000
10000000
00010000
00100000
00000000
,
00001000
00000000
01100000
00000000
00001000
00010000
00000010
00000000
,
00000100
00000000
00001010
00000000
00010000
00001000
00100000
00010000
,
02000000
00000000
00002000
03000000
,
00020000
00003000
00000200
00030000
,
00002000
00000300
00000002
00003000
,
00000200
00000003
00000310
00001000
,
00000020
00000000
00020000
00000030
,
00002000
00030000
02000000
00003000
,
00200000
03000000
20000000
00300000
,
00020000
30000000
01030000
00001000
,
02002000
00000000
00000000
03003000
,
00010100
00000000
00000011
00000000
00000010
00000100
00000001
00000000
,
00000100
00001000
00000020
00000000
00000001
00000000
00001030
00000000
,
00010010
00000000
00001001
00000000
00000001
00000100
00001000
00000000
,
00000100
00000001
00000020
00000000
00001000
00000000
00000031
00000000
,
00000110
00000000
00001001
00000000
00001000
00000010
00000001
00000000
,
00000010
00001000
00000200
00000000
00000001
00000000
00001300
00000000
,
00010100
00000000
00001010
00000000
00010000
00001000
00010000
00000000
,
00021000
00000000
00001000
00031000
00000000
00100000
01000000
00000000
,
11000000
00000000
01010000
00000000
01000000
00100000
00010000
00000000
,
00100000
10000000
01000000
00000000
00010000
01000000
00100000
00000000
,
01100000
00000000
10010000
00000000
00010000
00100000
10000000
00000000
,
00100000
00010000
01000000
00000000
10000000
01000000
00010000
00000000
,
10010000
00000000
00101000
00000000
00100000
01000000
00010000
00000000
,
01000000
10000000
00100000
00000000
00010000
00100000
10000000
00000000
,
10100000
00000000
01001000
00000000
00001000
00010000
00100000
00000000
,
00011000
00001100
00011000
00001100
,
00001010
00000000
00000010
00000100
00000000
00001000
00000100
00000000
,
00000010
00000000
00010000
00000000
00000000
00010000
00000000
00000000
00010000
00000000
00000100
00000000
00000000
00000000
00000000
00000000
,
00101000
00000000
00100000
01000000
00000000
00010000
01000000
00000000
,
00100000
00000000
00001000
00000000
00000000
00001000
00000000
00000000
00001000
00000000
01000000
00000000
00000000
00000000
00000000
00000000
,
00010100
00000000
00000100
00000010
00000000
00001000
00000010
00000000
,
00000100
00000000
00010000
00000000
00000000
00010000
00000000
00000000
00010000
00000000
00001000
00000000
00000000
00000000
00000000
00000000
,
01010000
00000000
01000000
00100000
00000000
00010000
00100000
00000000
,
10000000
00000000
00010000
00000000
00000000
00010000
00000000
00000000
00010000
00000000
01000000
00000000
00001000
00000000
00010000
00000000
,
00000100
00000000
00001100
00000000
00010000
00001000
00000010
00000000
,
00001000
00000000
00011000
00000000
00000010
00000100
00001000
00000000
,
00000100
00000000
00000110
00000000
00000001
00000010
00001000
00000000
,
00000010
00000000
00000011
00000000
00001000
00000100
00010000
00000010
,
00001000
00000000
00000011
00000000
00000100
00010000
00001000
00000000
,
00000010
00000000
00011000
00000000
01000000
00010000
00100000
00000000
,
00010000
00000000
11000000
00000000
00001000
10000000
00010000
00000000
,
00020000
00000000
01000000
00000000
01030000
00001000
00010000
00000010
,
00001000
00000000
00000101
00000000
00001000
00010000
00000100
00000000
,
00001000
00000000
00000101
00000000
00001000
00010000
00000100
00000000
,
00000010
00000000
00011000
00000000
00000100
00001000
00010000
00000000
,
00000100
00000000
00011000
00000000
00000100
00010000
00001000
01000000
,
00020000
00000000
01000000
00000000
01030000
00001000
00100000
00000000
,
00200000
00000000
00010000
00000000
00310000
01000000
00100000
00000000
,
20000000
00000000
01000000
00000000
31000000
00100000
00010000
00000000
,
10000000
00000000
10000000
00000000
01000000
00100000
00010000
01000000
,
00022000
00033000
00000000
00000000
;

//---------------dance-double - [FG v1.00] NAOKI----------------
#NOTES:
     dance-double:
     [FG v1.00] NAOKI:
     Hard:
     12:
     0.576000,0.546000,0.518000,0.333000,0.230000:
00000000
00000000
00000000
00000000
,
00000000
00000000
00000000
00000000
,
00000000
00000000
00000000
00000000
,
00000000
00000000
00000000
00000000
,
00000000
00000000
00000000
00000000
,
01001000
00000000
00000000
01000000
00010000
00000000
00100000
00000000
00001000
00000000
00010000
00000000
00010000
00000000
00000000
00000000
,
02001000
00000000
00000000
03010000
00100000
00000000
00001000
00000000
00010000
00000000
00000100
00000000
00001000
00000000
00000000
00000000
,
00000110
00000000
00000000
00000100
00010000
00000000
00000010
00000000
00001000
00000000
00000001
00000000
00000001
00000000
00000000
00000000
,
00001200
00000000
00000000
00000310
00000001
00000000
00000100
00000000
00000010
00000000
00010000
00000000
00001000
00000000
00100000
00000000
,
10010000
00000000
00000000
10000000
01000000
00000000
00100000
00000000
00010000
00000000
01000000
00000000
00001000
00000000
00000000
00000000
,
00020010
00000000
00000000
00031000
01000000
00000000
00100000
00000000
10000000
00000000
00010000
00000000
01000000
00000000
00000000
00000000
,
10010000
00000000
00000000
00010000
00100000
00000000
00001000
00000000
00010000
00000000
00000100
00000000
00001000
00000000
00000000
00000000
,
00000202
00000000
00000003
00000000
00000301
00001000
00000010
00000000
,
00001010
00000000
00001000
00000100
00010000
00000000
00001000
00000000
01000000
00000000
00100000
00000000
10000000
00000000
00000000
00000000
,
10010000
00000000
00010000
01000000
00001000
00000000
00100000
00000000
00010000
00000000
01000000
00000000
00001000
00000000
00000000
00000000
,
00100000
00000000
00010000
01000000
00001000
00000000
00010000
00000000
00000010
00000000
00001000
00000000
00000100
00000000
00000000
00000000
,
00010000
00000000
00001000
01000000
00010000
00000000
00100000
00000000
00001000
00000000
01000000
00000000
00100000
00000000
10000000
00000000
,
10010000
00000000
00010000
00100000
00001000
00000000
00010000
00000000
00000010
00000000
00000100
00000000
00000001
00000000
00000000
00000000
,
00001001
00000000
00001000
00000100
00010000
00000000
00000010
00000000
00000100
00000000
00000001
00000000
00000010
00000000
00000000
00000000
,
00000100
00000000
00001000
00000010
00010000
00000000
00001000
00000000
00100000
00000000
01000000
00000000
10000000
00000000
00000000
00000000
,
00010000
00000000
01000000
00001000
01000000
00000000
00001000
00000000
00010000
00000000
00000010
00000000
00000100
00000000
00000001
00000000
,
00002000
00000000
00000100
00000000
00000000
00000010
00000000
00000000
00000100
00000000
00000000
00003010
00000000
00000000
00010000
00000000
,
00000200
00000000
00001000
00000000
00000000
00010000
00000000
00000000
00001000
00000000
00000000
00000310
00000000
00000000
00000001
00000000
,
00000020
00000000
00001000
00000000
00000000
00000130
00000000
00000000
00010000
00000000
00000000
00010000
00000000
00000000
00010000
00000000
,
00002000
00000000
00000100
00000000
00000000
00013000
00000000
00000000
00001000
00000000
00010000
00000000
00000100
00000000
00001000
00000000
,
00000020
00000000
00000100
00000000
00000000
00010000
00000000
00000000
00000100
00000000
00000000
00001030
00000000
00000000
00000100
00000000
,
00000020
00000000
00000001
00000000
00000000
00000100
00000000
00000000
00000001
00000000
00000000
00000130
00000000
00000000
00001000
00000000
,
00000200
00000000
00000001
00000000
00000000
00001300
00000000
00000000
00000001
00000000
00000000
00000001
00000000
00000000
00000001
00000000
,
00000200
00000000
00001000
00000000
00000000
00000310
00000000
00000000
00000100
00000000
00000010
00000000
00010000
00000000
00001000
00000000
,
02020000
00000000
00000000
03030000
,
01100000
00000000
11000000
00000000
00100000
01000000
00010000
00000000
,
00100000
01000000
00000000
10000000
00010000
00000000
01000000
00000000
00001000
00000000
00010000
00000000
00100000
00000000
00000000
00000000
,
01010000
00000000
00011000
00000000
01000000
00010000
00100000
00000000
,
00001000
01000000
00000000
00100000
10000000
00000000
00010000
00000000
00100000
00000000
00001000
00000000
01000000
00000000
00010000
00000000
,
10100000
00000000
00110000
00000000
00001000
01000000
00010000
00000000
,
00100000
00001000
00000000
00010000
00000010
00000000
00001000
00000000
00000100
00000000
00000010
00000000
00001000
00000000
00000000
00000000
,
00010100
00000000
00001010
00000000
00010000
00001000
00100000
00000000
,
21000000
00000000
30010000
01020000
00000000
01030000
00001000
00000000
,
00011000
00000000
00001100
00000000
00000010
00010000
00001000
00000000
,
01000000
00100000
00000000
10000000
00010000
00000000
00100000
00000000
00001000
00000000
00010000
00000000
01000000
00000000
00000000
00000000
,
01001000
00000000
10100000
00000000
01000000
00001000
00010000
00000000
,
00000010
00000100
00000000
00000001
00001000
00000000
00000010
00000000
00010000
00000000
00001000
00000000
00100000
00000000
00010000
00000000
,
11000000
00000000
01010000
00000000
00001000
00100000
00010000
00000000
,
01000000
00001000
00000000
00010000
00000100
00000000
00001000
00000000
00000010
00000000
00000100
00000000
00001000
00000000
00000000
00000000
,
00010010
00000000
00000101
00000000
00001000
00000010
00010000
00000000
,
00101000
00010100
00101000
00011000
,
10200000
00000000
00000000
00310000
00000000
00000000
10100000
00000000
00000000
00000000
00100000
00000000
01000000
00000000
00001000
00000000
,
00010000
00000000
00000010
00000100
00000000
00000010
00000100
00000000
00000001
00000000
00001100
00000000
00010000
00000000
00000000
00000000
,
00010200
00000000
00000000
00000310
00000000
00000000
00001010
00000000
00000000
00000000
00001000
00000000
00000001
00000000
00000010
00000000
,
00000100
00000000
00010000
00001000
00000000
00010000
00001000
00000000
01000000
00000000
10100000
00000000
00010000
00000000
00000000
00000000
,
12000000
00000000
00000000
03010000
00000000
00000000
01001000
00000000
00000000
00000000
00001000
00000000
00100000
00000000
00010000
00000000
,
01000000
00000000
00001000
00010000
00000000
00001000
00010000
00000000
00000010
00000000
00001100
00000000
00010000
00000000
00000000
00000000
,
00010200
00000000
00000000
00001300
00000000
00000000
00000101
00000000
00000000
00000000
00000100
00000000
00000010
00000000
00010000
00000000
,
00001000
00000000
01000000
00100000
00000000
01000000
00100000
00000000
10000000
00000000
01010000
00000000
00001000
00000000
00000000
00000000
,
01001000
00000000
01000000
00010000
00000000
00000000
10020000
00000000
00000000
00000000
01030000
00000000
00002000
00000000
00000000
00003000
,
00100000
00000000
00001000
00010000
00000000
00000000
00010200
00000000
00000000
00000000
00000310
00000000
00000001
00000000
00001000
00000000
,
00000010
00000000
00001000
00000001
00000000
00000000
00000021
00000000
00000000
00000000
00000130
00000000
00002000
00000000
00000000
00003000
,
00000010
00000000
00001000
00000100
00000000
00000000
00020100
00000000
00000000
00000000
00031000
00000000
00100000
00000000
00010000
00000000
,
01000000
00000000
00010000
10000000
00000000
00000000
12000000
00000000
00000000
00000000
03100000
00000000
00020000
00000000
00000000
00030000
,
01000000
00000000
00010000
00100000
00000000
00000000
00102000
00000000
00000000
00000000
00013000
00000000
00000010
00000000
00001000
00000000
,
00000001
00000000
00001000
00000100
00000000
00000000
00000120
00000000
00000000
00000000
00000031
00000000
00002000
00000000
00000000
00003000
,
00000010
00000000
00001000
00000100
00000000
00000000
00000110
00000000
00000000
00000000
00010000
00000000
00001000
00000000
01000000
00000000
,
01001000
00000000
00001000
00000000
00010000
00000000
00020010
00000000
00000000
00000000
00031000
00000000
00200000
00000000
00000000
00300000
,
00010000
10000000
00100000
01020000
00000000
10030000
10000000
01000000
,
01100000
00000000
00100000
00000000
00010000
00000000
01020000
00000000
00000000
00000000
00130000
00000000
00002000
00000000
00000000
00003000
,
00010000
00000100
00001000
00021000
00000000
00030100
00010000
00001000
,
00011000
00000000
00010000
00000000
00000100
00000000
00000210
00000000
00000000
00000000
00001300
00000000
00000002
00000000
00000000
00000003
,
00000010
00000100
00001000
00000021
00000000
00000130
00000100
00010000
,
00011000
00000000
00001000
00000000
01000000
00000000
02010000
00000000
00000000
00000000
03100000
00000000
20000000
00000000
00000000
30000000
,
01000000
00000000
00000000
01100000
00000000
00000000
00011000
00000000
00000000
00000000
00000010
00000000
00001000
00000000
00000001
00000000
,
00020200
00030300
00000000
00000000
;

//---------------dance-double - [FG v1.00] NAOKI----------------
#NOTES:
     dance-double:
     [FG v1.00] NAOKI:
     Challenge:
     15:
     0.424000,0.442000,0.429000,0.244000,0.130000:
00000000
00000000
00000000
00000000
,
00000000
00000000
00000000
00000000
,
00000000
00000000
00000000
00000000
,
00000000
00000000
00000000
00000000
,
00000000
00000000
00000000
00000000
,
01000000
00000000
00001000
00010000
00000000
00000100
00001000
00000100
00010000
00000000
00001000
00100000
00000000
01000000
10000000
00000000
,
00010000
00000000
01000000
00100000
00000000
10000000
00010000
00100000
00001000
00000000
00010000
00000010
00002000
00000000
00003100
00000010
,
00000001
00000000
00001000
00000100
00000000
00010000
00000010
00001000
00000001
00000000
00000010
00000100
00000000
00010000
00001000
00000000
,
00100000
00000000
00010000
01000000
00000000
00001000
00010000
00000000
00000010
00000100
00000001
00001000
00000100
00010000
00001000
01000000
,
00010000
00000000
10000000
00100000
00000000
01000000
00010000
01000000
00001000
00000000
00100000
00010000
00000000
01000000
00001000
00000000
,
00010000
00000000
00000010
00000100
00000000
00000001
00001000
00000010
00010000
00000000
00001000
00100000
00020000
00000000
01030000
00100000
,
10000000
00000000
00010000
00100000
00000000
00001000
00010000
00000100
00001000
00000000
00000001
00000010
00000000
00000100
00001000
00000000
,
00000010
00000000
00010000
00000000
00001000
01000000
00000000
00010000
10000000
00000000
10000000
00100000
00000000
01000000
00001000
00000000
,
00010000
00000100
00001000
00000001
00000100
00000010
00000001
00000010
00000200
00000000
00000310
00000000
00010000
00001000
01000000
00000000
,
00100000
00000000
01000000
00000000
00010000
00000000
10000000
00000000
00100000
00000000
01000000
00000000
10000000
00000000
01000000
00000000
00200000
00000000
00000000
00000000
20300000
00000000
00000000
00000000
32000000
00000000
00000000
03000000
00010000
00000000
01000000
00000000
,
00100000
00000000
00001000
00010000
00000000
00000100
00010000
00000100
00001000
00000000
00000010
00010000
00000000
00001000
00100000
00000000
,
00010000
00000000
01000000
00001000
00000000
00010000
00000100
00000000
00001000
00000010
00010000
00001000
00100000
00010000
10000000
00100000
,
01000000
00000000
00001000
00010000
00000000
00000100
00001000
00000100
00010000
00000000
00000010
00001000
00000000
00000100
00001000
00000100
,
00010000
00000000
00000000
00000000
00001000
00000000
00100000
00000000
00000000
00000000
00010000
00000000
01000000
00000000
00001000
00000000
00020000
00000000
00000000
00000000
00030020
00000000
00000000
00000000
00000230
00000000
00000000
00000300
00001000
00000000
00000100
00000000
,
00000010
00000000
00010000
00001000
00000000
01000000
00001000
01000000
00010000
00000000
10000000
00100000
00000000
01000000
00001000
00010000
,
00000010
00000000
00001000
00000001
00000000
00001000
00000010
00010000
00001000
00100000
00010000
00100000
00001000
00010000
00000100
00001000
,
00000001
00000000
00000200
0000M000
00000300
00000020
000M0000
00000030
00002000
00000M00
00003000
00000200
0000000M
00000300
0000M001
00000000
,
00000100
00001000
00000001
00000000
00000100
00000010
00000000
00000001
00000010
00000000
00000100
00001000
00000000
00000100
00000010
00000000
,
00010000
00000000
00002000
0000000M
00003000
00200000
000000M0
00300000
00020000
0000M000
00030000
02000000
000000M0
03000000
100M0000
00000000
,
01000000
00100000
10000000
00000000
00010000
01000000
00000000
00100000
10000000
00010000
01000000
00001000
00010000
00000010
00001000
00000001
,
00000100
00000010
00001000
00000000
00000200
00001000
00000300
00020000
00000010
00030000
00002000
01000000
00003000
01000000
00010000
00000000
,
10000000
00100000
01000000
00000000
00010000
00100000
00000000
10000000
00100000
00000000
01000000
00010000
00000000
01000000
00100000
00000000
,
00001000
01000000
00010000
00000000
02000000
00010000
03000000
00002000
00010000
00003000
02000000
00010000
03000000
00010000
00100000
00000000
,
00001000
01000000
00010000
00000000
00100000
01000000
00000000
10000000
00010000
01000000
00001000
00010000
00000100
00001000
00000001
00000010
,
00000200
00000000
00000000
00000000
00000000
00000000
00000000
00000000
00000000
00000000
00000000
00000000
00000000
00000000
00000000
00000000
0000M000
00000000
00000000
00000000
00000000
00000000
00000000
00000000
0000M000
00000000
00000000
00000000
00000000
00000000
00000000
00000000
0000M000
00000000
00000000
00000000
00000000
00000000
00000000
00000000
0000M000
00000000
00000000
00000000
00000000
00000000
00000000
00000000
0001M300
00000000
00000000
00000000
0000000M
00000000
0001000M
00000000
0000000M
0000000M
0000000M
0000000M
0001000M
0000000M
0000000M
0000000M
,
00000010
00001000
00000000
00000001
00000020
00000000
00000130
00001000
00000001
00000100
00000000
00001000
00000400
00000300
00000001
00000001
,
00001000
00000100
00000000
00000001
00000100
00000000
00001000
00000010
00010000
00001000
00000000
00100000
01000000
00000000
10000000
00010000
,
01000000
00001000
00000000
00010000
00000020
00000000
00001030
00000001
00000010
00000100
00000000
00000001
00000400
00000300
00001000
00001000
,
00000001
00000100
00000000
00001000
00000100
00000000
00000001
00001000
00000010
00010000
00001000
00100000
00010000
10000000
00100000
01000000
,
00010000
10000000
00000000
00100000
02000000
00000000
03010000
00100000
00001000
00010000
00000000
01000000
00040000
00030000
00001000
00001000
,
00100000
00010000
00000000
01000000
10000000
00000000
01000000
00100000
10000000
00010000
00000000
00100000
01000000
00000000
10000000
00010000
,
01000000
00001000
00000000
00100000
02000000
00000000
13000000
00010000
01000000
00001000
00000000
00010000
00400000
00300000
00010000
00010000
,
00001000
01000000
00000000
00100000
10000000
00000000
10010000
00000000
00010000
01000000
00001000
00010000
00000100
00001000
00000001
00000010
,
00000100
00000000
00001000
00000000
00000000
00000000
00000010
00000000
00000200
00000000
00000000
00000000
00000301
00000000
00001000
00000000
00000010
00000000
00010000
00000000
00000000
00000000
00001000
00000000
01000000
00000000
00010000
0M0000M0
00010000
00000000
00001000
00000000
,
00100000
00010000
00000000
00100000
00001000
00000000
00010000
00000010
00001000
00000001
00000000
00000100
00000010
00000000
00010000
00000100
,
00001000
00000000
00000001
00000000
00000000
00000000
00000010
00000000
00000200
00000000
00000000
00000000
00001300
00000000
00000010
00000000
00000100
00000000
00001000
00000000
00000000
00000000
00000100
00000000
00000010
00000000
00001000
000000MM
00001000
00000000
00010000
00000000
,
00000100
00001000
00000000
00000010
00010000
00000000
00000100
00000010
00000001
00001000
00000010
00010000
00001000
01000000
00010000
10000000
,
00100000
00000000
01000000
00000000
00000000
00000000
00001000
00000000
00200000
00000000
00000000
00000000
01300000
00000000
10000000
00000000
00010000
00000000
01000000
00000000
00000000
00000000
00001000
00000000
00100000
00000000
00010000
0MM00000
00010000
00000000
00001000
00000000
,
01000000
00010000
00000000
00100000
00001000
00000000
00010000
00000100
00001000
00000001
00000000
00000100
00000010
00000000
00001000
00000100
,
00010000
00000000
00001000
00000000
00000000
00000000
00100000
00000000
00020000
00000000
00000000
00000000
01030000
00000000
00100000
00000000
10000000
00000000
00010000
00000000
00000000
00000000
00100000
00000000
00001000
00000000
00010000
M000M000
00010000
00000000
01000000
00000000
,
02100000
00000000
00000000
00000000
00000000
00000000
00000000
00000000
03000000
00000000
00000000
00000000
00100000
00000000
00000000
00000000
01200000
00000000
00000000
00000000
00000000
00000000
00000000
00000000
01300000
00000000
00000000
00000000
00000000
00000000
00000000
00000000
00002000
00000000
00000000
00000000
00203000
00000000
00000000
00000000
00320000
00000000
00000000
00000000
02030000
00000000
00000000
00000000
03002000
00000000
00000000
00000000
00023000
00000000
00000000
00000000
00030040
00000030
00004000
00003000
00000040
00000030
00004000
00003000
,
00000040
00000030
00000000
00000000
00000000
00000000
00000000
00000000
00010000
00000000
00000000
00000000
00001000
00000000
00000000
00000000
00000000
00000000
00000000
00000000
00010000
00000000
00000000
00000000
00000100
00000000
00000000
00000000
00001000
00000000
00000000
00000000
00000001
00000000
00000000
00000000
00000000
00000000
00000000
00000000
00000040
00000000
00000000
00000000
00001030
00000000
00000000
00000000
00000000
00000000
00000000
00000000
00000010
00000000
00000000
00000000
00000100
00000000
00000000
00000000
00001000
00000000
00000000
00000000
,
00000001
00000000
00000100
00002000
00003000
00000100
00000020
00000030
00010000
00000000
00010100
00000000
00000100
00000000
00001000
00000010
,
00010000
00000000
00001000
00010000
00000000
00001000
01000000
00010000
10000000
00000000
04000000
03010000
00000000
01000000
00100000
00010000
,
10000000
00000000
00100000
00020000
00030000
00100000
02000000
03000000
00001000
00100000
00010000
00100000
00001000
00010000
00000100
00001000
,
00000001
00000000
00000100
00000010
00000000
00000100
00000001
00001000
00000010
00000000
00000400
00001300
00000000
00000100
00000001
00001000
,
00000100
00000000
00000010
00002000
00003000
00000010
00000200
00000300
00010000
00000000
00010010
00000000
00000010
00000000
00001000
00000100
,
00010000
00000000
00001000
00010000
00000000
00001000
01000000
00010000
10000000
00000000
00400000
00310000
00000000
00100000
10000000
00010000
,
00100000
00000000
01000000
00020000
00030000
01000000
20000000
30000000
00010000
01000000
00001000
00010000
00000100
00001000
00000001
00000010
,
00000200
00000000
00000300
00001000
00000100
00000000
00010000
00000000
00000010
00000000
00001000
00000000
00000200
00000000
00000300
00000000
,
00000002
00000000
00000003
00000100
00001000
00000000
00000010
00000000
00010000
00000000
00001000
00000000
02000000
00000000
03010000
00000000
,
00200000
00000000
00300000
10000000
00100000
00000000
00010000
00000000
01000000
00000000
00001000
00000000
00020000
00000000
00030000
00000000
,
00200000
00000000
00300000
00010000
00001000
00000000
00100000
00000000
00010000
00000000
01000000
00000000
00001000
00000000
00010000
00000000
,
00000020
00000000
00000030
00001000
00000100
00000000
00010000
00000000
00001000
00000000
01000000
00000000
00200000
00000000
00300000
00000000
,
00020000
00000000
00030000
00100000
01000000
00000000
00001000
00000000
00010000
00000000
00000100
00000000
00002000
00000000
00003010
00000000
,
00000200
00000000
00000300
00001000
00000100
00000000
00000010
00000000
00001000
00000000
00000001
00000000
00000020
00000000
00000030
00000000
,
00002000
00000000
00003000
00000010
00000001
00000000
00001000
00000000
00000000
00000000
00000010
00000000
00010000
00000000
00000100
00000000
,
00000020
00000000
00000000
00000000
00000000
00000000
00000000
00000000
00000030
00000000
00000000
00000000
00000001
00000000
00000000
00000000
00001000
00000000
00000000
00000000
00000000
00000100
00000000
00000000
00020000
00000000
00000000
00000000
00000000
00030000
00000000
00000000
00001000
00000000
00000000
00000000
00000000
01000000
00000000
00000000
00010000
00000000
00000000
00000000
00000000
00000000
00000000
00000000
20000000
00000000
00000000
00000000
00000000
30100000
00000000
00000000
01000000
00000000
00000000
00000000
00000000
00000000
00000000
00000000
,
00001000
00000000
00000000
00000000
00000000
00000000
00000000
00000000
00000000
00000000
00000000
00000000
00000000
00000000
00000000
00010000
00000000
00000000
00000000
00000000
00000000
00000000
00000000
00000000
00000100
00000000
00000000
00000000
00000000
00000000
00000000
00000000
00000000
00000000
00000000
00000000
00001000
00000000
00000000
00000000
00000000
00000000
00000000
00000000
00000000
00000000
00000000
00000000
00000010
00000000
00000000
00000000
00000000
00000000
00000000
00000000
00000000
00000000
00000000
00000000
00000000
00000000
00000000
00000100
00000000
00000000
00000000
00000000
00000000
00000000
00000000
00000000
00002000
00000000
00000000
00000000
00000000
00000000
00000000
00000000
00000000
00000000
00000000
00000000
00000000
00000000
00000000
00000000
00003000
00000000
00000000
00000000
00000000
00000000
00000000
00000000
00000100
00000000
00000000
00000000
00000000
00000000
00000000
00000000
00000000
00000000
00000000
00000000
00000000
00000000
00000000
00000001
00000000
00000000
00000000
00000000
00000000
00000000
00000000
00000000
00001000
00000000
00000000
00000000
00000000
00000000
00000000
00000000
00000000
00000000
00000000
00000000
00000000
00000000
00000000
00000000
00000000
00000000
00000000
00000000
00000000
00000000
00000000
00000000
00000200
00000000
00000000
00000000
00000000
00000000
00000000
00000000
00000000
00000000
00000000
00000000
00000000
00000000
00000000
00000310
00000000
00000000
00000000
00000000
00000000
00000000
00000000
00000000
00000001
00000000
00000000
00000000
00000000
00000000
00000000
00000000
00000000
00000000
00000000
00000000
00000000
00000000
00000000
00000000
00000000
00000000
00000000
00000000
00000000
00000000
00000000
00000000
,
00000010
00000000
00000000
00000000
00000000
00000000
00000000
00000000
00000000
00000000
00000000
00000000
00000000
00000000
00000000
00000100
00000000
00000000
00000000
00000000
00000000
00000000
00000000
00000000
00001000
00000000
00000000
00000000
00000000
00000000
00000000
00000000
00000000
00000000
00000000
00000000
00000001
00000000
00000000
00000000
00000000
00000000
00000000
00000000
00000000
00000000
00000000
00000000
00000100
00000000
00000000
00000000
00000000
00000000
00000000
00000000
00000000
00000000
00000000
00000000
00000000
00000000
00000000
00000010
00000000
00000000
00000000
00000000
00000000
00000000
00000000
00000000
00000002
00000000
00000000
00000000
00000000
00000000
00000000
00000000
00000000
00000000
00000000
00000000
00000000
00000000
00000000
00000000
00000003
00000000
00000000
00000000
00000000
00000000
00000000
00000000
00000010
00000000
00000000
00000000
00000000
00000000
00000000
00000000
00000000
00000000
00000000
00000000
00000000
00000000
00000000
00000100
00000000
00000000
00000000
00000000
00000000
00000000
00000000
00000000
00000001
00000000
00000000
00000000
00000000
00000000
00000000
00000000
00000000
00000000
00000000
00000000
00000000
00000000
00000000
00000000
00000000
00000000
00000000
00000000
00000000
00000000
00000000
00000000
00002000
00000000
00000000
00000000
00000000
00000000
00000000
00000000
00000000
00000000
00000000
00000000
00000000
00000000
00000000
00003100
00000000
00000000
00000000
00000000
00000000
00000000
00000000
00000000
00000010
00000000
00000000
00000000
00000000
00000000
00000000
00000000
00000000
00000000
00000000
00000000
00000000
00000000
00000000
00000000
00000000
00000000
00000000
00000000
00000000
00000000
00000000
00000000
,
00000001
00000000
00000000
00000000
00000000
00000000
00000000
00000000
00000000
00000000
00000000
00000000
00000000
00000000
00000000
00001000
00000000
00000000
00000000
00000000
00000000
00000000
00000000
00000000
00000010
00000000
00000000
00000000
00000000
00000000
00000000
00000000
00000000
00000000
00000000
00000000
00010000
00000000
00000000
00000000
00000000
00000000
00000000
00000000
00000000
00000000
00000000
00000000
00000100
00000000
00000000
00000000
00000000
00000000
00000000
00000000
00000000
00000000
00000000
00000000
00000000
00000000
00000000
00000010
00000000
00000000
00000000
00000000
00000000
00000000
00000000
00000000
00002000
00000000
00000000
00000000
00000000
00000000
00000000
00000000
00000000
00000000
00000000
00000000
00000000
00000000
00000000
00000000
00003000
00000000
00000000
00000000
00000000
00000000
00000000
00000000
00000010
00000000
00000000
00000000
00000000
00000000
00000000
00000000
00000000
00000000
00000000
00000000
00000000
00000000
00000000
00000100
00000000
00000000
00000000
00000000
00000000
00000000
00000000
00000000
00001000
00000000
00000000
00000000
00000000
00000000
00000000
00000000
00000000
00000000
00000000
00000000
00000000
00000000
00000000
00000000
00000000
00000000
00000000
00000000
00000000
00000000
00000000
00000000
00000010
00000000
00000000
00000000
00000000
00000000
00000000
00000000
00000000
00000000
00000000
00000000
00000000
00000000
00000000
00000000
00000000
00000000
00000000
00000000
00000000
00000000
00000000
00000000
00000100
00000000
00000000
00000000
00000000
00000000
00000000
00000000
00000000
00000000
00000000
00000000
00000000
00000000
00000000
00000000
00000000
00000000
00000000
00000000
00000000
00000000
00000000
00000000
,
00000001
00000000
00000000
00000000
00000000
00000000
00000000
00000000
00000000
00000000
00000000
00000000
00000000
00000000
00000000
00001000
00000000
00000000
00000000
00000000
00000000
00000000
00000000
00000000
00000100
00000000
00000000
00000000
00000000
00000000
00000000
00000000
00000000
00000000
00000000
00000000
00010000
00000000
00000000
00000000
00000000
00000000
00000000
00000000
00000000
00000000
00000000
00000000
00001000
00000000
00000000
00000000
00000000
00000000
00000000
00000000
00000000
00000000
00000000
00000000
00000000
00000000
00000000
01000000
00000000
00000000
00000000
00000000
00000000
00000000
00000000
00000000
00020000
00000000
00000000
00000000
00000000
00000000
00000000
00000000
00000000
00000000
00000000
00000000
00000000
00000000
00000000
00000000
00030000
00000000
00000000
00000000
00000000
00000000
00000000
00000000
00100000
00000000
00000000
00000000
00000000
00000000
00000000
00000000
00000000
00000000
00000000
00000000
00000000
00000000
00000000
01000000
00000000
00000000
00000000
00000000
00000000
00000000
00000000
00000000
10000000
00000000
00000000
00000000
00000000
00000000
00000000
00000000
00000000
00000000
00000000
00000000
00000000
00000000
00000000
00000000
00000000
00000000
00000000
00000000
00000000
00000000
00000000
00000000
00020000
00000000
00000000
00000000
00000000
00000000
00000000
00000000
00000000
00000000
00000000
00000000
00000000
00000000
00000000
01030000
00000000
00000000
00000000
00000000
00000000
00000000
00000000
00000000
00001000
00000000
00000000
00000000
00000000
00000000
00000000
00000000
00000000
00000000
00000000
00000000
00000000
00000000
00000000
00000000
00000000
00000000
00000000
00000000
00000000
00000000
00000000
00000000
,
00010000
00000000
00000000
00000000
00000000
00000000
00000000
00000000
00000000
00000000
00000000
00000000
00000000
00000000
00000000
00000010
00000000
00000000
00000000
00000000
00000000
00000000
00000000
00000000
00001000
00000000
00000000
00000000
00000000
00000000
00000000
00000000
00000000
00000000
00000000
00000000
00000001
00000000
00000000
00000000
00000000
00000000
00000000
00000000
00000000
00000000
00000000
00000000
00000010
00000000
00000000
00000000
00000000
00000000
00000000
00000000
00000000
00000000
00000000
00000000
00000000
00000000
00000000
00000100
00000000
00000000
00000000
00000000
00000000
00000000
00000000
00000000
00000002
00000000
00000000
00000000
00000000
00000000
00000000
00000000
00000000
00000000
00000000
00000000
00000000
00000000
00000000
00000000
00000003
00000000
00000000
00000000
00000000
00000000
00000000
00000000
00000100
00000000
00000000
00000000
00000000
00000000
00000000
00000000
00000000
00000000
00000000
00000000
00000000
00000000
00000000
00000010
00000000
00000000
00000000
00000000
00000000
00000000
00000000
00000000
00000001
00000000
00000000
00000000
00000000
00000000
00000000
00000000
00000000
00000000
00000000
00000000
00000000
00000000
00000000
00000000
00000000
00000000
00000000
00000000
00000000
00000000
00000000
00000000
00002000
00000000
00000000
00000000
00000000
00000000
00000000
00000000
00000000
00000000
00000000
00000000
00000000
00000000
00000000
00003100
00000000
00000000
00000000
00000000
00000000
00000000
00000000
00000000
00010000
00000000
00000000
00000000
00000000
00000000
00000000
00000000
00000000
00000000
00000000
00000000
00000000
00000000
00000000
00000000
00000000
00000000
00000000
00000000
00000000
00000000
00000000
00000000
,
00001000
00000000
00000000
00000000
00000000
00000000
00000000
00000000
00000000
00000000
00000000
00000000
00000000
00000000
00000000
01000000
00000000
00000000
00000000
00000000
00000000
00000000
00000000
00000000
00010000
00000000
00000000
00000000
00000000
00000000
00000000
00000000
00000000
00000000
00000000
00000000
10000000
00000000
00000000
00000000
00000000
00000000
00000000
00000000
00000000
00000000
00000000
00000000
00100000
00000000
00000000
00000000
00000000
00000000
00000000
00000000
00000000
00000000
00000000
00000000
00000000
00000000
00000000
01000000
00000000
00000000
00000000
00000000
00000000
00000000
00000000
00000000
20000000
00000000
00000000
00000000
00000000
00000000
00000000
00000000
00000000
00000000
00000000
00000000
00000000
00000000
00000000
00000000
30000000
00000000
00000000
00000000
00000000
00000000
00000000
00000000
01000000
00000000
00000000
00000000
00000000
00000000
00000000
00000000
00000000
00000000
00000000
00000000
00000000
00000000
00000000
00100000
00000000
00000000
00000000
00000000
00000000
00000000
00000000
00000000
10000000
00000000
00000000
00000000
00000000
00000000
00000000
00000000
00000000
00000000
00000000
00000000
00000000
00000000
00000000
00000000
00000000
00000000
00000000
00000000
00000000
00000000
00000000
00000000
00020000
00000000
00000000
00000000
00000000
00000000
00000000
00000000
00000000
00000000
00000000
00000000
00000000
00000000
00000000
01030000
00000000
00000000
00000000
00000000
00000000
00000000
00000000
00000000
00001000
00000000
00000000
00000000
00000000
00000000
00000000
00000000
00000000
00000000
00000000
00000000
00000000
00000000
00000000
00000000
00000000
00000000
00000000
00000000
00000000
00000000
00000000
00000000
,
01000000
00000000
00000000
00000000
00000000
00010000
00000000
00000000
00100000
00000000
00000000
00000000
00001000
00000000
00000000
00000000
00010000
00000000
00000000
00000000
00000000
00000100
00000000
00000000
00001000
00000000
00000000
00000000
00000000
00000000
00000000
00000000
00000001
00000000
00000000
00000000
00000000
00000100
00000000
00000000
00000010
00000000
00000000
00000000
00000000
00000000
00000000
00000000
00001000
00000000
00000000
00000000
00000000
00000100
00000000
00000000
00010000
00000000
00000000
00000000
00000000
00000000
00000000
00000000
,
00022000
00033000
00000000
00000000
;

//---------------dance-double - [FG v1.00] SHOCK ARROW----------------
#NOTES:
     dance-double:
     [FG v1.00] SHOCK ARROW:
     Edit:
     10:
     0.000000,0.000000,0.000000,0.000000,0.000000:
00000000
00000000
00000000
00000000
,
00000000
00000000
00000000
00000000
,
00000000
00000000
00000000
00000000
,
00000000
00000000
00000000
00000000
,
00000000
00000000
00000000
00000000
,
00011000
00000000
000MMMM0
00000000
00000100
00010000
00000010
00000000
,
00000110
00000000
000MMMM0
00000000
00000100
00000001
00001000
00000000
,
00001100
00000000
0000MMMM
00000000
00001000
00100000
00010000
00000000
,
01100000
00000000
0MMMM000
00000000
10000000
01000000
00100000
00010000
,
01000000
00000000
00000000
00001000
00000000
00000000
00100000
00000000
00010000
00000000
01000000
00000000
0MMMM000
00000000
00000000
00000000
,
00010000
00000000
00000000
01000000
00000000
00000000
00001000
00000000
00010000
00000000
00000010
00000000
00001000
00000000
0M0MM0M0
00000000
,
00001000
00000000
00000000
00000010
00000000
00000000
00010000
00000000
00000100
00000000
00001000
00000000
000MMMM0
00000000
00000000
00000000
,
00020000
00000000
00031000
00000000
00000020
00001000
00001030
00000000
,
00001100
00000000
00010000
00001000
01000000
00100000
0MMMM000
00000000
,
01010000
00000000
00001000
00010000
00000100
0M0MMM00
00000100
00000000
,
00000011
00000000
00000100
00010000
00001000
00100000
00MMMM00
00000000
,
00011000
00000000
01000000
00100000
10000000
00010000
10000000
MMMM0000
,
00010000
00000000
00000000
00100000
00000000
00000000
01000000
00000000
10000000
00000000
00010000
00000000
MMMM0000
00000000
00000000
00000000
,
10000000
00000000
00000000
01000000
00000000
00000000
00100000
00000000
00001000
00000000
00010000
00000000
00001000
00000000
0MMMM000
00000000
,
00010000
00000000
00000000
00000010
00000000
00000000
00000100
00000000
00000001
00000000
00000010
00000000
000M0MMM
00000000
00000000
00000000
,
00000001
00000000
00000000
00000100
00000000
00000000
00000010
00000000
00010000
00000000
000M0MMM
00000000
00010000
00000000
000M0MMM
00000000
,
00200000
00000000
01000000
00000000
00001000
00000000
01300000
0MMMM000
,
00002000
00000000
00010000
00000000
01000000
00000000
00013000
0MMMM000
,
00000020
00000000
00001000
00000000
00000100
00000000
00000031
0000MMMM
,
00000200
00000000
00001000
00000000
00000001
00000000
00000310
0000MMMM
,
00002000
00000000
00000001
00000000
00000010
00000000
00013000
000MM0MM
,
00000020
00000000
00001000
00000000
00010000
00000000
00001030
000MM0MM
,
00000200
00000000
00000001
00000000
00000010
00000000
00001300
0000MMMM
,
00000020
00000001
00000100
00010030
,
00022000
00000000
00000000
00033000
,
00011000
00000000
000MMMM0
00000000
00000100
00010000
00001000
00000000
,
00100000
00010000
01000000
10000000
01000000
00100000
10000000
00000000
,
01100000
00000000
MMMM0000
00000000
10000000
00100000
01000000
00000000
,
00001000
00100000
01000000
00010000
01000000
00100000
00001000
00000000
,
00110000
00000000
0MMMM000
00000000
01000000
00100000
00001000
00000000
,
00010000
00000100
00000010
00001000
00000010
00000100
00010000
00000000
,
00001100
00000000
000MMMM0
00000000
00010000
00000100
00001000
00000000
,
00000001
00000010
00000100
00010000
000M0MMM
00000000
000M0MMM
00000000
,
00011000
00000000
000MMMM0
00000000
00000100
00000010
00001000
00000000
,
00000001
00000100
00001000
00000010
00001000
00000100
00000001
00000000
,
00001100
00000000
0000MMMM
00000000
00000010
00000100
00001000
00000000
,
00000001
00000010
00001000
00000100
00001000
00000010
00000001
00000000
,
00000110
00000000
0000MMMM
00000000
00001000
00000100
00000001
00000000
,
00001000
00000010
00000100
00010000
00000100
00000010
00001000
00000000
,
00000110
00000000
000MMMM0
00000000
00010000
00001000
00000100
00000000
,
00001100
00011000
01010000
11000000
,
20100000
00000000
00000000
31000000
00000000
00000000
00110000
00000000
00000000
00000000
00010000
00000000
01000000
00000000
00000000
00000000
,
MMMM0000
00000000
00100000
01000000
00000000
00100000
01000000
00000000
10000000
00000000
00010000
00000000
00100000
00000000
00000000
00000000
,
10020000
00000000
00000000
01030000
00000000
00000000
11000000
00000000
00000000
00000000
10000000
00000000
01000000
00000000
00000000
00000000
,
MMMM0000
00000000
00010000
01000000
00000000
00010000
01000000
00000000
00001000
00000000
00100000
00000000
00010000
00000000
00000000
00000000
,
00210000
00000000
00000000
00301000
00000000
00000000
00010100
00000000
00000000
00000000
00000100
00000000
00001000
00000000
00000000
00000000
,
00MMMM00
00000000
00010000
00001000
00000000
00010000
00001000
00000000
00100000
00000000
00010000
00000000
10000000
00000000
00000000
00000000
,
01020000
00000000
00000000
10030000
00000000
00000000
01001000
00000000
00000000
00000000
01000000
00000000
00010000
00000000
00000000
00000000
,
MM0MM000
00000000
00001000
00010000
00000000
00001000
00010000
00000000
00000100
00000000
00000010
00000000
00000001
00000000
00000000
00000000
,
00001001
00000000
00000000
0000MMMM
00000000
00000000
00010020
00000000
00000000
00000000
00001030
00000000
00000001
00000000
00000000
00000000
,
00001001
00000000
00000000
000MM0MM
00000000
00000000
00020010
00000000
00000000
00000000
00031000
00000000
00100000
00000000
00000000
00000000
,
00101000
00000000
00000000
00MMM0M0
00000000
00000000
10020000
00000000
00000000
00000000
00130000
00000000
00001000
00000000
00000000
00000000
,
00101000
00000000
00000000
M0MMM000
00000000
00000000
20010000
00000000
00000000
00000000
31000000
00000000
00100000
00000000
00010000
00000000
,
10000000
00000000
00000000
MMMM0000
00000000
00000000
01002000
00000000
00000000
00000000
00013000
00000000
00000010
00000000
00000000
00000000
,
00010010
00000000
00000000
0M0MM0M0
00000000
00000000
00201000
00000000
00000000
00000000
00310000
00000000
01000000
00000000
00000000
00000000
,
01010000
00000000
00000000
0MMMM000
00000000
00000000
00201000
00000000
00000000
00000000
00310000
00000000
01000000
00000000
00000000
00000000
,
01010000
00000000
00000000
0MMMM000
00000000
00000000
00012000
00000000
00000000
00000000
00010000
00000000
00013000
00000000
0MMMM000
00000000
,
00001100
00000000
00000000
0M0MMM00
00000000
00000000
00002001
00000000
00000000
00000000
00003100
00000000
00000010
00000000
00000000
00000000
,
00010100
00000000
00000000
000MMMM0
00000000
00000000
00102000
00000000
00000000
00000000
00013000
00000000
00000100
00000000
00000000
00000000
,
00001010
00000000
00000000
000MMMM0
00000000
00000000
00010020
00000000
00000000
00000000
00001030
00000000
00000001
00000000
00000000
00000000
,
00001010
00000000
00000000
000MM0MM
00000000
00000000
00020100
00000000
00000000
00000000
00031000
00000000
01000000
00000000
00010000
00000000
,
10000000
00000000
00000000
MM0MM000
00000000
00000000
00102000
00000000
00000000
00000000
00013000
00000000
00000100
00000000
00000000
00000000
,
00011000
00000000
00000000
00MMMM00
00000000
00000000
02010000
00000000
00000000
00000000
03100000
00000000
10000000
00000000
00000000
00000000
,
01100000
00000000
00000000
MMMM0000
00000000
00000000
10020000
00000000
00000000
00000000
00130000
00000000
00001000
00000000
00000000
00000000
,
01000000
00000000
00000000
MMM0M000
00000000
00000000
00001000
00000000
00000000
00000000
00001000
00000000
01000000
00000000
MMM0M000
00000000
,
00020200
00030300
00000000
00000000
;
