#TITLE:if;
#SUBTITLE:;
#ARTIST:CHiNTOMO;
#TITLETRANSLIT:;
#SUBTITLETRANSLIT:;
#ARTISTTRANSLIT:;
#GENRE:;
#CREDIT:;
#MUSIC:if.ogg;
#BANNER:if-bn.png;
#BACKGROUND:if-bg.png;
#CDTITLE:NAOKI_cdtitle.png;
#SAMPLESTART:44.011;
#SAMPLELENGTH:12.000;
#SELECTABLE:YES;
#OFFSET:0.557;
#BPMS:0.000=176.000;
#STOPS:;
#BGCHANGES:;
#FGCHANGES:;

//--------------- dance-single - NAOKI ----------------
#NOTES:
     dance-single:
     NAOKI:
     Beginner:
     2:
     0.144,0.209,0,0.056,0:
0000
0000
0000
0000
,
0000
0000
0000
0000
,
0000
0000
0000
0000
,
0000
0000
0000
0000
,
0000
0000
0000
0000
,
0000
0000
0000
0000
,
0000
0000
0000
0000
,
0000
0000
0000
0000
,
0000
0000
0000
0000
,
1000
0000
1000
0000
,
0001
0000
0001
0000
,
0100
0000
0100
0000
,
0010
0000
0010
0000
,
1000
0000
1000
0000
,
0001
0000
0001
0000
,
0010
0000
0010
0000
,
0100
0000
0000
0000
,
1000
0000
0001
0000
,
0100
0000
0000
0000
,
0010
0000
1000
0000
,
0001
0000
0000
0000
,
1000
0000
0001
0000
,
0010
0000
0000
0000
,
0100
0000
1000
0000
,
0001
0000
0000
0000
,
0100
0000
0010
0000
,
1000
0000
0000
0000
,
0100
0000
0010
0000
,
0001
0000
0000
0000
,
0010
0000
0100
0000
,
1000
0000
0000
0000
,
0010
0000
0100
0000
,
0002
0000
0000
0003
,
1000
0000
1000
0000
,
1000
0000
0000
0000
,
0100
0000
0000
0000
,
0010
0000
0000
0000
,
0001
0000
0001
0000
,
0001
0000
0000
0000
,
0100
0000
0000
0000
,
0010
0000
0000
0000
,
1000
0000
1000
0000
,
1000
0000
0000
0000
,
0020
0000
0030
0000
,
0200
0000
0300
0000
,
0001
0000
0001
0000
,
0001
0000
0000
0000
,
0010
0000
0000
0000
,
0100
0000
0000
0000
,
1000
0000
0000
0000
,
0001
0000
0100
0000
,
0010
0000
0000
0000
,
1000
0000
0000
0000
,
0001
0000
0000
0000
,
1000
0000
0100
0000
,
0010
0000
0000
0000
,
0001
0000
1000
0000
,
0010
0000
0010
0000
,
0100
0000
0001
0000
,
0010
0000
0010
0000
,
0100
0000
1000
0000
,
0001
0000
0100
0000
,
0010
0000
1000
0000
,
0100
0000
0010
0000
,
0001
0000
1000
0001
,
0100
0000
0100
0000
,
0010
0000
0010
0000
,
1000
0000
0001
0000
,
0010
0000
0000
0000
,
0100
0000
0100
0000
,
0010
0000
0010
0000
,
0001
0000
1000
0000
,
0010
0000
0000
0000
,
0010
0000
0010
0000
,
0100
0000
0100
0000
,
0001
0000
1000
0000
,
0100
0000
0000
0000
,
0010
0000
0010
0000
,
0100
0000
0100
0000
,
1000
0000
0001
0000
,
0100
0000
0010
0000
,
2000
0000
0000
3000
,
0000
0000
0000
0000
,
0002
0000
0000
0003
,
0000
0000
0000
0000
,
0200
0000
0000
0300
,
0000
0000
0000
0000
,
0020
0000
0000
0030
;

//--------------- dance-single - NAOKI ----------------
#NOTES:
     dance-single:
     NAOKI:
     Easy:
     7:
     0.336,0.419,0.127,0.024,0:
0000
0000
0000
0000
,
0000
0000
0000
0000
,
0000
0000
0000
0000
,
0000
0000
0000
0000
,
0000
0000
0000
0000
,
0000
0000
0000
0000
,
0000
0000
0000
0000
,
0000
0000
0000
0000
,
0000
0000
0000
0000
,
1000
0100
0010
0001
,
1000
0010
0100
0100
,
0001
0010
0100
1000
,
0001
0100
0010
0010
,
1000
0010
0100
0001
,
1000
0100
0010
0010
,
0001
1000
0010
0100
,
0210
0000
0301
0000
,
1000
0010
0100
0001
,
1000
0100
0010
0001
,
1000
1000
0010
0100
,
0001
0001
0100
0010
,
1000
0100
0010
0001
,
1000
0010
0100
0001
,
1000
1000
0100
0010
,
0001
0000
1000
0000
,
0001
0001
0010
0100
,
1000
1000
0010
0100
,
0001
0010
1000
0010
,
0001
0100
1000
0100
,
0010
1000
0100
0010
,
0001
0100
0010
1000
,
0100
0010
0001
0100
,
0110
0000
0000
0000
,
0010
0010
1000
0100
,
0010
0010
0001
0100
,
0010
1000
0100
0010
,
0001
1000
0010
0010
,
0100
0100
0001
0010
,
0100
0100
1000
0010
,
0100
0001
0010
0100
,
1001
0000
0110
0000
,
0010
0010
0001
0100
,
0010
0010
1000
0100
,
1100
0000
0000
0101
0000
0000
1010
0000
,
0011
0000
0000
1001
0000
0000
0000
0000
,
0100
0100
0001
1000
,
0100
0100
0010
0001
,
1000
0010
0100
0001
,
1001
0000
0010
0100
,
0110
0000
0000
0010
,
0000
0001
0000
0100
,
0010
0000
1000
0000
,
0001
0000
0010
0100
,
1000
0000
0010
0000
,
0100
0001
1000
0100
,
0010
0000
0001
0100
,
0010
0000
0100
0001
,
1000
0100
0010
0001
,
0001
0100
0100
0010
,
1000
0100
0010
0001
,
1000
0010
0100
0001
,
1000
1000
0001
0001
,
0100
0100
0010
0010
,
1000
0100
0010
0001
,
0100
0100
0010
0010
,
1000
1000
0100
0001
,
0001
0100
1000
0010
,
0100
0001
0010
0100
,
1000
0010
0100
0100
,
0001
0001
0010
1000
,
1000
0010
0001
0100
,
0010
1000
0100
0010
,
1001
0000
0110
0000
,
0001
0001
0100
1000
,
1000
0100
0001
0010
,
0100
1000
0010
0100
,
0001
0010
0100
0100
,
1000
1000
0010
0001
,
0001
0010
1000
0100
,
0010
0001
0100
0010
,
1001
0110
2002
3003
,
1000
0000
0000
0100
0000
0000
0010
0000
,
0000
0000
0001
0000
,
1000
0000
0000
0010
0000
0000
0100
0000
,
0000
0000
0001
1000
,
0001
0000
0000
0010
0000
0000
0100
0000
,
0000
0000
1000
0000
,
0001
0000
0000
0100
0000
0000
0010
0000
;

//--------------- dance-single - NAOKI ----------------
#NOTES:
     dance-single:
     NAOKI:
     Medium:
     12:
     0.526,0.63,0.111,0.263,0.02:
0000
0000
0000
0000
,
0000
0000
0000
0000
,
0000
0000
0000
0000
,
0000
0000
0000
0000
,
0000
0000
0000
0000
,
0000
0000
0000
0000
,
0000
0000
0000
0000
,
0000
0000
0000
0000
,
0000
0000
0000
0000
,
0010
0000
0100
0001
0100
0000
0020
0000
,
1030
0000
0001
0010
0100
1000
0001
0100
,
0010
0000
1000
0001
0010
0000
0200
0000
,
1300
0000
0001
0100
0010
0000
1000
0100
,
0010
0000
0100
1000
0100
0000
0020
0000
,
0031
0000
1000
0010
0100
0001
1000
0100
,
0010
0001
0100
1000
0100
0001
0100
0010
,
2000
0000
0000
3001
0000
0000
0000
0000
0000
0000
0000
0000
0000
0000
0000
0000
,
0100
0010
1000
0100
0000
0010
0001
0000
,
1000
0000
0010
0100
0001
0000
1000
0100
,
0000
0010
0002
0000
0103
0000
0010
2000
,
0000
3100
0000
0010
0000
0001
0100
0010
,
1000
0001
0010
0100
0000
0010
0001
0000
,
1000
0010
0000
0110
0000
0100
0001
0010
,
0000
0100
1000
0010
0000
0100
0000
0001
,
0000
0010
0001
1000
0020
0200
0330
0000
,
0010
0101
0100
1001
,
0100
0000
1100
0000
0010
0000
0001
0100
,
0000
0010
2000
0000
3100
0000
0010
0002
,
0000
0103
0000
0010
0000
1000
0100
0010
,
0001
1000
0010
0100
0000
0010
1000
0000
,
0001
0010
0000
0110
0000
0100
1000
0010
,
0000
0100
0001
0010
0000
0100
2000
0000
,
0002
3003
0000
0000
,
1000
0000
0100
0000
0010
0000
0001
0000
0100
0000
0000
0010
0000
0000
0100
0000
,
0001
1000
0100
0000
0010
0001
1000
0010
,
0100
0000
0101
0000
0001
0010
0100
0000
,
1100
0000
0001
0100
0010
0000
1000
0000
,
0001
0000
0010
0000
0100
0000
1000
0000
0010
0000
0000
0100
0000
0000
0010
0000
,
1000
0001
0010
0000
0100
1000
0001
0100
,
0010
0000
1000
0200
0000
0310
0001
0000
,
0012
0000
0103
0000
0010
1000
0100
0010
,
0001
0000
0100
0000
0010
0000
1000
0000
0100
0000
0000
0010
0000
0000
0100
0000
,
1000
0001
0100
0000
0010
1000
0100
0000
,
0022
0030
0003
2020
0030
3000
0110
0000
,
0202
0000
0300
0000
0003
0000
2200
0000
0000
0300
0000
3000
0000
0000
0100
0000
,
1000
0000
0010
0000
0100
0000
0001
0000
0010
0000
0000
0100
0000
0000
0010
0000
,
0001
1000
0010
0000
0100
0001
1000
0100
,
0010
0000
0001
0200
0000
0310
1000
0000
,
2010
0000
3100
0000
0010
0001
1000
0010
,
0100
0000
0000
0010
,
0000
1000
0000
0001
,
0010
0000
0000
0100
,
1000
0000
0001
0100
,
0010
0000
0000
0100
,
0000
0001
0000
1000
,
0100
0000
0010
0001
,
1000
0010
0100
0000
,
0001
0001
1000
1000
,
0010
0100
0001
1000
,
0100
0000
0100
0000
0010
0000
0001
1000
,
0001
0100
0010
0010
,
1000
0100
0010
0100
1000
0100
0010
0001
,
0100
0010
0100
0001
0100
0010
1000
0001
,
0010
0100
0010
0001
1000
0010
0100
0010
,
1000
0001
2000
3002
,
0103
0010
1000
0100
0010
0000
0010
0100
,
1000
0010
0100
0000
0100
0001
0010
0100
,
1000
0000
0001
0100
0010
0000
1000
0100
,
0010
0001
0100
0000
0010
1000
0001
0010
,
0100
0010
0001
0100
0010
0000
0010
0100
,
0001
0010
0100
1000
0000
1000
0010
0100
,
0001
1000
0100
0010
0000
0001
0000
1000
,
0020
0100
0130
0000
,
0010
0100
0001
0010
0100
0000
0100
0010
,
0001
0100
0010
0000
0010
1000
0100
0010
,
0001
0000
1000
0010
0100
0000
0001
0010
,
0100
1000
0010
0000
0100
0001
1000
0100
,
0010
0100
1000
0010
0100
0000
0100
0010
,
1000
0100
0010
0001
0000
0001
0100
0010
,
1000
0001
0010
0100
1000
0001
0100
0010
,
1000
0100
0010
0002
2000
0000
3003
0000
,
0010
0000
0100
0001
0000
1000
0200
0000
,
0300
0000
0010
0001
,
0100
0000
0010
1000
0000
0001
0020
0000
,
0030
0000
0000
0100
1000
0010
0100
0001
,
0010
0000
0100
1000
0000
0001
0200
0000
,
0300
0000
0010
1000
,
0100
0000
0010
0001
0000
1000
0020
0000
,
0030
0000
0000
0000
;

//--------------- dance-single - NAOKI ----------------
#NOTES:
     dance-single:
     NAOKI:
     Hard:
     15:
     0.828,0.918,0.223,0.382,0.338:
0000
0000
0000
0000
,
0000
0000
0000
0000
,
0000
0000
0000
0000
,
0000
0000
0000
0000
,
0000
0000
0000
0000
,
2000
0000
3010
0200
0301
1000
0200
0000
,
0000
0000
0300
0010
0001
1000
0010
0100
,
0002
0000
0013
0200
1300
0001
0200
0000
,
0000
0300
0000
0000
0010
0010
1000
0001
,
0010
0100
1000
0001
0100
0010
2000
0001
,
3001
0000
0010
0000
0100
0000
1000
0001
0100
0000
0100
0000
0010
0000
1000
0000
,
0001
0010
0100
0001
0100
0010
0002
1000
,
1003
0000
0010
0000
0100
0000
0001
1000
0100
0000
0100
0000
0010
0000
0001
0000
,
1000
0010
0100
1000
0100
0010
2000
0001
,
3001
0000
0010
0000
0100
0000
1000
0001
0100
0000
0100
0000
0010
0000
1000
0000
,
0001
0001
0010
0010
0100
0100
1000
1000
,
0001
0100
0000
0010
1000
0000
0000
0000
0000
0000
0000
0000
0000
0000
0000
0000
,
1000
0100
0010
1000
0010
0100
1000
0001
,
0100
0010
1000
0100
0010
0001
0100
0100
,
0010
1000
0001
0001
0010
1000
0010
0001
,
0001
0100
1000
0100
0001
1000
0100
0010
,
0001
0100
0010
0001
0010
0100
0001
1000
,
0100
0010
0001
0100
0010
1000
0100
0100
,
0010
0001
1000
1000
0010
0100
0001
0010
,
0000
0200
2300
3002
0203
0020
0330
0000
,
1000
0001
0101
0100
0010
1000
1001
0001
,
0010
0100
1100
1000
0010
0100
0001
1000
,
0100
0000
0010
0000
0001
1000
0001
0000
0100
0000
0010
0000
0100
0000
0001
1000
,
0001
0010
0100
0010
0001
1000
0010
0100
,
0001
1000
1100
0100
0010
0001
1001
1000
,
0010
0100
0101
0001
0010
0100
1000
0001
,
0100
0000
0010
0100
0010
0000
1000
0000
0100
0000
0010
0000
0001
0000
0000
0000
,
1001
0000
0000
0000
0000
0000
0000
0000
0000
0000
0000
0000
1000
0100
0010
0001
,
1000
0010
0100
0000
0001
0000
0010
0100
1000
0000
0001
0100
0000
0010
1000
0000
,
1100
0000
0001
0000
0010
0000
0100
1000
0001
0000
0100
0000
0010
0000
1000
0000
,
0001
0010
0001
0000
1000
0000
0001
0100
0001
0000
1000
0000
0100
0010
0001
0000
,
1000
0010
0100
0000
0001
0000
0010
0100
1000
0000
0001
0000
0100
0010
1000
0000
,
0001
0100
0010
0000
1000
0000
0001
0010
0001
0000
1000
0010
0000
0100
0001
0000
,
0011
0000
1000
0000
0100
0000
0010
0001
1000
0000
0010
0000
0100
0000
0001
0000
,
1000
0100
1000
0000
0001
0000
1000
0010
1000
0000
0001
0000
1000
0000
0100
0000
,
0012
0000
0000
0000
2003
0000
0000
0000
3001
0100
0010
1000
0001
0100
0010
1000
,
0001
0010
0100
0000
1000
0000
0010
0100
0001
0000
1000
0100
0000
0010
0001
0000
,
1001
0000
1000
0000
0010
0000
0100
0001
0100
0000
0010
0000
1000
0000
0100
0000
,
0022
0030
1003
2020
0030
3010
0220
0330
,
0202
0000
0300
0000
0013
0000
2200
0000
0000
0000
0300
0000
3000
0000
0001
0010
,
0100
0000
1000
0000
0001
0000
0100
0010
1000
0000
0001
0010
0000
0100
1000
0000
,
1010
0000
0001
0000
0100
0000
0010
1000
0001
0000
0010
0000
0100
0000
1000
0000
,
0010
0100
0010
0000
1000
0000
0100
0010
0100
0000
1000
0000
0001
0000
0100
0000
,
2010
0000
0000
0000
3002
0000
0000
0000
0103
0010
1000
0000
0001
0100
0010
0000
,
1000
0000
0000
0000
0000
0000
0001
0020
,
0100
0030
0001
0200
0010
0300
0001
1000
,
0100
0000
0000
0000
0000
0000
0000
0000
0000
0010
0001
1000
,
0010
0000
0000
1000
0001
0010
0100
1000
,
0001
0000
0000
0000
0000
1000
0020
0100
,
0030
1000
0200
0010
0300
1000
0010
0100
,
0001
0010
0100
1000
0000
1000
0001
0000
,
0001
0000
0010
0000
0100
0000
1000
0000
0000
0000
0000
0000
0001
0000
0100
0000
0010
0000
1000
0000
0000
0001
0000
0000
,
0010
0100
1000
0001
0100
0010
1000
1000
,
0100
0010
0001
0001
0100
0010
1000
0001
,
0010
0000
0000
0100
0000
0000
1000
0000
0000
0010
0000
0000
0100
0000
0000
0001
0000
0000
1000
0000
0100
0000
0010
0000
,
0001
1000
0010
0100
0100
0001
0010
0100
,
1000
0010
0001
0010
1000
0010
0001
0010
,
1000
0100
0001
0100
1000
0100
0001
0100
,
1000
0010
0001
0010
1000
0100
0001
0100
,
1000
0001
0100
0010
1000
0001
0010
0100
2000
0000
0000
0000
3002
0000
0000
0000
,
0103
0010
1000
0100
0110
0000
0010
0001
,
1000
0000
0010
0000
0110
0000
0000
0000
0100
0000
0001
0000
1000
0100
0010
0100
,
1000
0001
0100
0010
1000
0000
0001
0010
,
0100
0000
1000
0000
0001
0000
0100
0000
0010
1000
0001
0010
0100
1000
0001
0100
,
0010
1000
0001
0010
0110
0000
0100
1000
,
0001
0000
0100
0000
0010
0000
0010
0000
1000
0000
0001
0010
0001
1000
0001
0100
,
0010
1000
0001
0010
0100
0010
0001
1000
,
0020
0000
0100
0000
0130
0000
0010
0000
1000
0001
1000
0001
0100
0000
0000
0000
,
0010
1000
0001
0010
0110
0000
0100
1000
,
0001
0000
0100
0000
0110
0000
0000
0000
0010
0000
1000
0000
0001
0010
0100
0010
,
0001
1000
0010
0100
0001
0000
1000
0100
,
0010
0000
0001
0000
1000
0000
0010
0000
0100
0001
1000
0100
0010
0001
1000
0010
,
0100
0001
0010
1100
0101
0010
0100
0001
,
1000
0000
0100
0000
0011
0000
1010
0000
0100
0000
0001
0100
0001
1000
0100
0010
,
0001
0000
1000
0010
0100
0000
0100
0010
1000
0000
0001
0010
0100
0000
0010
0001
,
2000
0000
0000
0000
0000
0000
0000
0000
0000
3000
0000
0000
0010
0000
0000
0000
0100
0000
0000
0000
0010
0000
0000
0000
0100
0000
0000
0000
0000
0000
0000
0000
0000
0000
0000
0000
0002
0000
0000
0000
0000
0000
0000
0000
0000
0000
0000
0000
0020
0000
0000
0000
0000
0000
0000
0000
0000
0000
0000
0000
0000
0000
0000
0000
0000
0000
0000
0000
0000
0000
0000
0000
0033
0000
0000
0000
0000
0000
0000
0000
0000
0000
0000
0000
0000
0000
0000
0000
0000
0000
0000
0000
0000
0000
0000
0000
,
2100
0000
3010
0200
0301
1000
0200
0000
,
0000
0000
0300
0010
0001
1000
0010
0100
,
0002
0000
0013
0200
1300
0001
0200
0000
,
0000
0000
0000
0000
0300
0000
0010
0100
0010
0000
1000
0000
0100
0000
0010
0000
,
0002
0000
0103
0020
1030
0001
0020
0000
,
0000
0000
0030
0100
1000
0001
0100
0010
,
1000
0100
0010
0001
1000
0010
0200
0000
,
0000
0000
0000
0300
;

//--------------- dance-single - NAOKI ----------------
#NOTES:
     dance-single:
     NAOKI:
     Challenge:
     17:
     0.964,1,0.366,0.756,0.593:
0000
0000
0000
0000
,
0000
0000
0000
0000
,
0000
0000
0000
0000
,
0000
0000
0000
0000
,
0000
0000
0000
0000
,
0012
0000
0103
2010
0000
3001
0020
0000
,
0000
0000
0030
0100
0100
1000
0001
0100
,
2010
0000
3100
0012
0000
1003
0020
0000
,
0000
0030
0000
0000
0100
0100
0001
1000
,
0100
0010
0001
0000
1000
0000
0010
0100
0001
0000
1000
0000
0200
0000
0010
0000
,
0310
0000
0001
0000
1000
0000
0010
0100
0001
1000
0100
0010
0002
0000
1000
0000
,
0103
0010
1000
0000
0001
0000
0010
0100
1000
0000
0001
0000
0200
0000
0010
0000
,
0310
0000
1000
0000
0001
0000
0010
0100
0010
0000
0001
0000
1000
0000
0100
0000
,
0010
0100
1000
0000
0001
0000
0100
0010
1000
0000
0001
0000
0020
0000
0100
0000
,
0130
0000
1000
0000
0001
0000
0100
0010
1000
0001
0010
0100
2000
0000
0001
0000
,
3010
0100
0001
0100
0010
1000
0001
0010
0100
1000
0001
0100
0010
1000
0100
0010
,
0001
0200
0300
0020
1030
0000
0000
0000
0000
0000
0000
0000
0000
0000
0000
0000
,
1000
0100
0010
1000
0010
0100
1000
0001
,
0100
0010
1000
0100
0010
0001
1000
1000
,
0010
0000
0100
0000
0001
1000
0001
0000
0010
0000
1000
0000
0010
0000
0001
1000
,
0001
0100
1000
0100
0001
1000
0100
0010
,
0001
0100
0010
0001
0010
0100
0001
1000
,
0100
0010
0001
0100
0010
1000
0100
0100
,
0010
0000
0001
0000
1000
0001
1000
0000
0010
0000
0100
0000
0001
0000
0010
0000
,
0000
0200
2300
3002
0203
0020
0330
0000
,
1000
0001
0101
0100
0010
1000
1001
0001
,
0010
0100
1100
1000
0010
0100
0001
1000
,
0100
0000
0010
0001
0020
0030
0100
1000
0100
0020
0030
0001
1000
0000
0010
1000
,
0020
0030
0100
0001
0200
0300
0010
0100
0001
1000
0100
0010
0001
0000
0100
0000
,
0010
1000
1100
0100
0010
0001
1001
1000
,
0010
0100
0101
0001
0010
0100
1000
0001
,
0100
0000
0010
1000
0020
0030
0100
0001
0100
0020
0030
1000
0001
0000
0000
0000
,
0110
0000
0000
0000
0000
0000
0000
0000
0000
0000
0000
0000
1000
0100
0010
0001
,
1000
0010
0100
0010
1000
0001
0010
0100
2000
3000
0001
0200
0300
0010
1000
0000
,
1001
0000
0001
0000
0010
0000
0100
1000
0001
0100
0010
0100
0001
1000
0100
0010
,
0002
0000
1000
0000
0103
01M0
2000
0000
3001
0000
0100
0000
0010
M00M
0010
0000
,
0001
0000
1000
0000
0010
0000
0100
0000
0001
0100
0001
0000
1000
0100
1000
0000
,
0001
0010
0100
0010
0001
1000
0010
0100
2000
3000
0100
0002
0003
1000
0100
0000
,
0110
0000
0010
0000
0001
0000
0100
0010
1000
0001
0010
0100
1000
0001
0100
0010
,
2000
0000
0001
0000
3100
0010
0002
0000
1000
0000
0103
0010
1000
0000
0100
0000
,
0012
0000
0000
0000
0000
0000
0003
0000
2100
0000
0000
0000
3100
0000
0010
0000
0002
0003
0200
0300
0020
0030
2000
3000
0002
0003
0020
0030
0200
0300
2000
3000
,
0001
0100
0010
0100
0001
1000
0100
0010
0002
0003
1000
0020
0030
0100
0001
0000
,
1001
0000
1000
0000
0001
0010
0001
0000
1000
0010
0100
0010
1000
0000
0001
0000
,
0022
0000
0000
0000
0000
0000
0000
0000
0000
0000
0000
0000
0000
0000
0000
0000
0000
0000
0000
0000
0000
0000
0000
0000
0030
0000
0000
0000
0000
0000
0000
0000
0000
0000
0000
0000
0000
0000
0000
0000
0000
0000
0000
0000
0000
0000
0000
0000
0100
0000
0000
0000
0000
0000
0000
0000
0000
0000
0000
0000
0000
0000
0000
0000
0000
0000
0000
0000
0000
0000
0000
1000
0200
0000
0000
0000
0000
0000
0000
0000
0000
0000
0000
0000
0000
0000
0000
0000
0000
0000
0000
0000
0000
0000
0000
0000
0303
0000
0000
0000
0000
0000
0000
0000
0000
0000
0000
0000
0000
0000
0000
0000
0000
0000
0000
0000
0000
0000
0000
0000
0010
0000
0000
0000
0000
0000
0000
0000
0000
0000
0000
0000
0000
0000
0000
0000
0000
0000
0000
0000
0000
0000
0000
0000
0220
0000
0000
0000
0000
0000
0000
0000
0000
0000
0000
0000
0000
0000
0000
0000
0000
0000
0000
0000
0000
0000
0000
0000
0330
0000
0000
0000
0000
0000
0000
0000
0000
0000
0000
0000
0000
0000
0000
0000
0000
0000
0000
0000
0000
0000
0000
0000
,
2020
0000
0000
0000
0000
0000
0000
0000
0000
0000
0000
0000
0000
0000
0000
0000
0000
0000
0000
0000
0000
0000
0000
0000
0030
0000
0000
0000
0000
0000
0000
0000
0000
0000
0000
0000
0000
0000
0000
0000
0000
0000
0000
0000
0000
0000
0000
0000
0100
0000
0000
0000
0000
0000
0000
0000
0000
0000
0000
0000
0000
0000
0000
0000
0000
0000
0000
0000
0000
0000
0000
0001
0200
0000
0000
0000
0000
0000
0000
0000
0000
0000
0000
0000
0000
0000
0000
0000
0000
0000
0000
0000
0000
0000
0000
0000
3000
0000
0000
0000
0000
0000
0000
0000
0000
0000
0000
0000
0000
0000
0000
0000
0000
0000
0000
0000
0000
0000
0000
0000
0000
0000
0000
0000
0000
0000
0000
0000
0000
0000
0000
0000
0300
0000
0000
0000
0000
0000
0000
0000
0000
0000
0000
0000
0000
0000
0000
0000
0000
0000
0000
0000
0000
0000
0000
0000
0000
0000
0000
0000
0000
0000
0000
0000
0000
0000
0000
0000
0000
0000
0000
0000
0000
0000
0000
0000
0000
0000
0000
0000
0000
0000
0000
0000
0000
0000
0000
0000
0000
0000
0000
0000
,
1000
0010
0100
0010
1000
0001
0010
0100
0002
0003
0100
2000
3000
0001
0100
0000
,
0110
0000
0010
0000
1000
0000
0001
0010
0100
1000
0001
0100
0010
1000
0100
0010
,
0002
0000
1000
0000
0103
0010
2000
0000
0001
0000
3100
0010
0001
0000
0100
0000
,
2010
0000
0000
3000
0102
0000
0000
0003
0010
0100
1000
0000
0001
0100
0010
0000
,
0220
0330
0000
0000
0000
0000
0100
0010
,
1000
0000
0001
0010
0100
0000
0010
0001
,
0200
0000
0000
0000
0000
0000
0000
0000
0000
0300
0000
0000
0000
0000
0000
0000
0000
0000
0010
0000
1000
0000
0001
0000
,
0010
0000
0000
0100
1000
0001
0100
0010
,
1000
0000
0000
0000
0000
0100
0010
0001
,
0000
1000
0010
0100
0000
0010
1000
0001
,
0010
0100
1000
0001
0000
0100
0010
0000
,
0100
0000
0001
0000
1000
0000
0100
0000
0000
0000
0000
0000
0010
0000
0001
0000
1000
0000
0010
0000
0000
0100
0000
0000
,
0110
0010
1000
0001
0010
0100
1000
1000
,
0100
0010
0001
0001
0100
0010
1000
0100
,
0001
0000
0000
0100
0000
0000
0010
0000
0000
1000
0000
0000
0010
0000
0000
0100
0000
0000
1000
0000
0010
0000
0100
0000
,
0001
0010
0100
1000
0010
0001
0010
0100
,
1000
0100
0010
1000
0001
0010
0100
0100
,
0001
1000
0100
0100
0010
1000
0001
0010
,
1000
0010
0001
0100
1000
0100
0010
1000
,
0001
0010
0100
0010
0001
0100
0010
1000
0200
0000
0300
0000
2020
0000
0030
3000
,
0011
0100
1000
0010
0202
0303
1010
0100
,
0001
0000
0010
0000
2200
0000
3300
0000
0100
0000
0010
0000
0100
1000
0001
0100
,
0010
0100
0001
1000
0100
0000
0010
0100
,
1000
0000
0001
0000
0200
0000
0310
0000
1000
0010
1000
0001
0010
0100
1000
0001
,
0100
0010
1000
0100
0022
0033
1100
0010
,
0001
0100
0010
0100
0001
1000
0100
0000
0010
0001
1000
0001
0100
0010
1000
0100
,
0010
0001
0100
1000
0100
0010
1000
0001
,
0020
0000
0100
0000
0130
0000
1000
0000
0001
0100
0010
0100
0001
0000
0000
0000
,
1010
0100
0001
0010
2200
3300
0011
0100
,
1000
0000
0010
0000
0202
0000
0303
0000
0100
0000
0010
0000
1000
0001
0010
0100
,
1000
0100
0010
0001
0100
0000
0010
0100
,
0001
0000
1000
0000
0100
0000
0010
0000
0001
1000
0010
0100
0010
1000
0001
0010
,
0200
0300
0010
0001
1000
0010
0100
0000
0110
0000
0010
0000
1000
0001
0010
0100
,
1000
0001
0100
0010
1000
0001
0010
0000
0100
0000
1000
0001
0100
0010
1000
0001
,
0020
0030
0100
1000
0001
0100
0001
1000
0200
0300
0010
0100
1000
0001
0100
0000
,
0010
0000
0000
0000
0000
0000
0000
0000
0000
0000
0000
0000
1000
0000
0000
0000
0001
0000
0000
0000
1000
0000
0000
0000
0001
0000
0000
0000
0000
0000
0000
0000
0000
0000
0000
0000
0020
0000
0000
0000
0000
0000
0000
0000
0000
0000
0000
0000
0400
0000
0000
0000
0000
0000
0000
0000
0000
0000
0000
0000
0000
0000
0000
0000
0000
0000
0000
0000
0000
0000
0000
0000
0000
0000
0000
0000
0000
0000
0000
0000
0000
0330
0000
0000
0000
0000
0000
0000
0000
0000
0000
0000
0000
0000
0000
0000
,
2100
0000
3010
0102
0000
1003
0200
0000
,
0000
0000
0300
0010
0010
0001
1000
0010
,
0102
0000
0013
2100
0000
3001
0200
0000
,
0000
0000
0000
0000
0300
0000
0010
0100
0010
0000
1000
0000
0100
0000
0010
0000
,
0002
0000
0103
2010
0000
3001
0020
0000
,
0000
0000
0030
0100
0100
1000
0001
0100
,
0110
0010
1000
1001
0001
0100
0020
0000
,
0000
0000
0000
0030
;

//--------------- dance-single - NAOKI ----------------
#NOTES:
     dance-single:
     NAOKI:
     Edit:
     13:
     0,0,0,0,0:
0000
0000
0000
0000
,
0000
0000
0000
0000
,
0000
0000
0000
0000
,
0000
0000
0000
0000
,
0000
0000
0000
0000
,
0020
0000
0130
2000
0000
3001
0200
0000
,
0000
0000
0300
0000
0000
0000
0010
0100
0010
0000
1000
0000
0001
0000
0010
0000
,
0200
0000
1300
0002
0000
0103
0020
0000
,
0000
0000
0030
0000
0000
0000
1000
0001
1000
0000
0100
0000
0010
0000
0001
0000
,
1001
1000
0010
0200
0310
1000
0002
0013
,
0100
0000
1000
0000
0001
0000
0100
0010
0100
0000
0001
0000
1000
0000
0100
0000
,
0020
0001
0031
0002
0100
0103
0200
0000
,
0310
0000
0000
0000
1000
0000
0001
0010
0100
0000
1000
0000
0001
0000
0100
0000
,
0020
1000
1030
2000
0100
3100
0200
0000
,
0310
0000
0001
1000
0010
0100
0010
1000
,
0001
0010
0100
1000
0001
0100
0010
1000
,
0001
0000
0010
0000
0001
0000
1000
0000
0100
0000
0010
0000
0001
0000
1000
0000
0010
0000
1000
0000
0001
0000
1000
0000
0100
0000
0010
0000
0001
1000
0001
1000
,
0001
0000
0100
0010
1000
0001
1000
0100
0010
0100
1000
0001
0100
0001
1000
0100
,
0010
0001
1000
0001
0010
0100
1000
0001
0100
0010
1000
0001
0100
0001
1000
0100
,
0010
0001
1000
0010
0100
0010
1000
0001
0010
0100
1000
0001
0010
0001
1000
0100
,
0010
0100
1000
0001
0100
0010
0100
0001
1000
0100
0010
0001
1000
0001
0100
0010
,
1000
0001
0010
0100
0010
0001
1000
0001
0100
0010
0100
0001
1000
0100
0010
0100
,
1000
0001
1000
0010
0100
0001
1000
0100
1000
0001
0010
0100
1000
0001
1000
0010
,
0100
0001
1000
0100
0010
0100
1000
0001
0010
0100
1000
0001
1000
0001
0100
0000
,
0000
0010
1000
0001
0010
0100
0000
0000
,
1000
0010
1000
0100
1000
0001
0010
0100
1000
0001
0010
0001
0100
0001
1000
0010
,
0100
0001
1000
0100
1000
0001
0100
0010
1000
0001
0010
0100
1000
0000
0001
0000
,
0100
0010
1000
0001
1000
0100
1000
0001
0010
0100
1000
0001
0010
0001
1000
0010
,
0100
0001
1000
0010
1000
0001
0100
0010
1000
0001
1000
0001
0010
0100
1000
0000
,
0001
0010
0001
0100
0001
1000
0100
0010
0001
1000
0010
1000
0100
1000
0001
0100
,
0001
0010
0001
1000
0010
1000
0001
0100
0010
1000
0001
1000
0001
0010
0100
1000
,
0001
0100
0010
1000
0001
0010
0001
1000
0100
0010
0001
0000
0100
0000
0000
0000
,
0110
0000
0000
0000
0000
0000
0000
0000
0000
0000
0000
0000
0001
0010
0100
1000
,
0001
0100
0010
0100
0001
1000
0100
0010
0100
1000
0001
0100
0001
0010
0100
1000
,
0001
0100
0010
0100
0001
1000
0001
0010
0100
1000
0001
0010
0001
1000
0010
0100
,
0001
1000
0100
1000
0001
0010
0001
1000
0010
0100
0010
1000
0001
1000
0100
0010
,
0100
1000
0001
1000
0010
0100
0001
1000
0100
1000
0001
0100
0001
1000
0001
0010
,
0100
1000
0001
1000
0010
0100
0001
1000
0001
0010
0100
1000
0001
0010
0001
1000
,
0100
1000
0001
0100
0010
1000
0001
1000
0100
1000
0001
0100
0010
0100
0001
1000
,
0100
0010
0001
1000
0001
0100
0010
1000
0001
0010
0100
1000
0001
0010
0001
1000
,
0010
0000
0100
0000
0001
0000
1000
0000
0100
0000
0010
0000
0001
0000
1000
0000
0010
0000
0100
0000
0002
0003
0020
0030
0200
0300
2000
3000
0001
0000
0100
0000
,
0010
1000
0001
0010
0100
1000
0001
0010
0001
1000
0010
0100
0010
1000
0001
0010
,
0100
0010
0001
1000
0010
0100
0010
1000
0001
1000
0100
0010
0100
1000
0001
0100
,
0020
0000
1030
2001
0000
3100
0210
0000
,
0310
0000
0000
0000
0001
0000
0000
0000
1000
0000
0000
0000
0020
0000
0000
0000
0000
0000
0000
0000
0000
0000
0000
0000
0030
0000
0000
0000
1000
0001
1000
0001
,
1000
0000
0010
0100
0001
1000
0100
0010
0100
1000
0001
0100
0010
0100
0001
1000
,
0100
1000
0001
0100
0010
1000
0001
0010
0001
1000
0010
0100
0001
1000
0100
1000
,
0001
0010
0001
0100
0001
1000
0100
0010
0001
1000
0100
1000
0001
0100
0010
1000
,
0200
0000
0300
0000
0020
0000
0030
0000
0001
0100
0010
0000
1000
0010
0100
0000
,
0110
0000
0000
0000
0000
0000
0010
1000
,
0000
0000
0001
0010
0000
0000
0001
1000
,
0001
0000
0000
0000
0000
0000
0000
0000
0000
0100
0000
0000
0000
0000
0000
0000
0000
0000
0010
0000
1000
0000
0001
0000
,
0010
0000
0000
0100
1000
0001
0100
0010
,
1000
0000
0000
0000
0000
0100
0010
0001
,
0000
1000
0010
0100
0000
0010
1000
0001
,
0010
0000
0100
1000
0000
0001
0100
0000
,
0010
0000
1000
0000
0001
0000
0010
0000
0000
0000
0000
0000
0100
0000
1000
0000
0001
0000
0100
0000
0000
0010
0000
0000
,
1000
0001
1000
0100
1000
0001
0100
0010
,
1000
0001
0010
0100
1000
0001
0100
0010
,
0100
0000
0000
0001
0000
0000
1000
0000
0000
0100
0000
0000
0010
0000
0000
0001
0000
0000
1000
0000
0010
0000
0100
0000
,
0001
1000
0001
0010
0100
1000
0001
0100
,
0010
0001
0010
1000
0001
0010
0100
1000
,
0001
0100
0010
1000
0001
0010
0100
1000
,
0001
0100
0010
1000
0100
0010
0001
0000
,
0100
0010
1000
0001
0010
0100
1000
0001
0200
0000
0000
0300
0020
0000
0000
0030
,
1000
0001
0010
0001
1000
0001
0100
0010
1000
0000
0010
0000
1000
0001
0100
0001
,
1000
0001
0010
0100
1000
0000
0100
0000
0010
0001
1000
0001
0100
0010
1000
0001
,
0010
0100
1000
0001
0100
0010
1000
0001
0010
0000
0100
0000
1000
0001
0100
0010
,
0100
0001
1000
0100
0010
0000
0001
0000
1000
0010
0100
0010
1000
0001
0010
0100
,
1000
0001
1000
0010
1000
0001
0010
0100
2000
0000
3001
0000
0100
0010
1000
0001
,
0010
0100
0010
0001
1000
0010
0200
0300
0001
1000
0100
0010
0001
1000
0010
0100
,
0001
1000
0100
1000
0001
0100
0010
1000
0001
0010
0100
1000
0001
1000
0100
0010
,
0001
1000
0010
0100
0001
0010
0001
1000
0010
0100
0010
0100
0001
1000
0100
0010
,
0001
1000
0010
1000
0001
1000
0100
0010
0001
0000
0100
0000
0001
1000
0100
1000
,
0001
1000
0010
0100
0001
0000
0010
0000
0100
1000
0001
1000
0010
0100
0001
1000
,
0001
0010
0100
1000
0001
0010
0001
1000
0100
0010
0001
1000
0010
0100
0001
1000
,
0010
1000
0100
1000
0001
0100
0010
1000
0001
0010
0001
0100
0010
1000
0100
1000
,
0001
0100
0001
1000
0100
0010
0001
1000
0010
0100
0010
1000
0001
0010
0100
1000
,
0001
0100
0010
0100
0001
1000
0100
1000
0001
0010
0100
1000
0001
0010
0001
1000
,
0010
0100
0001
1000
0010
1000
0001
0010
0001
1000
0100
0010
0100
1000
0001
0100
,
0010
0000
0000
1000
0001
1000
0001
0000
0000
0020
0000
0000
0400
0000
0000
0000
0000
0000
0000
0000
0000
0330
0000
0000
,
2001
0000
3010
0100
0000
0001
0020
0000
,
0030
0000
0000
0100
1000
0001
0100
0010
,
2000
0000
3001
0020
0000
0130
1000
0000
,
0000
0000
0000
0000
0000
0000
0001
1000
0001
0000
0100
0000
0010
0000
1000
0000
,
0200
0000
0310
0001
0000
1000
0020
0000
,
0030
0000
0000
0100
0001
1000
0100
0010
,
0001
1000
0010
0100
0001
1000
0200
0000
,
0000
0000
0000
0000
,
0300
0000
0000
0000
;

//--------------- dance-double - NAOKI ----------------
#NOTES:
     dance-double:
     NAOKI:
     Challenge:
     17:
     0,0,0,0,0:
00000000
00000000
00000000
00000000
,
00000000
00000000
00000000
00000000
,
00000000
00000000
00000000
00000000
,
00000000
00000000
00000000
00000000
,
00000000
00000000
00000000
00000000
,
00200000
00000000
00301000
00020000
00000000
00030100
00000020
00000000
,
00000000
00000000
00000030
00000001
00001000
00000010
00010000
00001000
,
00200000
00000000
01300000
10000000
00000000
00010000
02000000
00000000
,
00000000
00000000
03000000
00010000
10000000
00100000
01000000
00010000
,
00100000
00010000
00100000
00000000
00001000
00000000
00010000
00100000
00010000
00000000
00001000
00000000
00000020
00000000
00000000
00000000
,
00000031
00001000
00000010
00000100
00001000
00010000
01000000
10000000
,
00100000
01000000
00100000
00000000
00010000
00000000
00000010
00000100
00000010
00000000
00001000
00000000
00000100
00000000
00000010
00000000
,
00000001
00000000
00000100
00000000
00000010
00000000
00010000
00001000
00010000
00000000
00001000
00000000
00100000
00000000
00010000
00000000
,
01000000
00100000
01000000
00000000
00010000
00000000
00000100
00000010
00000100
00000000
00001000
00000000
00200000
00000000
00000000
00000000
,
00300000
00000000
00001000
00000000
00010000
00000000
00000100
00000010
00000100
00000000
00001000
00000000
00000001
00000000
00000100
00000000
,
00001000
00010000
01000000
00010000
00001000
00000100
00001000
00010000
,
01000000
00010000
00000000
00001000
00000200
00000000
00000000
00000000
00000000
00000000
00000000
00000000
00000300
00000000
00000000
00000000
,
00000001
00000100
00001000
00010000
00000000
00100000
00010000
00000000
,
00001000
00000010
00000100
00001000
00000001
00000100
00000010
00010000
,
00000000
00000000
00001000
00100000
00010000
00000000
10000000
00100000
00000000
01000000
00001000
00000000
00010000
00000100
00000010
00000000
,
00000001
00001000
00000000
00000010
00010000
00000000
00001000
00100000
00010000
00000000
10000000
00000000
00100000
00000000
01000000
00000000
,
00002000
00000000
00013000
00000100
00000000
00000010
00000001
00000000
,
00001000
00000100
00000000
00010000
00000000
00001000
00100000
00020000
,
00000000
10030000
00100000
01000000
00000000
00001000
00010000
00001000
,
00000000
00010000
00001000
00010000
01000000
00100000
00000000
00000000
,
00100000
00000000
00001000
00010000
00001000
00000000
01000000
00000000
00001000
00010000
00001000
00000000
00100000
00000000
01000000
00000000
,
10000000
00010000
01000000
00100000
00010000
00001000
00000010
00000001
,
00000100
00000000
00001000
00000000
00100000
00010000
00100000
00000000
00001000
00000000
00010000
00000000
00000010
00001000
00000010
00000000
,
00010000
00001000
00100000
01000000
10000000
00010000
01000000
00100000
,
10000000
00010000
10000000
00000000
01000000
00000000
00010000
00000000
00001000
00000000
00000100
00000000
00000001
00001000
00000001
00000000
,
00000010
00001000
00010000
00000100
00001000
01000000
00100000
00010000
,
01000000
00100000
10000000
01000000
00010000
00001000
00000100
00000000
,
00000010
00000000
00010000
00000000
00000000
00000000
00001000
00000000
00000000
00000000
00010000
00000000
00001000
01000000
00010000
00100000
,
01000000
10000000
00010000
01000000
00100000
10000000
00010000
00100000
00001000
00000000
00010000
00000010
00000000
00000100
00000001
00000010
,
00000200
00000000
00010300
00000000
00001000
00000000
00100000
00010000
01000000
00010000
10000000
01000000
00100000
00001000
00010000
00000010
,
00001000
00000100
00010000
00000000
00100000
00000000
00100000
00000000
00010000
00000000
00001000
00000000
00000010
00000000
00000010
00000000
,
00001000
00000000
00010000
00000000
00000100
00000000
00001000
00000000
00000001
00000100
00000010
00000000
00010000
00001000
00000010
00000000
,
00001000
01000000
00100000
00000000
10000000
01000000
00100000
00001000
00010000
00000000
00001000
00000010
00000000
00000100
00001000
00000000
,
00000002
00000003
00001000
00000010
00010000
00001000
00100000
01000000
,
10000000
00100000
00010000
00002000
00003000
00000010
00000002
00000003
,
00020200
00000000
00030300
00000000
02002000
00000000
03003000
00000000
00000100
00010000
00001000
00100000
00010000
01000000
00100000
10000000
,
01000000
00100000
00010000
01000000
00001000
00010000
00000100
00001000
00000001
00001000
00000100
00000010
00001000
00100000
00010000
10000000
,
00200000
00000000
01300000
00000000
00001000
00000000
00010000
00000100
00001000
00000000
00000001
00000000
00000100
00000000
00000010
00000000
,
00022000
00033000
01000000
00022000
00033000
00000100
00022000
00033000
,
00200200
00000000
00300300
00000000
00011000
00000000
02000020
00000000
00000000
00000000
03000030
00000000
00000000
00000000
00040000
00030000
,
00000100
00000010
00000001
00001000
00000100
00010000
00001000
01000000
00100000
00000000
10000000
00010000
00000000
00100000
00001000
00000000
,
00000020
00000000
00000031
00000000
00001000
00000000
00000010
00000100
00001000
00000000
00010000
00000000
00100000
01000000
00010000
00000000
,
10000000
00010000
01000000
00000000
00001000
00000000
00010000
00000010
00001000
00000000
00000100
00000000
00100000
00001000
00010000
00000000
,
02200000
00000000
03300000
00000000
00000220
00000000
00000330
00000000
00000010
00001000
00010000
00000000
00100000
00010000
00001000
00000000
,
00022000
00000000
00033000
00000000
00000000
00000000
01000000
00010000
,
00100000
00000000
00000010
00001000
00000100
00000000
00100000
00010000
,
00000010
00000000
00000000
00000000
00000000
00000000
00000000
00000000
00000000
00000001
00000000
00000000
00000000
00000000
00000000
00000000
00000000
00000000
00000100
00000000
00001000
00000000
00010000
00000000
,
01000000
00000000
00000000
00100000
00001000
00010000
00000010
00000100
,
00002000
00000000
00003000
00000000
00000000
00100000
00010000
01000000
,
00000000
00000100
00001000
00000010
00000000
00000100
00001000
00010000
,
01000000
00000000
00100000
00001000
00000000
00010000
00000100
00000000
,
00000010
00000000
00001000
00000000
00010000
00000000
00100000
00000000
00000000
00000000
00000000
00000000
00010000
00000000
00001000
00000000
00010000
00000000
00001000
00000000
00000000
00100000
00000000
00000000
,
01000000
00000000
10000000
00000000
01000000
00000000
00100000
00000000
00010000
00000000
00001000
00000000
00000100
00000010
00000100
00000000
,
00001000
00000000
00000001
00000000
00000100
00000010
00000100
00000000
00000001
00000000
00001000
00000000
00000100
00000000
00010000
00000000
,
00002000
00000000
00000000
00000000
00000000
00000000
01003000
00000000
00000000
00010000
00000000
00000000
00100000
00000000
00000000
00000000
00000000
00000000
01000000
00000000
10000000
00000000
00010000
00000000
,
01000000
00000000
00010000
00100000
00001000
00010000
00000010
00000100
,
00000001
00000010
00001000
00100000
00010000
00000010
00001000
00010000
,
01000000
00100000
00001000
00000100
00000010
00010000
00001000
00100000
,
10000000
00100000
00001000
00000010
00000001
00000100
00001000
00000100
,
00000010
00001000
00000100
00010000
00001000
01000000
00010000
00100000
00002000
00000000
00000000
00000000
00020000
00000000
00033000
00000000
,
00010000
00000100
00000010
00000100
00010000
00000000
00001000
01000000
,
00100000
00000000
01000000
00000000
00001000
00000000
00000000
00000000
00000010
00000000
00000001
00000000
00001000
00000100
00010000
00001000
,
01000000
00100000
10000000
01000000
00010000
00000000
00001000
00000100
,
00000001
00000000
00000010
00000000
00001000
00000000
00000000
00000000
00010000
01000000
00100000
00010000
01000000
00100000
00010000
00001000
,
00100000
00001000
00000010
00000001
00000202
00000303
00010000
00001000
,
00100000
00000000
01000000
00000000
10000000
00000000
22000000
00000000
33000000
00000000
00010000
00100000
00001000
00010000
00000100
00000010
,
00001000
00010000
00100000
00010000
00001000
00100000
01000000
10000000
,
00010000
00000000
01000000
00000000
00100000
00000000
10000000
00000000
00010000
00100000
00001000
00010000
00000100
00000000
00000000
00000000
,
00010000
00001000
00100000
01000000
00010000
00000000
00001000
00010000
,
00000010
00000000
00001000
00000000
00000100
00000000
00000000
00000000
00010000
00000000
00001000
00000000
00100000
01000000
10000000
00010000
,
01000000
00001000
00010000
00000100
00000010
00000000
00000001
00001000
,
00000010
00000000
00010000
00000000
00100000
00000000
00000000
00000000
01000000
00100000
10000000
00010000
00100000
00001000
00010000
00000100
,
00001000
00000001
00000100
00000010
00010000
00010000
00001000
00100000
,
00010000
01000000
00100000
01000000
00001000
00010000
00000100
00000000
00000010
00000000
00000001
00001000
00000100
00010000
00001000
01000000
,
00100000
10000000
01000000
00100000
00010000
01000000
00100000
10000000
00010000
00100000
00001000
00010000
00000100
00001000
00000010
00000100
,
00000001
00000000
00000000
00000010
00000000
00000000
00001000
00000000
00010000
00000000
00001000
00000000
00010000
00000000
00000000
00100000
00000000
00000000
20000000
00000000
00000000
00000000
00000000
00000000
00020000
00000000
00000000
00000000
00000000
00000000
00000000
00000000
00000000
00000000
00000000
00000000
30030000
00000000
00000000
00000000
00000000
00000000
00000000
00000000
00000000
00000000
00000000
00000000
,
10000000
00000000
00010000
00200000
00000000
00301000
00000020
00000000
,
00000000
00000000
00000030
00000100
00010000
00001000
00100000
00010000
,
02000000
00000000
03100000
00020000
00000000
00030100
00000020
00000000
,
00000000
00000000
00000030
00000000
00000000
00000000
00000100
00000010
00000100
00000000
00010000
00000000
00001000
00000000
00100000
00000000
,
00020000
00000000
01030000
00200000
00000000
00310000
00002000
00000000
,
00000000
00000000
00003000
00010000
00001000
00000010
00000100
00010000
,
00002000
00000000
00003100
00000002
00000000
00000013
00002000
00000000
,
00000000
00000000
00000000
00000000
,
00003000
00000000
00000000
00000000
;
