#TITLE:eternally;
#SUBTITLE:;
#ARTIST:TOMOYUKi;
#TITLETRANSLIT:;
#SUBTITLETRANSLIT:;
#ARTISTTRANSLIT:;
#CREDIT:;
#BANNER:eternally-bn.png;
#BACKGROUND:eternally-bg.png;
#LYRICSPATH:eternally.lrc;
#CDTITLE:NAOKI_cdtitle.png;
#MUSIC:eternally.mp3;
#OFFSET:-0.160;
#SAMPLESTART:74.667;
#SAMPLELENGTH:12.000;
#SELECTABLE:YES;
#BPMS:0.000=183.000;
#STOPS:18.500=0.328
,369.500=0.328
;
#BGCHANGES:;

//---------------dance-single - ----------------
#NOTES:
     dance-single:
     :
     Challenge:
     16:
     0.904,0.876,0.249,0.294,0.434: // measure 1
0000
0000
0000
0000
,  // measure 2
1000
0000
0010
0000
1000
0000
0001
0000
1000
0000
0100
0000
0010
0001
0010
0000
,  // measure 3
0001
0000
0100
0000
0001
0000
1000
0000
0001
0000
0010
0000
0100
1000
0100
0000
,  // measure 4
0010
0000
0100
0000
1000
0000
0001
0000
1000
0000
0010
0000
0100
0001
0100
0000
,  // measure 5
0001
0010
0001
1000
0001
01M0
0010
1000
,  // measure 6
0001
0000
0010
0000
1000
0000
0010
0000
0100
1000
0100
0000
0010
0000
0001
0000
,  // measure 7
1000
0000
0010
0000
0001
0000
0010
0000
0100
0001
1000
0000
0100
0000
0010
0000
,  // measure 8
0001
0000
0100
0000
1000
0000
0100
0000
0010
1000
0010
0000
0100
0000
0001
0000
,  // measure 9
1000
0000
0100
0000
0001
0000
0100
0010
0000
0001
1000
0010
0200
0300
M001
0000
,  // measure 10
0010
0000
M100
0000
0010
0000
M001
0000
0100
0010
M100
0000
0001
0000
M010
0000
,  // measure 11
0100
0000
M001
0000
0100
0000
M010
0000
0001
1000
0001
0000
0100
0000
M010
0000
,  // measure 12
0001
0000
M010
0000
0100
0000
M001
0000
0010
0100
M010
0000
0001
0000
M100
0000
,  // measure 13
0010
0000
M100
0000
0001
0000
M010
0000
0001
1000
0001
0000
0100
0000
001M
0000
,  // measure 14
1000
0000
01M0
0000
0001
0000
M100
0000
0010
0001
0010
0000
0100
0000
100M
0000
,  // measure 15
0010
0000
M100
0000
1000
0000
01M0
0000
0010
1000
0010
0000
0100
0000
00M1
0000
,  // measure 16
1000
0000
010M
0000
0010
0000
M001
0000
0100
0001
0100
0000
0010
0000
1M00
0000
,  // measure 17
0001
0000
M010
0000
1000
0000
001M
0000
0100
1000
0001
0100
0020
0030
100M
0000
,  // measure 18
0100
0000
001M
0000
0100
0000
100M
0000
0010
0100
001M
0000
1000
0000
010M
0000
,  // measure 19
0010
0000
100M
0000
0010
0000
010M
0000
1000
0001
1000
0000
0010
0000
010M
0000
,  // measure 20
1000
0000
010M
0000
0010
0000
100M
0000
0100
0010
010M
0000
1000
0000
001M
0000
,  // measure 21
0100
0000
001M
0000
1000
0000
010M
0000
1000
0001
1000
0000
0010
0000
M100
0000
,  // measure 22
0001
0000
0M10
0000
1000
0000
001M
0000
0100
1000
0100
0000
0010
0000
0M01
0000
,  // measure 23
0100
0000
001M
0000
0001
0000
0M10
0000
0100
0001
0100
0000
0010
0000
1M00
0000
,  // measure 24
0001
0000
M010
0000
0100
0000
10M0
0000
0001
0100
0010
0000
1010
0000
0000
0000
,  // measure 25
0011
1001
0101
1020
,  // measure 26
0031
0000
0010
0000
1000
0001
0010
0000
0100
1000
0100
0000
0010
0000
0001
1000
,  // measure 27
0010
0000
0100
0000
0101
0000
0002
0000
1003
0100
0010
0000
0021
0000
0000
0000
,  // measure 28
1030
0000
0010
0000
0001
1000
0010
0000
0100
0001
0100
0000
0010
0000
1000
0001
,  // measure 29
0010
0100
1100
1001
0101
0000
0200
0310
,  // measure 30
1000
0000
0002
0000
0013
0000
0100
0000
2000
0000
3001
0000
0100
M00M
0100
0000
,  // measure 31
1000
0000
0001
0000
0010
M00M
0010
0000
1000
0001
1000
0000
0200
0000
0310
0000
,  // measure 32
0001
0000
2000
0000
3010
0000
0100
0000
0002
0000
1003
0000
0100
M00M
0100
0000
,  // measure 33
0001
1000
0100
0010
1001
0000
0201
0000
,  // measure 34
1300
0000
0100
0000
0001
1000
0100
0000
0010
0001
0010
0000
0100
0000
1000
0001
,  // measure 35
0100
0000
0010
0000
1010
0000
2000
0000
3001
0010
0100
0000
1200
0000
0000
0000
,  // measure 36
0301
0000
0100
0000
1000
0001
0100
0000
0010
1000
0010
0000
0100
0000
0001
1000
,  // measure 37
0100
0010
0011
1001
1010
0000
0210
0310
,  // measure 38
1000
0000
0002
0000
0013
0000
0100
0000
2000
0000
3000
0010
1000
0000
0001
0010
,  // measure 39
0000
0010
0000
0100
1000
0000
0000
0010
0000
0000
0100
0000
0001
1000
0000
0100
,  // measure 40
0000
0100
0000
0010
0001
0000
1000
0000
0001
0100
0010
0100
0002
0000
2003
0000
,  // measure 41
0000
3200
0320
0032
2000
3003
0010
0000
,  // measure 42
0000
00M0
0000
00M0
0000
0M00
0000
0M00
,  // measure 43
0000
000M
00M0
0M00
M000
0000
1000
0000
,  // measure 44
0000
M000
0000
M000
0000
M000
0000
M000
,  // measure 45
0M00
00M0
000M
0000
000M
0000
0001
0000
,  // measure 46
0000
000M
0000
000M
0000
M000
0000
M000
,  // measure 47
0000
00M0
0M00
0000
0M00
0000
0100
0000
,  // measure 48
0000
0M00
0000
0M00
0000
000M
0000
000M
,  // measure 49
00M0
0M00
M000
0000
M000
0000
2000
0000
,  // measure 50
0001
0001
0000
3010
0100
0000
0100
0001
,  // measure 51
0000
0000
1000
0001
1000
0000
0100
0000
0010
0000
0001
0000
0100
0000
0000
0000
,  // measure 52
0100
0010
0000
0010
1000
0000
0001
0010
,  // measure 53
0000
0010
0100
1000
0010
0100
0002
0000
,  // measure 54
1000
1000
0000
0010
0000
0013
0000
0100
,  // measure 55
0000
0000
1000
0000
0010
0000
0100
0000
0001
0000
1000
0100
0010
0000
0001
0000
,  // measure 56
1000
0000
0010
0100
0001
0000
1000
0000
0100
0000
0010
0001
0010
0000
0100
1000
,  // measure 57
0100
0000
0010
0000
0001
1000
0010
0100
0000
0000
0100
0010
2000
0000
3001
0000
,  // measure 58
0010
1000
0010
0100
1000
0001
0100
0010
,  // measure 59
1000
0000
0100
0000
0001
0000
0100
0000
0010
0000
0001
0100
0010
0000
1000
0000
,  // measure 60
0010
0001
0010
0100
0001
1000
0100
0010
,  // measure 61
0001
0000
0100
0000
1000
0000
0100
0000
0010
0000
1000
0100
0010
0000
0001
0000
,  // measure 62
0100
1000
0100
0010
1000
0001
0010
0100
,  // measure 63
1000
0000
0010
0000
0001
0000
0010
0000
0100
0000
0001
0010
0100
0000
1000
0000
,  // measure 64
0100
0001
0100
0010
0001
1000
0010
0100
,  // measure 65
0001
0000
0010
0000
1000
0000
0010
0000
0100
0000
1000
0100
0010
0000
0001
0000
,  // measure 66
1000
0010
0100
0000
0001
0000
0010
0100
2000
0000
3001
0000
0100
0010
2000
0000
,  // measure 67
3100
0000
0010
0001
2000
0000
3010
0000
0200
0000
0301
0000
1000
0000
0100
0000
,  // measure 68
0010
0001
0010
0000
0100
0000
1000
0001
1000
0000
0010
0000
0100
0001
0100
0000
,  // measure 69
0010
0000
1000
0000
0001
0010
0100
1000
0100
0000
0000
0000
0110
0000
0010
0001
,  // measure 70
1000
0000
0010
0000
0100
0001
1000
0100
0010
0000
0000
0000
0110
0000
0100
1000
,  // measure 71
0001
0000
0100
0000
0010
1000
0001
0010
0100
0000
1000
0001
1000
0000
0010
0000
,  // measure 72
0100
0000
0001
1000
0001
0000
0010
0000
0100
0000
1000
0000
1001
0000
0000
0000
,  // measure 73
0110
0000
0000
0000
1001
0000
1010
0000
0011
0000
0001
0100
0010
0000
1000
0000
,  // measure 74
0100
0000
0001
0000
0100
0000
0010
0000
0001
1000
0001
0000
0100
0000
0010
0000
,  // measure 75
1000
0000
0001
0000
0010
0000
M00M
0000
0010
0000
1000
0100
0010
0000
0001
0000
,  // measure 76
0100
0000
1000
0000
0100
0000
0010
0000
1000
0001
1000
0000
0100
0000
0010
0000
,  // measure 77
0001
0100
2000
0000
3100
0000
0001
1000
,  // measure 78
0010
0000
0001
0000
0010
0000
0100
0000
0001
1000
0001
0000
0010
0000
0100
0000
,  // measure 79
1000
0000
0001
0000
0100
0000
M00M
0000
0100
0000
1000
0010
0100
0000
0001
0000
,  // measure 80
0010
0000
1000
0000
0010
0000
0100
0000
1000
0001
1000
0000
0010
0000
0100
0000
,  // measure 81
0001
0000
1000
0000
0100
0000
M00M
0000
0100
0000
0001
0100
0010
0000
1000
0000
,  // measure 82
0001
0010
0100
0000
1000
0000
0010
0100
0002
0000
1003
0000
0100
0010
0002
0000
,  // measure 83
0103
0000
0010
1000
0002
0000
0013
0000
0200
0000
1300
0000
0001
0000
0100
0000
,  // measure 84
0010
1000
0010
0000
0100
0000
0001
1000
0001
0000
0010
0000
0100
1000
0100
0000
,  // measure 85
0010
0000
0001
0000
1000
0010
0100
0001
0100
0000
0000
0000
0110
0000
0010
1000
,  // measure 86
0001
0000
0010
0000
0100
1000
0001
0100
0010
0000
0000
0000
0110
0000
0100
0001
,  // measure 87
1000
0000
0100
0000
0010
0001
1000
0010
0100
0000
0001
1000
0001
0000
0010
0000
,  // measure 88
0100
0000
1000
0001
1000
0000
0010
0000
0100
0000
0001
0000
1001
0000
0000
0000
,  // measure 89
0110
0000
0101
1001
2200
3300
0100
0010
,  // measure 90
0001
0000
1000
0000
0001
0000
0100
0000
0010
1000
0010
0000
1000
0000
0100
0000
,  // measure 91
1000
0000
0001
0000
1000
0000
0010
0000
0100
0001
0100
0000
0010
0000
0100
0000
,  // measure 92
0001
0000
1000
0000
0001
0000
0010
0000
0100
1000
0100
0000
1000
0000
0010
0000
,  // measure 93
1000
0001
1000
01M0
0010
0001
1000
0010
,  // measure 94
0001
0000
0010
0000
0100
0001
0100
0000
0010
0000
1000
0000
0001
0000
0010
0000
,  // measure 95
1000
0000
0010
0000
0100
1000
0001
0000
0100
0000
0010
0000
1000
0000
0100
0000
,  // measure 96
0001
0000
0100
0000
0010
0001
0010
0000
0100
0000
1000
0000
0001
0000
0100
0000
,  // measure 97
1000
0000
0100
0000
0010
0100
0010
0000
2002
0000
0000
0000
3003
0000
0000
0000
;

//---------------dance-single - ----------------
#NOTES:
     dance-single:
     :
     Beginner:
     1:
     0.114,0.146,0.008,0.045,0.000:
0000
0000
0000
0000
,
0000
0000
0000
0000
,
0000
0000
0000
0000
,
0000
0000
0000
0000
,
0000
0000
0000
0000
,
0000
0000
0000
0000
,
0000
0000
0000
0000
,
0000
0000
0000
0000
,
0000
0000
0000
0010
,
0000
0000
0000
0010
,
0000
0000
0000
0100
,
0000
0000
0000
0100
,
0000
0000
0000
0001
,
0000
0000
0000
0001
,
0000
0000
0000
1000
,
0000
0000
0000
1000
,
0000
0000
0000
0100
,
0000
0000
0000
0100
,
0000
0000
0000
0010
,
0000
0000
0000
0010
,
0000
0000
0000
0001
,
0000
0000
0000
0001
,
0000
0000
0000
1000
,
0000
0000
0000
1000
,
0000
0001
0000
0100
,
0000
0000
0000
0010
,
0000
0000
0000
1000
,
0000
0000
0000
0001
,
0000
0000
0000
0010
,
0000
0000
0000
0100
,
0000
0000
0000
1000
,
0000
0000
0000
0001
,
0000
0000
0000
0100
,
0000
0000
0000
0010
,
0000
0000
0000
1000
,
0000
0000
0000
0100
,
0000
0000
0000
0010
,
0000
0000
0000
0001
,
0000
0000
0000
0100
,
0000
0010
0000
1000
,
0000
0000
0000
0002
,
0000
0003
0000
0020
,
0000
0030
0000
0200
,
0000
0300
0000
1000
,
0000
0001
0000
2000
,
0000
3000
0000
0020
,
0000
0030
0000
0200
,
0000
0300
0000
0001
,
0000
1000
0000
0001
,
0000
0000
0000
0010
,
0000
0000
0000
0100
,
0000
0000
0000
1000
,
0000
0000
0000
0010
,
0000
0000
0000
0100
,
0000
0000
0000
0001
,
0000
0000
0000
1000
,
0000
0001
0000
0010
,
0000
0000
0000
0100
,
0000
0000
0000
1000
,
0000
0000
0000
0001
,
0000
0000
0000
0100
,
0000
0000
0000
0010
,
0000
0000
0000
1000
,
0000
0000
0000
0001
,
0000
0000
0000
1000
,
0000
0000
0000
0100
,
0000
0000
0000
0010
,
0000
0000
0000
0001
,
0000
0000
0000
1000
,
0000
0000
0000
0010
,
0000
0000
0000
0100
,
0000
0001
0000
1000
,
0000
1000
0000
0010
,
0000
0000
0000
0100
,
0000
0000
0000
0001
,
0000
0000
0000
1000
,
0000
0000
0000
0100
,
0000
0000
0000
0010
,
0000
0000
0000
0001
,
0000
0000
0000
1000
,
0000
0000
0000
0001
,
0000
0000
0000
0100
,
0000
0000
0000
0010
,
0000
0000
0000
1000
,
0000
0000
0000
0001
,
0000
0000
0000
0010
,
0000
0000
0000
0100
,
0000
1000
0000
0001
,
0000
0001
0000
0100
,
0000
0000
0000
0010
,
0000
0000
0000
1000
,
0000
0000
0000
0001
,
0000
0000
0010
0000
,
0000
0000
0100
0000
,
0000
0000
1000
0000
,
0000
0000
0001
0000
,
1000
0000
1001
0000
;

//---------------dance-single - Copied from----------------
#NOTES:
     dance-single:
     Copied from:
     Easy:
     7:
     0.281,0.292,0.030,0.113,0.000:
0000
0000
0000
0000
,
0010
0000
0010
0000
,
0100
0000
0100
0000
,
0001
0000
0001
0000
,
1000
0000
1000
0100
,
0000
0100
0000
0010
,
0000
0010
0000
0001
,
0000
0001
0000
1000
,
0000
1000
0000
0010
,
0100
0001
0000
1000
,
0100
0010
0000
0001
,
0100
0010
0000
0100
,
0010
1000
0000
0100
,
0010
0001
0000
1000
,
0010
0100
0000
0001
,
0010
0100
0000
0010
,
0100
1000
0000
0001
,
0001
0010
0000
0001
,
0001
1000
0000
0001
,
0001
0100
0000
0010
,
0100
0010
0000
1000
,
1000
0010
0000
1000
,
1000
0001
0000
1000
,
1000
0100
0000
0010
,
0100
0010
0100
1000
,
0000
0001
0000
0100
,
0010
1000
0000
0001
,
0000
1000
0000
0100
,
0010
0001
0000
1000
,
0000
0001
0000
0010
,
0100
1000
0000
0001
,
0000
1000
0000
0010
,
0100
0001
0000
0010
,
0000
0100
0000
1000
,
0001
0100
0000
0010
,
0000
0100
0000
0001
,
1000
0100
0000
0010
,
0000
0001
0000
1000
,
0000
0010
0000
0110
,
0000
1001
0000
0110
,
0000
0000
0000
0002
,
0000
1000
0000
1000
,
0000
1000
0000
2003
,
0000
0001
0000
0001
,
0000
0001
0000
3002
,
0000
0023
0000
0230
,
0000
1300
0001
2000
,
0000
3020
0000
0230
,
0000
0301
1000
0002
,
0010
0000
0013
0100
,
0000
0100
1000
0002
,
0100
0000
0103
0010
,
0000
0100
0001
2000
,
0100
0000
3100
0010
,
0000
0010
0001
2000
,
0010
0000
3010
0100
,
0001
1000
0100
0010
,
0000
0100
0000
1000
,
0001
0100
0000
0010
,
0000
0100
0000
0001
,
1000
0100
0000
0100
,
0000
0010
0000
0001
,
1000
0010
0000
0100
,
0000
0010
0000
1000
,
0001
0010
0000
0100
,
0000
0010
0000
0001
,
1000
0010
0000
0100
,
0000
0010
0000
1000
,
0001
0010
0100
1000
,
0000
1000
0000
0001
,
0000
0001
0000
0100
,
0000
0010
0000
1000
,
0001
1000
0000
0010
,
0000
0100
0000
0001
,
1000
0100
0000
0010
,
0000
0100
0000
1000
,
0001
0100
0000
0100
,
0000
0010
0000
1000
,
0001
0010
0000
0100
,
0000
0010
0000
0001
,
1000
0010
0000
0100
,
0000
0010
0000
1000
,
0001
0010
0000
0100
,
0000
0010
0000
0001
,
1000
0010
0100
0001
,
0000
0001
0000
1000
,
0000
1000
0000
0100
,
0000
0010
0000
0001
,
1000
0001
0000
0100
,
0000
0100
0000
0010
,
0000
0010
0000
1000
,
0000
1000
0000
0001
,
0000
0000
0002
0003
0010
0000
0000
0000
,
0010
0000
0100
0000
,
0100
0000
1000
0000
,
1000
0000
0001
0000
,
0001
0000
2002
3003
;

//---------------dance-single - ----------------
#NOTES:
     dance-single:
     :
     Medium:
     12:
     0.533,0.584,0.234,0.136,0.000:
0000
0000
0000
0000
,
1000
0010
0100
0001
,
1000
0100
0010
0001
,
0100
0010
1000
0001
,
0010
0000
0100
0000
2000
3000
0001
0000
,
0100
0010
1000
0001
,
0010
0100
1000
0010
,
0100
0001
1000
0100
,
0010
0001
1000
1001
,
0010
0000
0100
0000
0001
1000
0100
0000
,
0010
0000
0001
0000
1000
0010
0100
0000
,
0001
0000
0010
0000
0100
1000
0001
0000
,
0100
0000
0010
0000
1000
0100
0010
0000
,
0001
0000
0100
0000
0010
1000
0001
0000
,
0010
0000
0100
0000
1000
0001
0100
0000
,
0010
0000
1000
0000
0100
0010
0001
0000
,
1000
0010
0100
1001
,
0001
0000
0010
0000
0100
1000
0001
0000
,
0100
0000
0010
0000
1000
0100
0010
0000
,
0001
0000
1000
0000
0010
0100
0001
0000
,
0010
0000
0100
0000
1000
0001
0100
0000
,
0010
0000
1000
0000
0001
0010
0100
0000
,
1000
0000
0001
0000
0100
0010
1000
0000
,
0100
0010
0001
0101
,
1010
1001
0011
2100
,
0001
0000
3010
0100
0001
0000
1000
0100
,
0010
0000
0001
1000
0000
0000
0102
0000
,
1000
0000
0013
0100
1000
0000
0001
0100
,
0010
0000
1000
0001
1000
0000
0100
0010
,
0000
0001
0000
1000
0010
0000
0100
0000
,
0001
1000
0100
0020
,
0031
0000
1000
0010
0100
0000
0001
0010
,
0100
1001
1001
0012
,
1000
0000
0103
0010
1000
0000
0001
0010
,
0100
0000
1000
0001
0000
0000
2010
0000
,
0001
0000
3100
0010
0001
0000
1000
0010
,
0100
0000
0001
1000
0001
0000
0010
0100
,
0000
1000
0000
0001
0100
0000
0010
0000
,
1000
0001
0010
0200
,
1300
0000
0001
0100
0010
0000
1000
0100
,
0010
0001
1001
0200
,
0010
0000
0310
0100
,
0001
1000
0100
0020
,
0100
0000
0130
0010
,
0001
1000
1001
0020
,
0100
0000
0130
0010
,
1000
0001
0010
0200
,
0010
0000
0310
0100
,
1000
0001
1001
2000
,
0010
0000
3010
0100
,
0000
0001
1000
0002
,
0010
0000
0013
0100
,
0000
1000
0001
2000
,
0100
0000
3100
0010
,
0000
0001
1000
0002
,
0100
0000
0103
0010
,
1000
0000
0001
0000
1001
0000
1000
0010
,
0100
0000
0001
0100
0010
0000
1000
0010
,
0100
0001
1000
0000
1001
0000
0001
0100
,
0010
0000
1000
0010
0100
0000
0001
0100
,
0010
1000
0001
0000
1001
0000
1000
0100
,
0010
0000
0001
0010
0100
0000
1000
0100
,
0010
0001
1000
0000
1001
0000
0001
0010
,
0100
0000
1000
0100
0010
0000
0001
0010
,
0100
1000
0001
0000
1001
0000
1000
0010
,
0100
0000
0100
0010
1000
0000
0001
0010
,
0000
0100
1000
0000
1001
0000
0001
0000
,
0100
0010
0000
1000
0001
0000
0010
0100
,
0000
1000
0001
0100
0010
0000
1000
0000
,
1000
0100
0010
0001
,
0001
0100
0010
1000
,
1000
0001
0001
0010
,
0100
0000
1001
0000
1001
0000
0001
0100
,
0010
0000
1000
0010
0100
0000
0001
0100
,
0010
1000
0001
0000
1001
0000
1000
0010
,
0100
0000
0001
0100
0010
0000
1000
0010
,
0100
0001
1000
0000
1001
0000
0001
0010
,
0100
0000
1000
0100
0010
0000
0001
0010
,
0100
1000
0001
0000
1001
0000
1000
0100
,
0010
0000
0001
0010
0100
0000
1000
0100
,
0010
0001
1000
0000
1001
0000
0001
0100
,
0010
0000
0010
0100
0001
0000
1000
0100
,
0000
0010
0001
0000
1001
0000
1000
0000
,
0010
0100
0000
0001
1000
0000
0100
0010
,
0000
0001
1000
0010
0100
0000
0001
0000
,
0001
0010
0100
1000
,
1000
0010
0100
0001
,
0001
1000
1000
0100
,
0010
1001
1001
0001
,
0100
0010
1000
0001
,
0010
0100
1000
0010
,
0100
0001
1000
0100
,
0010
0000
0002
0003
1000
0000
0010
0000
,
0100
0001
1000
0100
,
0010
0001
0100
0010
,
1000
0001
0010
0100
,
1000
0001
2002
3003
;

//---------------dance-single - ----------------
#NOTES:
     dance-single:
     :
     Hard:
     14:
     0.749,0.694,0.143,0.219,0.075:
0000
0000
0000
0000
,
1000
0010
0100
0010
1000
0010
0100
0000
,
0001
1000
0100
1000
0001
1000
0100
0000
,
0010
0001
1000
0001
0010
0001
1000
0000
,
0001
0100
0010
0100
0001
1000
0001
0010
,
0100
0010
0001
0010
0100
0000
1000
0001
,
0100
0001
1000
0001
0100
0000
0010
1000
,
0001
1000
0010
1000
0001
0000
1000
0100
,
0010
0100
1000
0100
0010
0000
1001
0000
,
0010
0100
0001
0100
0010
0000
1000
0000
,
0001
0010
0100
0010
0001
0000
1000
0000
,
0001
0100
0010
0100
0001
0000
1000
0000
,
0100
0010
0001
0010
0100
0000
0100
0000
,
0010
0100
1000
0100
0010
0000
0001
0000
,
1000
0010
0100
0010
1000
0000
0001
0000
,
1000
0100
0010
0100
1000
0000
0001
0000
,
0100
0010
1000
0010
0100
0000
0010
0100
,
1000
0100
0010
1000
0100
0000
0010
0100
,
0001
0100
0010
0001
0100
0000
0001
0010
,
1000
0010
0100
1000
0010
0000
0100
0010
,
0001
0010
0100
0001
0010
0000
0100
1000
,
0010
0100
1000
0100
0010
0000
0100
0001
,
0010
0100
0001
0100
0010
0000
0001
0100
,
0010
1000
0100
0010
0001
0000
0100
0000
,
1001
0110
1001
2010
,
3001
0010
0100
1000
0001
0000
0100
0010
,
1000
0000
0001
0010
1000
0000
0012
0000
,
1003
0010
0100
0001
1000
0000
0100
0010
,
0001
0000
1000
0010
0001
0000
0010
1000
,
0001
0020
0000
0130
2000
3000
0001
0100
,
0010
0010
1000
0100
0001
0000
0200
0000
,
0310
0001
1000
0010
0100
0000
0001
0010
,
0100
1000
0001
0100
0110
0000
0102
0000
,
1003
0100
0010
0001
1000
0000
0010
0100
,
0001
0000
1000
0100
0001
0000
2100
0000
,
3001
0100
0010
1000
0001
0000
0010
0100
,
1000
0000
0001
0100
1000
0000
0100
0001
,
1000
0200
0000
0310
0002
0003
1000
0010
,
0100
0100
0001
0010
1000
0000
0012
0000
,
0103
1200
0301
2010
,
3100
0000
0001
0100
1000
0000
0002
0000
,
0010
0010
0000
1000
0000
0103
0000
0010
,
0000
1000
0001
0000
0000
0000
2000
0000
,
0010
0010
0000
0001
0000
3100
0000
0010
,
0001
0100
0010
0000
0000
0000
2000
0000
,
0100
0100
0000
0001
0000
3010
0000
0100
,
0000
0001
1000
0000
0000
0000
0002
0000
,
0100
0100
0000
1000
0000
0013
0000
0100
,
1000
0010
0100
0000
0001
1000
0002
0000
,
0013
0200
0000
1300
0002
0003
0100
0020
,
0030
1000
0100
0010
0001
0000
0100
0000
,
0100
0010
0000
0010
1000
0000
0001
0010
,
0000
0010
0100
1000
0001
0000
2000
0000
,
3010
0200
0000
0301
0000
1000
0000
0100
,
0000
0010
0001
1000
0010
0100
0001
0010
,
1000
0010
0001
0100
1000
0100
0001
0010
,
0100
0000
1000
0000
0001
1000
0001
1000
0000
0000
0010
0100
0010
0000
1000
0000
,
0100
0001
0100
0010
0001
1000
0010
0100
,
0001
0000
0010
0000
1000
0000
0010
0000
0100
0000
1000
0001
1000
0000
0001
0000
,
0100
1000
0100
0010
1000
0001
0010
0100
,
1000
0010
0001
0010
0100
0001
0010
0100
,
0010
1000
0010
0001
1000
0010
0100
0001
,
1000
0000
0100
0000
0001
0000
0100
0000
0010
0000
0001
1000
0001
0000
1000
0000
,
0010
0001
0010
0100
0001
1000
0100
0010
,
0001
0000
0100
0000
1000
0000
0100
0000
0010
0000
1000
0001
1000
0000
0100
0000
,
0010
0010
0001
1000
1000
0010
0100
0100
,
0001
0000
1000
0001
1000
0000
0000
0000
1001
0000
0000
0000
0010
0000
0010
0000
,
1000
0001
0001
0010
0100
0100
1000
0010
,
0100
0000
0001
1000
0001
0000
0000
0000
1001
0000
0000
0000
1000
0000
0100
0000
,
0020
0001
0000
0130
0000
0010
0002
1000
,
0000
0000
0103
0000
0010
0000
1000
0000
0100
0000
0010
0001
0010
0000
0100
0000
,
1000
0000
0010
1000
0010
0000
0100
0000
0001
0000
1000
0001
1000
0000
0000
0000
,
1001
0000
0000
0000
0001
0000
0100
0000
1000
0000
0100
0010
0100
0000
0001
0000
,
0010
1000
0010
0100
1000
0001
0100
0010
,
1000
0000
0100
0000
0001
0000
0100
0000
0010
0000
0001
1000
0001
0000
1000
0000
,
0010
0001
0010
0100
0001
1000
0100
0010
,
0001
0100
2000
0000
3100
0000
0001
0010
,
0100
0001
0100
1000
0001
0100
0010
1000
,
0001
0000
0010
0000
1000
0000
0010
0000
0100
0000
1000
0001
1000
0000
0001
0000
,
0100
1000
0100
0010
1000
0001
0010
0100
,
1000
0000
0010
0000
0001
0000
0010
0000
0100
0000
0001
1000
0001
0000
0010
0000
,
0100
0100
1000
0001
0001
0100
0010
0010
,
1000
0000
0001
1000
0001
0000
0000
0000
1001
0000
0000
0000
0100
0000
0100
0000
,
0001
1000
1000
0100
0010
0010
0001
0100
,
0010
0000
1000
0001
1000
0000
0000
0000
1001
0000
0000
0000
0001
0000
0010
0000
,
0200
1000
0000
0310
0000
0100
2000
0001
,
0000
0000
3010
0000
0100
0000
0001
0000
0010
0000
0100
1000
0100
0000
0010
0000
,
0001
0000
0100
0001
0100
0000
0010
0000
1000
0000
0001
1000
0001
0000
0000
0000
,
1001
0000
1000
0100
0010
0000
0001
0100
,
0010
0100
0001
0100
0010
0000
1000
0001
,
0010
0001
1000
0001
0010
0000
0100
1000
,
0001
1000
0100
1000
0001
0000
1000
0010
,
0100
0010
1000
0001
1000
0100
0010
0100
,
1000
0100
0010
0000
0001
1000
0010
1000
,
0001
1000
0010
0000
1000
0001
0100
0001
,
1000
0001
0100
0000
0001
0010
0100
0010
,
0001
0010
0100
0000
2002
0000
3003
0000
;
