#TITLE:arrogance;
#SUBTITLE:;
#ARTIST:TOMOYUKIvsYAGISUKE;
#TITLETRANSLIT:;
#SUBTITLETRANSLIT:;
#ARTISTTRANSLIT:;
#GENRE:;
#CREDIT:;
#MUSIC:arrogance.ogg;
#BANNER:arrogance-bn.png;
#BACKGROUND:arrogance-bg.png;
#CDTITLE:NAOKI_cdtitle.png;
#SAMPLESTART:63.580;
#SAMPLELENGTH:12.680;
#SELECTABLE:YES;
#OFFSET:-0.107;
#BPMS:0.000=155.000
,114.000=310.000
,114.500=155.000
,114.750=77.500
,115.000=155.000
,163.000=232.500
,164.000=155.000
,166.000=310.000
,167.500=155.000
,170.000=310.000
,172.000=155.000
,180.000=310.000
,181.000=155.000
,184.000=310.000
,184.500=155.000
,184.750=77.500
,185.000=310.000
,185.500=155.020
,185.750=77.500
,186.000=155.000
,190.000=310.000
,190.500=155.000
,190.750=77.500
,191.000=155.000
,192.000=232.500
,196.000=155.000
;
#STOPS:163.000=0.129
,166.000=0.033
,166.167=0.033
,166.333=0.033
,166.500=0.033
,166.667=0.033
,166.833=0.033
,167.000=0.033
,167.167=0.033
,167.333=0.033
,170.000=0.097
,170.500=0.097
,171.000=0.097
,171.500=0.097
,180.000=0.097
,180.500=0.097
,192.167=0.043
,192.500=0.043
,192.833=0.043
,193.167=0.043
,193.500=0.043
,193.833=0.043
,194.125=0.032
,194.375=0.032
,194.625=0.032
,194.875=0.032
,195.083=0.022
,195.250=0.022
,195.417=0.022
,195.583=0.022
,195.750=0.022
,195.917=0.022
;
#DISPLAYBPM:155.000;
#BGCHANGES:;
#FGCHANGES:;

//--------------- dance-single - NAOKI ----------------
#NOTES:
     dance-single:
     NAOKI:
     Beginner:
     2:
     0.212,0.255,0.017,0.147,0:
0000
0000
0000
0000
,
0000
0000
0000
0000
,
0000
0000
0000
0000
,
0000
0000
0000
0000
,
0000
0000
0000
0000
,
0000
0000
0000
0000
,
0000
0000
0000
0000
,
0000
0000
0000
0000
,
0000
0000
0000
0000
,
1000
0000
1000
0000
,
0001
0000
0001
0000
,
0010
0000
0010
0000
,
0100
0000
0100
0000
,
1000
0001
0100
0010
,
1000
0001
0010
0100
,
1000
0000
0001
0000
,
1001
0000
0000
0000
,
1000
0010
0000
0010
,
0100
0001
0000
1000
,
0100
0000
0010
0000
,
0002
0000
1003
0000
,
0001
0100
0000
0100
,
0010
1000
0000
0001
,
0010
0100
1000
0001
,
0100
0100
0010
0010
,
1000
0100
0000
0100
,
0010
0001
0000
1000
,
0010
0100
0001
1000
,
0100
0010
0002
0003
,
0001
0010
0000
0010
,
0100
1000
0000
0001
,
0100
0100
0010
0000
,
2000
0000
3001
0000
,
1000
0000
0000
0000
,
0100
0000
0000
0000
,
0010
0000
0000
0000
,
0001
0000
0000
0000
,
1000
0000
0000
0000
,
0010
0000
0000
0000
,
0100
0000
0000
0000
,
0001
0000
0000
1000
,
0000
0000
0000
0000
0002
0000
0000
0003
,
0100
0100
0010
0010
,
2000
0002
3000
0003
,
0020
0000
0030
0000
,
0100
1000
0001
0100
,
0020
0030
1000
0001
,
0010
0000
0100
1000
,
0001
0000
0200
0300
,
0010
0000
0010
0000
,
1000
0000
1000
0000
,
0100
0000
0100
0000
,
0010
0000
0010
0000
,
0001
0000
0001
0000
,
0100
0000
0100
0000
,
0010
0000
0010
0000
,
1000
0000
0000
0000
,
0002
0000
0010
0003
,
2000
0000
0010
3000
,
0002
0000
0100
0003
,
2000
0000
0100
3000
,
0001
0100
0000
0100
,
0010
1000
0000
0001
,
0010
0100
0000
0100
,
1000
0000
0001
0000
,
2000
0010
0000
3000
,
0002
0000
0010
0003
,
2000
0000
0100
3000
,
0002
0000
0100
0003
,
1000
0100
0000
0100
,
0010
0001
0000
1000
,
0010
0100
0000
0100
,
0001
0000
1000
0000
,
0000
0100
0010
0001
,
1001
0000
0000
0000
;

//--------------- dance-single - NAOKI ----------------
#NOTES:
     dance-single:
     NAOKI:
     Easy:
     8:
     0.338,0.387,0.078,0.207,0:
0000
0000
0000
0000
,
0000
0000
0000
0000
,
0000
0000
0000
0000
,
0000
0000
0000
0000
,
0000
0000
0000
0000
,
0000
0000
0000
0000
,
0000
0000
0000
0000
,
0000
0000
0000
0000
,
0000
0000
0000
0000
,
0010
0010
1000
1000
,
0001
0001
0010
0010
,
0100
0100
1000
1000
,
0001
0001
0100
0100
,
0010
1000
0001
0010
,
0100
1000
0001
0100
,
0020
0000
0100
0130
,
1001
0000
0000
0000
,
0010
1000
0100
0001
,
0100
0010
0001
1000
,
0010
0100
0001
1000
,
0200
0010
0310
0100
,
0010
0001
0100
1000
,
0100
0010
1000
0001
,
0010
0100
1000
0001
,
0100
0100
0010
0010
,
0100
0001
0010
1000
,
0010
0100
1000
0001
,
0200
0300
0000
0000
0020
0000
0030
0000
2000
0000
0000
3000
0002
0000
0000
0000
,
1003
0100
0020
0030
,
0001
1000
0010
0100
,
0001
1000
0100
0010
,
0001
0001
1000
0000
,
1000
1000
0001
0000
,
2010
0001
0000
3100
,
0010
0001
1000
0100
,
0012
1000
0000
0103
,
0010
1000
0001
0010
,
2100
0001
0000
3010
,
0100
0001
1000
0010
,
0102
1000
0000
0013
,
0100
1000
0001
0200
,
0310
1000
0001
0000
,
0010
0010
0100
0100
,
2000
0002
3000
0103
,
0220
0030
0010
0310
,
1000
0001
0010
0100
,
1000
0001
0100
0010
,
1000
0100
0010
0000
,
0001
0100
0010
1001
,
1000
1000
0001
0001
,
0010
0010
0100
0100
,
1000
1000
0001
0001
,
0100
0100
0010
0010
,
1000
0001
0010
0100
,
1000
0001
0100
0010
,
1000
1000
0001
0001
,
1001
0000
0100
0000
,
0020
0100
1030
0001
,
0020
0100
0031
1000
,
0010
0100
0001
1000
,
0200
0001
1300
0010
,
0100
0100
0001
1000
,
0100
0100
1000
0001
,
0100
0100
0010
0010
,
1000
0000
0001
0000
,
0020
0100
0031
1000
,
0020
0100
1030
0001
,
0010
0100
1000
0001
,
0200
1000
0301
0010
,
0100
0100
1000
0001
,
0100
0100
0001
1000
,
0100
0100
0010
0010
,
0001
0100
0010
1000
,
0000
0001
0010
0100
,
2002
0000
0000
3003
;

//--------------- dance-single - NAOKI ----------------
#NOTES:
     dance-single:
     NAOKI:
     Medium:
     10:
     0.394,0.419,0.078,0.173,0.004:
0000
0000
0000
0000
,
0000
0000
0000
0000
,
0000
0000
0000
0000
,
0000
0000
0000
0000
,
0000
0000
0000
0000
,
0000
0000
0000
0000
,
0000
0000
0000
0000
,
0000
0000
0000
0000
,
0000
0000
0000
0000
,
0010
0010
1000
0001
,
0010
0010
0100
1000
,
0001
0001
0100
0010
,
1000
1000
0001
0010
,
0100
1000
0001
0000
0100
0010
1000
0000
,
0001
0010
0100
0000
1000
0001
0100
0000
,
0010
0100
0001
1000
0100
0010
0001
0000
,
1001
0000
0000
0000
,
0002
0000
1003
0000
0010
0100
0001
0000
,
1000
0100
0010
0001
,
1000
0010
0100
0001
,
0020
0100
0000
0130
,
2000
0000
3001
0000
0100
0010
1000
0000
,
0001
0010
0100
1000
,
0002
0103
2000
3100
,
0001
0100
0010
0000
1000
0010
0100
0000
,
0002
0000
1003
0000
0100
0010
0001
0000
,
1000
0010
0100
0001
,
1000
0000
0100
0000
0010
0000
0001
0000
0100
0000
0010
0000
,
1000
0100
0010
0001
0200
0000
0310
0000
,
2000
0000
3001
0000
0010
0100
1000
0000
,
0001
0100
0010
1000
,
0001
0010
0100
0000
,
1000
0010
0100
0001
,
1002
0010
0000
0013
,
0100
0000
0100
1000
,
2001
0010
0000
3010
,
0100
0000
0100
0001
,
1002
0100
0000
0103
,
0010
0000
0010
1000
,
2001
0100
0000
3100
,
0010
0000
0010
0002
,
0103
0000
0010
0000
2000
0000
0000
3000
,
0100
0010
0001
1000
,
0010
0020
0030
0100
,
0002
0000
0000
0003
0010
0000
0100
0000
,
1000
0001
0100
0000
0010
0000
1000
0000
,
0002
0000
0000
0000
1003
0000
0000
0000
0001
0000
0000
1000
0000
0000
0001
0000
,
0010
0100
1000
0001
,
0100
0100
0010
1001
,
1000
1000
0100
0100
,
0010
0010
0001
0001
,
0100
0100
0010
0010
,
1000
1000
0100
0100
,
0010
0001
1000
0000
0010
0100
0001
0000
,
1000
0100
0010
0000
0001
1000
0010
0000
,
0100
0010
1000
0001
0010
0100
1000
0000
,
1001
0000
0000
0000
,
0001
0010
0001
1000
0001
0100
0001
0000
,
1000
0010
1000
0001
1000
0100
1000
0000
,
0001
0100
0010
0000
1000
0000
0001
0000
,
1000
0100
0010
0000
0001
0000
1000
0000
,
0001
0100
0001
1000
0001
0010
0001
0000
,
1000
0100
1000
0001
1000
0010
1000
0000
,
0001
0010
0100
0000
1000
0000
0001
0000
,
1000
0010
0100
0000
0001
0000
1001
0000
,
1000
0100
0010
0000
0001
0000
1000
0000
,
0010
0100
0001
0000
1000
0000
0100
0000
,
0010
0001
1000
0000
0010
0000
0100
0000
,
0001
0010
0100
0000
1000
0100
0010
0000
,
0001
0100
0010
0000
1000
0000
0001
0000
,
0010
0100
1000
0000
0001
0000
0100
0000
,
0010
1000
0001
0000
0010
0000
0100
0000
,
2000
0001
0000
3001
,
0100
0010
1000
0001
,
2002
0000
0000
3003
;

//--------------- dance-single - NAOKI ----------------
#NOTES:
     dance-single:
     NAOKI:
     Hard:
     13:
     0.662,0.806,0.173,0.319,0.496:
0000
0000
0000
0000
,
0000
0000
0000
0000
,
0000
0000
0000
0000
,
0000
0000
0000
0000
,
0000
0000
0000
0000
,
0000
0000
0000
0000
,
0000
0000
0000
0000
,
0000
0000
0000
0000
,
0000
0000
0000
0000
,
1010
1010
0101
0101
,
1010
0011
1100
0101
,
0011
0011
1100
1100
,
0011
1010
0101
1100
,
0010
0001
1000
0010
0100
0010
1000
0001
,
0010
0100
1000
0100
0010
0001
0100
0010
,
1000
0010
1000
0000
0001
0010
0001
0000
1000
0100
1000
0000
0001
0100
0001
0000
,
1001
0000
0000
0000
0000
0000
0000
0000
1000
0100
0010
0000
0001
0100
0010
0000
,
1000
0000
0001
0000
0020
0000
0130
0000
1000
0000
0001
0100
0010
0000
0000
0000
,
0100
0001
1000
0100
0010
0001
1000
0000
,
0010
0100
0001
0000
1000
0100
0010
0000
,
0002
0100
1000
0013
,
0001
0000
1000
0000
0020
0000
0130
0000
0001
0000
1000
0100
0010
0000
0000
0000
,
0001
0010
0100
0000
1000
0100
0010
0000
,
0100
0000
0000
1000
0000
0000
0100
0000
0000
0000
0000
0000
0010
0000
0000
0001
0000
0000
0010
0000
0000
0000
0000
0000
0001
0000
0000
0000
0100
0000
0000
0000
0010
0000
0000
0000
2000
0000
0000
0000
0000
0000
0000
0000
3000
0000
0000
0000
,
0002
0003
0000
0000
0000
0000
0000
0000
2000
0000
3000
0000
0000
0000
0000
0000
0002
0000
0000
0003
0000
0000
0000
0000
2000
0000
0000
0000
3000
0000
0000
0000
0020
0000
0000
0000
0000
0030
0000
0000
0200
0000
0000
0000
0000
0000
0300
0000
0020
0000
0000
0000
0000
0000
0000
0030
0200
0000
0000
0000
0000
0000
0000
0000
,
0301
0000
1000
0000
0200
0000
0310
0000
0001
0000
1000
0010
0100
0000
0000
0000
,
0010
1000
0001
0010
0100
1000
0001
0000
,
1000
0010
1000
0001
0010
0001
1000
0100
1000
0001
0100
0001
,
1000
0100
0010
0001
2000
0000
3001
0000
,
1000
0000
0001
0000
0200
0000
0310
0000
1000
0000
0001
0010
0100
0000
0000
0000
,
1000
0010
0100
0000
0001
0100
0010
0000
,
0100
0000
0001
0000
0100
0000
0010
0000
1000
0000
0010
0000
0200
0000
0000
0300
0000
0000
0001
0000
0000
0000
0000
0000
,
1000
0000
0010
0100
0010
0000
1000
0000
0001
0000
0010
0000
0100
0000
0000
0000
,
0012
0000
0000
0010
0000
0000
0013
0000
0000
0100
0000
0000
1000
0000
0000
0001
,
0100
0000
0010
0000
0000
0000
1000
0000
0000
0100
0000
0000
0010
0000
0001
0000
,
2000
0000
0000
0010
0000
0000
3010
0000
0000
0100
0000
0000
0001
0000
0000
1000
,
0100
0000
0010
0000
0000
0000
0001
0000
0000
0100
0000
0000
0010
0000
1000
0000
,
0002
0000
0000
0100
0000
0000
0103
0000
0000
0010
0000
0000
1000
0000
0000
0001
,
0010
0000
0100
0000
0000
0000
1000
0000
0000
0010
0000
0000
0100
0000
0001
0000
,
2000
0000
0000
0100
0000
0000
3100
0000
0000
0010
0000
0000
0001
0000
0000
1000
,
0010
0000
0100
0000
0000
0000
0001
0000
0000
1000
0000
0000
0200
0000
0000
0000
,
0310
0000
0001
1000
0020
0000
0000
0030
,
0100
0000
0001
1000
0000
0001
1000
0000
0200
0000
0320
0000
0032
0000
2003
0000
,
3010
0100
0002
0000
1000
0000
0013
0100
,
2000
0000
0001
0000
3010
0100
0010
0100
,
0002
0000
0000
2003
0000
0000
3001
0000
0010
0000
0001
0000
1000
0000
0010
0000
1000
0000
0001
0000
0010
0000
0100
0000
,
2000
0000
0000
0000
3002
0000
0000
0000
0103
0000
0010
1000
0000
0001
0010
0000
,
0100
0000
0000
0000
0000
0000
0010
0000
0000
0001
0000
0000
0000
0000
0000
1000
0000
0000
0010
0000
0000
0000
0000
0000
0200
0000
0000
0000
0000
0000
0000
0000
0000
0300
0000
0000
0001
0000
0000
0000
0100
0000
0000
0000
0001
0000
0000
0000
,
1000
0000
0000
0000
0100
0000
0000
0000
1000
0000
0000
0000
0001
0000
0000
0000
0100
0000
0000
0000
0010
0000
0000
0000
1000
0000
0000
0001
0000
0000
1000
0000
0000
0000
0000
0000
0200
0000
0000
0000
0000
0000
0000
0000
0000
0000
0000
0000
,
0310
0010
0001
0001
,
1000
1000
0010
0010
,
0100
0100
0001
0001
,
1000
1000
0100
0100
,
0010
0001
1000
0001
0100
0010
1000
0010
,
0100
0001
1000
0100
0010
0001
0010
0100
,
1000
0100
1000
0000
0001
0100
0001
0000
1000
0010
1000
0000
0001
0010
0001
0000
,
1001
0000
0000
0000
,
1000
0010
0100
0010
1000
0010
0100
0010
,
1000
0001
0010
0100
0010
0001
0010
0100
,
1000
0100
0010
0100
1000
0100
0010
0100
,
1000
0001
0100
0010
0100
0001
0100
0010
,
1000
0000
0100
0000
0010
0001
0000
1000
0010
0000
0100
0001
0000
1000
0000
0000
,
0001
0000
0100
0000
0010
1000
0000
0001
0010
0000
0100
1000
0000
0001
0000
0000
,
1000
0000
0010
0000
0100
0001
0000
1000
0100
0000
0010
0001
0000
1000
0000
0000
,
0010
0000
0100
0000
0000
0000
0001
0000
1000
0100
0010
0000
0001
0100
0010
0000
,
1000
0000
0001
0000
0010
0100
0000
0010
0001
0000
1000
0010
0000
0100
0000
0000
,
0001
0000
1000
0000
0100
0010
0000
0100
1000
0000
0001
0100
0000
0010
0000
0000
,
1000
0010
1000
0000
0001
0100
0000
0010
1000
0000
0001
0010
0000
0100
1000
0000
,
0001
0010
0001
0000
1000
0010
0000
0100
0001
0000
1000
0100
0000
0010
0000
0000
,
0001
0100
0001
0000
1000
0100
0000
0010
0001
0000
1000
0010
0000
0100
0001
0000
,
1000
0100
1000
0000
0001
0100
0000
0010
1000
0000
0001
0010
0000
0100
0000
0000
,
1000
0001
1000
0000
0010
0100
0000
0001
1000
0000
0100
0010
0000
0001
1000
0000
,
0020
0100
0000
0130
0001
1000
0100
0010
,
0000
0000
0000
0000
0001
0000
1000
0000
0010
1000
0010
0000
0100
0001
0100
0000
,
2002
3000
0000
0003
;

//--------------- dance-single - NAOKI ----------------
#NOTES:
     dance-single:
     NAOKI:
     Challenge:
     17:
     0.849,1,0.155,0.337,0.966:
0000
0000
0000
0000
,
0000
0000
0000
0000
,
0000
0000
0000
0000
,
0000
0000
0000
0000
,
0000
0000
0000
0000
,
0000
0000
0000
0000
,
0000
0000
0000
0000
,
0000
0000
0000
0000
,
0000
0000
0000
0000
,
1010
1010
0101
0101
,
1001
1100
1001
0101
,
0011
0011
1100
1100
,
1001
0011
1001
1010
,
0010
0100
0001
0100
0010
1000
0001
0010
,
0100
0010
0001
1000
0010
0100
0010
1000
,
0001
0010
0100
0010
0001
1000
0001
0100
0010
1000
0001
0010
0001
1000
0100
0010
,
0001
0000
1000
0000
0000
0000
1000
0000
0010
0100
0001
0000
1000
0100
0010
0000
,
0001
0000
0100
0000
2000
0000
3100
0000
0010
0000
1000
0001
0020
0000
0130
0000
,
1000
0000
0001
0100
0010
0000
1000
0000
0001
0000
0010
0100
1000
0000
0000
0000
,
0100
0000
0010
0001
1000
0000
0010
0000
0100
0000
0001
1000
0100
0000
0010
0000
,
0002
0000
1000
0000
0000
0000
0103
0000
0010
0000
1000
0000
0001
0000
0010
0100
,
1000
0000
0100
0000
0002
0000
0103
0000
0010
0000
0001
1000
0020
0000
0130
0000
,
0001
0000
1000
0100
0010
0000
0001
0000
1000
0000
0010
0100
0001
0000
1000
0000
,
0100
0000
0000
0010
0000
0000
0001
0000
0000
0000
0000
0000
0100
0000
0000
0010
0000
0000
1000
0000
0000
0000
0000
0000
0001
0000
0000
0000
0010
0000
0000
0000
0100
0000
0000
0000
2000
0000
0000
0000
0000
0000
3001
0000
0000
0000
0000
0000
,
0200
0300
0000
0000
0000
0000
0000
0000
0020
0000
0030
0000
0000
0000
0000
0000
0200
0000
0000
0300
0000
0000
0000
0000
0020
0000
0000
0000
0030
0000
0000
0000
2000
0000
0000
0000
0000
3000
0000
0000
0002
0000
0000
0000
0000
0000
0003
0000
2000
0000
0000
0000
0000
0000
0000
3000
0002
0000
0000
0000
0000
0000
0000
0000
,
0013
0000
0100
1000
0001
0000
0100
0000
0010
0000
1000
0100
0002
0000
0103
0000
,
0010
0000
0001
0000
1000
0000
0010
0000
0100
0000
0001
0010
0100
0000
0000
0000
,
1000
0010
0100
1000
0100
0010
1000
0001
0010
0100
0001
0100
,
0010
0001
1000
0010
0100
0001
0010
0100
2000
0000
0000
0000
3001
0000
0100
0000
,
0010
0000
1000
0001
0010
0000
0100
0000
1000
0000
0001
0100
2000
0000
3100
0000
,
0010
0000
1000
0000
0001
0000
0010
0000
0100
0000
1000
0001
0100
0000
0000
0000
,
0010
0000
0000
0000
1000
0000
0000
0000
0100
0000
0000
0000
0010
0000
0000
0000
0001
0000
0000
0000
0100
0000
0000
0000
0020
0000
0000
0000
0000
0000
0030
0000
0000
1000
0000
0000
0001
0000
0000
0000
0000
0000
0010
0000
0000
0000
0000
0000
,
0200
0000
1300
0001
0100
0010
1000
0001
0020
0000
0130
1000
0001
0000
0100
0000
,
0020
0000
0000
0001
0000
0000
0100
0000
0000
1030
0000
0000
0010
0000
0000
0100
,
0001
0000
0000
0010
0000
0000
0100
0000
1000
0001
0000
0000
0100
0000
0001
0000
,
0020
0000
0000
1000
0000
0000
0100
0000
0000
0031
0000
0000
0100
0000
0000
0001
,
1000
0001
0000
0000
0010
0000
0100
0000
1000
0001
0000
0000
0100
0000
0010
0000
,
1000
0001
1000
0100
0000
0010
0001
0000
1000
0010
0000
0010
0100
0000
0000
0001
,
1000
0000
0001
0010
0000
0100
1000
0000
0001
0100
0000
0100
0010
0000
0000
1000
,
0001
0000
0010
0100
0000
0010
0001
0000
1000
0010
0000
0100
0001
0000
1000
0100
,
0010
0000
0001
0000
1000
0000
0001
0000
1000
0000
0010
0000
0100
0000
0000
0000
0100
0000
0001
0000
0000
0000
0000
0000
2002
3003
0000
0000
0000
0000
0000
0000
,
1000
0100
0010
0001
0400
0000
0000
0300
,
0020
0030
1000
0200
0300
0010
0002
0003
0200
0000
0320
0000
2030
0000
3200
0000
,
0310
0000
0000
0000
0000
0000
0000
0000
0000
0000
0000
0000
0002
0000
0000
0000
0000
0000
0000
0000
0000
0000
0000
0000
1003
0000
0000
0000
0000
0000
0010
0000
0000
0000
0000
0000
0100
0000
0000
0000
0000
0000
0001
0000
0000
0000
0000
0000
1000
0000
0000
0000
0100
0000
0000
0000
1000
0000
0000
0000
0001
0000
0000
0000
0100
0000
0000
0000
0010
0000
0000
0000
4000
0000
0000
0004
0000
0000
0000
0000
0000
0000
0000
0000
0000
0000
0000
0000
0000
0000
3000
0000
0000
0003
0000
0000
,
1000
0000
0100
0000
0010
0000
0001
0000
1000
0000
0001
0000
0100
0000
0010
0000
0100
0000
0001
0000
1000
0000
0001
0000
0010
0000
0100
0000
0010
0000
0001
0000
1000
0000
0001
0000
1000
0000
0000
0010
0000
0000
0100
0000
0000
0000
0000
0000
,
0002
0000
0000
0000
0000
0000
0000
0000
0000
0000
0000
0000
0000
0000
0000
0000
0000
0000
0000
0000
0000
0000
0000
0000
2003
0000
0000
0000
0000
0000
0000
0000
0000
0000
0000
0000
0000
0000
0000
0000
0000
0000
0000
0000
0000
0000
0000
0000
3100
0000
0000
0000
0000
0000
0000
0000
0000
0000
0000
0000
0000
0000
0000
0000
0000
0000
0000
0000
0010
0000
0000
0000
0000
0000
0000
0000
0000
0000
0000
0000
0000
0000
0000
0001
0000
0000
0000
0000
0000
0000
0000
0000
0000
0000
0000
0000
1000
0000
0000
0000
0000
0000
0000
0000
0000
0000
0000
0000
0000
0000
0000
0000
0010
0000
0000
0000
0000
0000
0000
0000
0000
0000
0000
0000
0000
0000
0000
0000
0100
0000
0000
0000
0000
0000
0000
0000
0000
0000
0000
0000
0000
0000
0000
0000
0001
0000
0000
0000
0000
0000
0000
0000
0000
0000
0000
0000
0000
0000
0000
0000
0010
0000
0000
0000
0000
0000
0000
0000
0000
0000
0000
0000
0000
0000
0000
0000
0100
0000
0000
0000
0000
0000
0000
0000
0000
0000
0000
0000
0000
0000
0000
0000
,
2000
0000
0000
0000
3002
0000
0000
0000
0103
0000
0001
1000
0000
0100
0010
0000
,
0001
0000
0000
0000
0000
0000
1000
0000
0000
0010
0000
0000
0200
0000
0000
0000
0000
0000
0001
0000
0000
0300
0000
0000
0020
0000
0000
0000
0000
0000
0000
0000
0000
0030
0000
0000
1000
0000
0000
0000
0001
0000
0000
0000
0010
0000
0000
0000
,
1000
0000
0000
0000
0010
0000
0000
0000
0001
0000
0000
0000
0100
0000
0000
0000
0010
0000
0000
0000
1000
0000
0000
0000
0001
0000
0000
0010
0000
0000
0100
0000
0000
1000
0000
0000
0001
0000
0100
0000
0010
0000
0100
0000
0001
0000
0100
0000
,
0020
0000
0030
0100
0001
0000
1000
0000
0100
0020
0000
0030
0100
0000
1000
0001
,
0100
0000
0010
1000
0000
0001
0010
0000
0100
0001
0000
0100
1000
0000
0010
0000
,
0200
0000
0300
0010
1000
0000
0001
0000
0010
0200
0000
0300
0010
0000
0001
1000
,
0010
0000
0100
0001
0000
1000
0100
0000
0010
1000
0000
0010
0001
0000
0100
0000
,
0010
1000
0100
0010
0001
0100
0010
1000
,
0001
0000
0010
0000
0100
0000
1000
0000
0001
0100
0000
0010
1000
0001
0010
0000
,
0100
1000
0001
0100
0010
1000
0001
0010
0100
1000
0010
0100
0001
1000
0100
0010
,
0001
0000
0000
0000
,
4000
0010
0100
0000
0100
0010
0000
0100
0010
0000
0010
0100
3000
0010
0100
0001
,
0040
0100
1000
0000
0100
0001
0000
0100
1000
0000
0100
0001
0030
0100
1000
0001
,
0400
0010
1000
0000
0010
0001
0000
0010
1000
0000
0010
0001
0300
0010
1000
0100
,
0004
0100
0010
0000
0100
0010
0000
0010
0100
0000
0010
0100
0003
0100
0010
0001
,
1000
0010
0100
0001
1000
0100
1000
0001
0100
0010
0100
0001
1000
0100
0010
0001
,
1000
0010
1000
0001
0010
0100
0010
0001
1000
0010
0100
0001
1000
0100
1000
0001
,
0100
0010
1000
0001
0010
0100
0010
0001
1000
0010
0100
1000
0100
0010
1000
0001
,
0010
0000
0100
0000
0000
0000
0100
0000
1000
0001
1000
0001
0100
0000
0010
0000
,
0100
0010
0001
0010
0100
0001
1000
0100
0010
0000
0001
0100
0000
0010
1000
0000
,
0100
0010
1000
0010
0100
1000
0001
0100
0010
0000
1000
0001
0000
0010
0100
0000
,
0010
0001
1000
0010
0100
0100
0001
1000
0100
0000
0010
0001
0000
1000
0010
0000
,
0100
0010
1000
0001
0010
0001
1000
0100
0010
0000
0100
1000
0000
0001
0100
0000
,
0010
0100
1000
0100
0010
1000
0001
0010
0100
0000
1000
0010
0000
0100
0001
0000
,
0010
0100
0001
0100
0010
0001
1000
0010
0100
0000
0001
1000
0000
0100
0010
0000
,
0100
1000
0001
0100
0010
0010
0100
0001
1000
0000
0100
0010
0000
0001
1000
0000
,
0020
0100
0000
0001
0000
1000
0000
0100
,
0030
0000
0000
0000
1000
0000
0001
0000
0010
0100
1000
0000
0001
0100
0010
0000
,
0220
0030
0000
0300
;
