#TITLE:Zero Steiner;
#SUBTITLE:;
#ARTIST:DJ SHARPNEL;
#TITLETRANSLIT:;
#SUBTITLETRANSLIT:;
#ARTISTTRANSLIT:;
#GENRE:;
#CREDIT:NAOKI;
#MUSIC:Zero-Steiner.ogg;
#BANNER:Zero-Steiner-bn.png;
#BACKGROUND:Zero-Steiner-bg.png;
#CDTITLE:naokicdtitle.png;
#SAMPLESTART:97.760;
#SAMPLELENGTH:20.539;
#SELECTABLE:YES;
#OFFSET:0.101;
#BPMS:0.000=198.649;
#STOPS:;
#BGCHANGES:;
#FGCHANGES:;

//--------------- dance-single - DS FS XO SS- ----------------
#NOTES:
     dance-single:
     DS FS XO SS-:
     Easy:
     13:
     0,0,0,0,0:
0000
0000
0000
0000
,
1000
0000
0001
0000
0100
00M0
0100
0000
1000
0000
0001
0000
0200
0000
0010
0000
,
0301
0000
1000
0000
0100
00M0
0100
0000
0001
0000
1000
0000
0200
0000
0010
0000
,
1300
0000
0001
0000
0010
0M00
0010
0000
1000
0000
0001
0000
0020
0000
0100
0000
,
0031
0000
1000
0000
0010
0M00
0010
0000
0001
0000
1000
0000
0001
0100
0010
0100
,
0001
0000
1000
0000
0100
00M0
0100
0000
0001
0000
1000
0000
0200
0000
0010
0000
,
1300
0000
0001
0000
0100
00M0
0100
0000
1000
0000
0001
0000
0200
0000
0010
0000
,
0301
0000
1000
0000
0010
0M00
0010
0000
0001
0000
1000
0000
0020
0000
0100
0000
,
1030
0000
0100
0000
0010
0000
0010
0000
0100
1000
0000
0001
0100
0000
0010
0000
,
1000
0010
1000
0001
0010
0000
0100
0000
1000
0001
0100
0001
1000
0000
0100
0000
,
0010
0001
1000
0001
0100
0000
0010
0000
1000
0001
0010
0001
1000
0000
0010
0000
,
1000
0100
1000
0001
0100
0000
0010
0000
1000
0001
0010
0001
1000
0000
0010
0000
,
0100
0001
1000
0001
0010
0000
0100
0000
1000
0001
0100
0001
1000
0000
1000
0000
,
0001
0010
0001
1000
0010
0000
0100
0000
0001
1000
0100
1000
0001
0000
0100
0000
,
0010
1000
0001
1000
0100
0000
0010
0000
0001
1000
0010
1000
0001
0000
0010
0000
,
0001
0100
0001
1000
0100
0000
0010
0000
0001
1000
0010
1000
0001
0000
0010
0000
,
0100
1000
0001
1000
0010
0000
0100
0000
0010
1000
0000
0001
0010
0000
0100
0000
,
1000
0000
0020
0000
0100
0000
1030
0000
0001
0010
0001
1000
0010
0000
0100
0000
,
0001
0000
0020
0000
0100
0000
0031
0000
1000
0010
1000
0001
0010
0000
0100
0000
,
1000
0000
0002
0000
0100
0000
1003
0000
0100
0010
0001
1000
0010
0000
0100
0000
,
0001
0000
2000
0000
0100
0000
3001
0000
0100
0010
1000
0010
0100
0000
0001
0000
,
1000
0000
0200
0000
0010
0000
1300
0000
0001
0100
0001
1000
0100
0000
0010
0000
,
0001
0000
0200
0000
0010
0000
0301
0000
1000
0100
1000
0001
0100
0000
0010
0000
,
1000
0000
0002
0000
0010
0000
1003
0000
0010
0100
0001
1000
0100
0000
0010
0000
,
0001
0000
2000
0000
0010
0000
3001
0000
0010
0100
0000
1000
0001
0000
0100
0000
,
0001
0000
1000
0100
1000
0000
0001
0100
0001
0010
0001
1000
0010
0000
0100
0000
,
0001
0000
1000
0100
1000
0000
0001
0100
0001
0010
0001
1000
0010
0000
0100
0000
,
0001
0000
1000
0100
1000
0000
0001
0100
0001
0010
0001
1000
0010
0000
0100
0000
,
0001
0000
1000
0100
1000
0000
0001
0100
0001
0010
0001
1000
0010
0M00
0010
0000
,
0001
0000
1000
0010
1000
0000
0001
0010
0001
0100
0001
1000
0100
0000
0010
0000
,
0001
0000
1000
0010
1000
0000
0001
0010
0001
0100
0001
1000
0100
0000
0010
0000
,
0001
0000
1000
0010
1000
0000
0001
0010
0001
0100
0001
1000
0100
0000
0010
0000
,
0001
0000
1000
0010
1000
0000
0001
0010
0001
1000
0000
0001
0100
0000
0010
0000
,
1000
0000
0001
0100
0001
0000
1000
0100
1000
0010
1000
0001
0010
0000
0100
0000
,
1000
0000
0001
0100
0001
0000
1000
0100
1000
0010
1000
0001
0010
0000
0100
0000
,
1000
0000
0001
0100
0001
0000
1000
0100
1000
0010
1000
0001
0010
0000
0100
0000
,
1000
0000
0001
0100
0001
0000
1000
0100
1000
0010
1000
0001
0010
0M00
0010
0000
,
1000
0000
0001
0010
0001
0000
1000
0010
1000
0100
1000
0001
0100
0000
0010
0000
,
1000
0000
0001
0010
0001
0000
1000
0010
1000
0100
1000
0001
0100
0000
0010
0000
,
1000
0000
0001
0010
0001
0000
1000
0010
1000
0100
1000
0001
0100
0000
0010
0000
,
1000
0000
0001
0010
0001
0000
1000
0010
0100
0001
0000
1000
0100
0000
0010
0000
,
0002
0000
0100
0000
1003
0000
0020
0030
0100
0000
0020
0030
1000
0000
0002
0000
,
0010
0000
2003
0000
0010
0000
3001
0010
0100
0000
1000
0000
0001
0000
0100
0010
,
2000
0000
0100
0000
3001
0000
0200
0300
0010
0000
0200
0300
0002
0000
1000
0000
,
0013
0000
0100
1000
0001
0000
0100
0010
1000
0000
0001
0010
0100
0000
1000
0000
,
0001
0100
0001
1000
0100
0000
0010
0000
0001
0000
0100
0000
0010
0000
2000
0000
,
0100
0000
3002
0000
0100
0000
2003
0000
3001
0000
0010
0M00
0010
0000
1000
0000
,
0010
0M00
0010
0000
0001
0000
1000
0000
0010
0100
0001
1000
0100
0010
0001
0000
,
0000
1000
0000
0010
0000
0100
0000
0001
,
1001
0000
0000
0000
1000
0010
0000
0000
,
0100
0000
0001
0000
1000
0100
0000
0000
,
0010
0000
0000
0001
0100
0010
0000
0000
,
1000
0000
0000
0000
0001
0000
0000
0000
0010
0000
0000
0100
0000
0000
1000
0000
,
0001
0000
0000
0100
0010
1000
0000
0000
,
0100
0000
0000
0000
0010
0001
0000
0000
,
1000
0000
0000
0010
0100
0001
0000
0000
,
0010
0000
0000
0000
0100
0000
0000
0000
1000
0000
0010
0000
0100
0001
0100
0001
,
2000
0000
0100
0000
3001
0000
0200
0300
0010
0000
1000
0000
0200
0300
0010
0000
,
0002
0000
0100
0000
1003
0000
0100
0000
0010
0000
0001
0000
1000
0010
1000
0000
,
0002
0000
0100
0000
1003
0000
0200
0300
0010
0000
0001
0000
0200
0300
0010
0000
,
2000
0000
0100
0000
3001
0000
0100
0000
0010
0000
1000
0000
0001
0010
0001
0000
,
0200
0000
0010
0000
0301
0000
1000
0000
0100
00M0
0100
0000
0001
0000
1000
0000
,
0200
0010
1300
0001
0100
0010
1000
0001
,
0010
0100
1000
0000
0010
0100
0001
0000
1000
0100
0010
0000
0001
0100
0010
0000
,
1000
0001
0010
0001
1000
0010
0100
0001
0100
0010
0000
0000
1000
0000
0001
0000
,
0010
0001
1000
0001
0100
0010
0100
0001
,
1000
0001
0020
0100
0032
1000
0203
0010
,
0301
0000
1000
0000
0100
00M0
0100
0000
0001
0000
1000
0000
0100
00M0
0100
0000
,
0001
1000
0001
0010
0100
1000
0001
0200
,
0010
0301
2000
0100
3001
0100
0010
1000
,
0001
1000
0200
0010
2300
0001
3020
0100
,
1030
0000
0001
0000
0010
0M00
0010
0000
1000
0000
0001
0000
0010
0M00
0010
0000
,
1000
0000
0001
0000
0010
0100
1000
0000
0001
0000
0100
0000
0001
0000
1000
0000
,
0100
0010
0001
0000
1000
0000
0010
0100
0001
0000
1000
0000
0100
0000
0010
0000
,
1000
0000
0010
0000
0100
0000
1000
0001
0100
0000
0020
0000
0130
0000
0001
0000
,
0010
0100
1000
0000
0001
0000
0100
0010
1000
0000
0001
0000
0010
0000
0100
0000
,
0001
0000
0100
0000
0010
0000
0001
1000
0010
0100
0001
1000
0100
0000
0010
0000
,
0001
0100
0010
M000
0010
0000
0001
0100
0010
0000
1000
0100
0010
0000
0001
0000
,
1000
0010
0100
000M
0100
0000
1000
0010
0100
0000
0001
0010
0100
0000
1000
0000
,
0010
0000
0100
0000
0001
0000
1000
0100
0010
0000
0001
0100
0010
0000
1000
0100
,
1000
0001
1000
0010
0100
0001
1000
0001
0010
0100
1000
0001
0100
0010
1000
0001
,
0010
0000
0000
0000
0000
0000
0000
0002
,
0100
0000
2003
0000
0100
0000
3001
0000
0100
00M0
0100
0000
1000
0000
0020
0000
,
0100
2030
0100
3002
0100
0023
0130
1000
,
0010
0M00
0010
0000
0001
0000
0100
0000
0010
0000
0100
0000
0001
0000
0020
0000
,
0100
0000
0031
0000
1000
0000
0020
0000
0100
0000
1030
0000
0100
00M0
0100
0000
,
0001
1000
0001
0010
0100
0001
0M00
0001
,
0010
0100
1000
0001
1000
0010
0100
0001
,
1000
0100
0010
0000
0001
0000
2000
0000
0010
0000
3002
0000
0010
0000
1003
0000
,
0010
0100
0001
0100
0010
1000
0001
0010
0001
1000
0010
0100
0001
0000
2000
0000
,
0100
0000
3001
0000
0100
0000
0001
0000
0010
0M00
0010
0000
1000
0000
0200
0000
,
0010
2300
0010
3002
0010
0203
0310
1000
,
0100
00M0
0100
0000
0001
0000
0010
0000
0100
0000
1000
0000
0001
0000
0200
0000
,
0010
0000
0301
0000
1000
0000
0200
0000
0010
0000
1300
0000
0010
0M00
0010
0000
,
0001
1000
0001
0100
0010
0001
0010
1000
,
0001
0010
0100
2000
0001
3010
0100
0001
,
1000
0100
0010
0000
0001
1000
0010
0000
0100
0001
1000
0000
0001
0000
0010
0000
,
0100
1000
0001
0100
0010
1000
0001
0010
0001
1000
0010
0100
0001
0000
2000
0000
,
0100
0000
3002
0000
0100
0000
1003
0000
0010
0M00
0010
0000
0001
0000
0200
0000
,
0010
0302
0010
2003
0010
3200
0310
0001
,
0100
00M0
0100
0000
1000
0000
0010
0000
0100
0000
0010
0000
1000
0000
0200
0000
,
0010
0000
1300
0000
0001
0000
0100
0010
1000
0000
0001
0000
0010
0M00
0010
0000
,
1000
0001
1000
0100
0010
1000
00M0
1000
,
0100
0010
0001
1000
0001
0100
0010
1000
,
0001
0010
0100
0000
1000
0000
0002
0000
0100
0000
2003
0000
0100
0000
3001
0000
,
0100
0010
1000
0010
0100
0001
1000
0100
1000
0001
0100
0010
1000
0000
0002
0000
,
0010
0000
1003
0000
0010
0000
1000
0000
0100
00M0
0100
0000
0001
0000
0020
0000
,
0100
0032
0100
2003
0100
3020
0130
0001
,
0010
0M00
0010
0000
1000
0000
0100
0000
0010
0000
0001
0000
1000
0000
0020
0000
,
0100
0000
1030
0000
0001
0000
0020
0000
0100
0000
0031
0000
0100
00M0
0100
0000
,
1000
0010
0100
1000
0100
0010
1000
0001
,
0010
0100
1000
0020
0100
1030
0001
0010
,
0100
0010
0001
0000
1000
0001
0100
0000
0010
1000
0001
0000
0010
0000
0200
0000
,
0310
0001
1000
0010
0100
0001
1000
0100
1000
0001
0100
0010
1000
0000
0001
0010
,
0100
1000
0001
1000
0010
1000
0001
0010
,
0001
1000
0001
0100
0010
2000
0100
3001
,
0100
0010
1000
0000
0001
0000
1000
0000
0100
0010
0001
0000
1000
0000
0010
0000
,
0100
0001
1000
0000
0001
0000
0010
0000
0100
1000
0001
0000
0100
0000
0001
1000
,
0200
0000
0010
0000
1300
0000
0001
0000
0100
0010
1000
0000
0001
0000
0020
0000
,
0100
0000
0031
0000
1000
0000
0010
0000
0100
0001
1000
0000
0100
0000
1000
0000
,
0001
0100
0010
1000
0001
0010
0100
1000
,
0000
0010
0000
0100
0000
0001
0000
0010
,
0002
0000
1000
0000
0103
00M0
0100
0000
1000
0000
0100
00M0
0100
0000
0010
0000
,
2000
0000
0001
0000
3100
00M0
0100
0000
0001
0000
0100
00M0
0100
0000
1000
0000
,
0002
0000
0103
0000
0010
0M00
0010
0000
0001
0000
0010
0M00
0010
0000
0100
0001
,
2000
0000
3100
0000
0010
0M00
0010
0000
1000
0000
0010
0M00
0010
0000
0100
1000
,
0001
0000
0100
0000
0010
0M00
0010
0000
0001
0000
0010
0M00
0010
0000
0100
0001
,
1000
0000
0100
0000
0010
0M00
0010
0000
1000
0000
0010
0M00
0010
0000
0100
1000
,
0001
0100
0010
0000
1000
0000
0001
0000
0010
0100
1000
0000
0001
0000
0100
0000
,
0010
1000
0001
0000
0010
0000
0100
0000
0010
0001
0000
1000
0010
0000
0100
0000
,
0001
0000
1000
0100
1000
0000
0001
0100
0001
1000
0001
0100
0010
0000
1000
0001
,
0010
0000
0001
0100
0001
0000
1000
0100
1000
0001
1000
0010
0100
0000
0001
0000
,
1000
0000
0001
0010
0001
0000
1000
0010
1000
0001
1000
0010
0100
0000
0001
0000
,
1000
0000
0001
0010
0001
0000
1000
0010
1000
0001
1000
0100
0010
0000
0001
0000
,
1000
0000
0001
0100
0001
0000
1000
0100
1000
0001
0100
0010
1000
0000
0001
0000
,
1000
0000
0100
0010
0001
0000
0100
0010
1000
0001
0010
0100
1000
0000
0001
0000
,
0100
0000
0010
1000
0001
0000
1000
0100
0010
0001
1000
0010
0100
0000
0001
0000
,
1000
0100
1000
0001
0100
0010
1000
0001
0010
0001
1000
0001
0100
0000
0010
0000
,
1001
0000
0000
0000
,
0000
0000
0000
0000
,
0000
0000
0000
0000
,
0000
0000
0000
0000
,
0001
0000
0000
0001
0000
0000
0001
0000
1000
0000
0000
1000
0000
0000
1000
0000
,
0100
0000
0000
0010
0000
0000
0001
0000
0100
0000
0000
0010
0000
0000
1000
0000
,
0001
0000
1000
0100
0000
1000
0001
1000
0010
0000
0100
0001
0000
1000
0100
0000
,
0010
0000
0001
0100
0000
0001
1000
0001
0020
0030
0200
0300
2000
3000
0002
0003
,
0200
0310
1000
0001
1000
0100
0010
0001
,
1000
0001
0100
0001
1000
0001
0010
0100
,
1000
0000
0000
1000
0000
0000
1000
0000
0001
0000
0000
0001
0000
0000
0001
0000
,
0200
0000
0000
0010
0000
0000
0301
0000
2000
0000
0000
0100
0000
0000
3001
0000
,
0100
0000
0000
0010
0000
0000
1000
0000
0100
0000
0000
0010
0000
0000
0001
0000
,
1000
0000
0000
0010
0000
0000
0100
0000
0001
0000
0000
0010
0000
0000
0100
0000
,
1000
0000
0001
0100
0000
0001
1000
0001
0010
0000
0100
1000
0000
0001
0100
0000
,
0010
0000
1000
0100
0000
1000
0001
1000
0020
0030
0200
0300
0002
0003
2000
3000
,
0100
0010
0001
1000
0001
0100
0010
1000
,
0001
1000
0100
1000
0001
1000
0010
0100
,
0001
0000
0000
0001
0000
0000
0001
0000
1000
0000
0000
1000
0000
0000
1000
0000
,
0200
0000
0000
0010
0000
0000
1300
0000
0002
0000
0000
0100
0000
0000
1003
0000
,
0100
0000
0000
0010
0000
0000
0001
0000
0100
0000
0000
0010
0000
0000
1000
0000
,
0001
0000
0000
0010
0000
0000
0100
0000
1000
0000
0000
0010
0000
0000
0100
0000
,
0001
0000
1000
0100
0000
1000
0001
1000
0010
0000
0100
0001
0000
1000
0100
0000
,
0010
0000
0001
0100
0000
0001
1000
0001
0010
0000
0100
0000
1000
0000
0001
0000
,
1000
0010
0100
0001
1000
0100
0000
0010
,
0000
0001
0000
1000
0000
0010
0000
0200
,
0000
0301
1000
0100
0010
0001
0000
2000
,
0000
3010
0100
0002
0000
0000
0003
0000
,
1000
0000
0001
0010
0100
1000
0000
0001
,
1000
0000
0010
0000
0100
0000
0001
0000
1000
0000
0001
0010
0000
0001
1000
0000
,
0010
0100
0001
0010
0000
0100
0000
1000
,
0001
0000
1000
0010
0100
0001
0000
2000
,
0010
0000
3002
0000
0010
0000
1003
0000
0010
0M00
0010
0000
0001
0000
0200
0000
,
0010
0302
0010
2003
0010
3200
0310
0001
,
0100
00M0
0100
0000
1000
0000
0010
0000
0100
0000
0010
0000
1000
0000
0200
0000
,
0010
0000
1300
0000
0001
0000
0200
0000
0010
0000
0301
0000
0010
0M00
0010
0000
,
1000
0001
1000
0100
0010
1000
00M0
1000
,
0100
0010
0001
1000
0001
0100
0010
1000
,
0200
0010
1300
0002
0100
2003
0100
3001
,
0100
0010
1000
0010
0100
0001
1000
0100
1000
0001
0100
0010
1000
0000
0002
0000
,
0010
0000
1003
0000
0010
0000
1000
0000
0100
00M0
0100
0000
0001
0000
0020
0000
,
0100
0032
0100
2003
0100
3020
0130
0001
,
0010
0M00
0010
0000
1000
0000
0100
0000
0010
0000
0001
0000
1000
0000
0020
0000
,
0100
0000
1030
0000
0001
0000
0020
0000
0100
0000
0031
0000
0100
00M0
0100
0000
,
1000
0001
1000
0010
0100
1000
0100
0001
,
1000
0100
0010
0002
1000
0103
0010
1000
,
0001
0010
0100
0000
1000
0001
0100
0000
0010
1000
0001
0000
1000
0000
0100
0000
,
0010
0001
1000
0010
0100
0001
1000
0100
1000
0001
0100
0010
1000
0000
0002
0000
,
0010
0000
2003
0000
0010
0000
3001
0000
0100
00M0
0100
0000
1000
0000
0020
0000
,
0100
2030
0100
3002
0100
0023
0130
1000
,
0010
0M00
0010
0000
0001
0000
0100
0000
0010
0000
0100
0000
0001
0000
0020
0000
,
0100
0000
0031
0000
1000
0000
0010
0100
0001
0000
1000
0000
0100
00M0
0100
0000
,
0001
1000
0001
0010
0100
0001
0M00
0001
,
0010
0100
1000
0001
1000
0010
0100
0001
,
0020
0100
0031
2000
0010
3002
0010
1003
,
0010
0100
0001
0100
0010
1000
0001
0010
0001
1000
0010
0100
0001
0000
2000
0000
,
0100
0000
3001
0000
0100
0000
0001
0000
0010
0M00
0010
0000
1000
0000
0200
0000
,
0010
2300
0010
3002
0010
0203
0310
1000
,
0100
00M0
0100
0000
0001
0000
0010
0000
0100
0000
1000
0000
0001
0000
0200
0000
,
0010
0000
0301
0000
1000
0000
0200
0000
0010
0000
1300
0000
0010
0M00
0010
0000
,
0001
0100
0010
0001
0010
0100
0001
1000
,
0100
0010
0001
0200
0010
0301
1000
0100
,
0010
0100
1000
0000
0001
1000
0010
0000
0100
0001
1000
0000
0100
0000
0020
0000
,
0130
1000
0001
0100
0010
1000
0001
0010
0001
1000
0010
0100
0001
0000
1000
0100
,
0010
0001
1000
0001
0100
0001
1000
0100
,
1000
0001
1000
0010
0100
0002
0010
1003
,
0010
0100
0001
0000
1000
0000
0001
0000
0010
0100
1000
0000
0001
0000
0100
0000
,
0010
1000
0001
0000
1000
0000
0100
0000
0010
0001
1000
0000
0010
0000
1000
0001
,
0020
0000
0100
0000
0031
0000
1000
0000
0010
0100
0001
0000
1000
0000
0200
0000
,
0010
0000
1300
0000
0001
0000
0100
0000
0010
1000
0001
0000
0010
0000
0001
0000
,
1000
0010
0100
0001
1000
0100
0010
0001
,
0000
0100
0000
0010
0000
1000
0000
0100
,
2000
0000
0001
0000
3010
0M00
0010
0000
0001
0000
0010
0M00
0010
0000
0100
0000
,
0002
0000
1000
0000
0013
0M00
0010
0000
1000
0000
0010
0M00
0010
0000
0001
0000
,
2000
0000
3010
0000
0100
00M0
0100
0000
1000
0000
0100
00M0
0100
0000
0010
1000
,
0002
0000
0013
0000
0100
00M0
0100
0000
0001
0000
0100
00M0
0100
0000
0010
0001
,
1000
0000
0010
0000
0100
00M0
0100
0000
1000
0000
0100
00M0
0100
0000
0010
1000
,
0001
0000
0010
0000
0100
00M0
0100
0000
0001
0000
0100
00M0
0100
0000
0010
0001
,
1000
0010
0100
0000
0001
0000
1000
0000
0100
0010
0001
0000
1000
0000
0010
0000
,
0100
0001
1000
0000
0100
0000
0010
0000
0100
1000
0000
0001
0100
0000
0010
0000
,
1000
0000
0001
0010
0001
0000
1000
0010
1000
0001
1000
0010
0100
0000
0001
1000
,
0100
0000
1000
0010
1000
0000
0001
0010
0001
1000
0001
0100
0010
0000
1000
0000
,
0001
0000
1000
0100
1000
0000
0001
0100
0001
1000
0001
0100
0010
0000
1000
0000
,
0001
0000
1000
0100
1000
0000
0001
0100
0001
1000
0001
0010
0100
0000
1000
0000
,
0001
0000
0100
0010
1000
0000
0001
0010
0001
1000
0010
0100
0001
0000
1000
0000
,
0001
0000
0010
0100
1000
0000
0001
0100
0001
1000
0100
0010
0001
0000
1000
0000
,
0010
0000
0100
0001
1000
0000
0001
0010
0100
1000
0001
0100
0010
0000
1000
0000
,
0001
0010
0001
1000
0010
0100
0001
1000
0100
1000
0001
1000
0010
0000
0100
0000
;

//--------------- dance-single - 7-7-7-7/24-39/16|39/16 ----------------
#NOTES:
     dance-single:
     7-7-7-7/24-39/16|39/16:
     Challenge:
     17:
     0,0,0,0,0:
0000
0000
0000
0000
,
1000
0000
0001
0000
1000
0010
1000
0000
0001
0000
1000
0000
0001
0010
0001
0000
,
1000
0000
0001
0000
1000
0100
1000
0000
0001
0000
1000
0000
0001
0100
0001
0000
,
0010
0000
0100
0000
1000
0001
1000
0000
0010
0000
0100
0000
0001
1000
0001
0000
,
0010
0000
0100
0000
1000
0001
1000
0000
0010
0000
0100
0000
0001
1000
0001
0010
,
0001
0000
1000
0000
0001
0100
0001
0000
1000
0000
0001
0000
1000
0100
1000
0000
,
0001
0000
1000
0000
0001
0010
0001
0000
1000
0000
0001
0000
1000
0010
1000
0000
,
0100
0000
0010
0000
0001
1000
0001
0000
0100
0000
0010
0000
1000
0001
1000
0000
,
0100
0000
0010
0000
0001
1000
0001
0100
0001
1000
0000
0100
0010
0000
0001
0000
,
1000
0010
1000
0001
0010
0000
0100
0000
1000
0001
0100
0001
1000
0000
0100
0000
,
0010
0001
1000
0001
0100
0000
0010
0000
1000
0001
0010
0001
1000
0000
0010
0000
,
1000
0100
1000
0001
0100
0000
0010
0000
1000
0001
0010
0001
1000
0000
0010
0000
,
0100
0001
1000
0001
0010
0000
0100
0000
1000
0001
0100
0001
1000
0000
1000
0000
,
0001
0010
0001
1000
0010
0000
0100
0000
0001
1000
0100
1000
0001
0000
0100
0000
,
0010
1000
0001
1000
0100
0000
0010
0000
0001
1000
0010
1000
0001
0000
0010
0000
,
0001
0100
0001
1000
0100
0000
0010
0000
0001
1000
0010
1000
0001
0000
0010
0000
,
0100
1000
0001
1000
0010
0000
0100
0000
0010
1000
0000
0001
0010
0000
0100
0000
,
1000
0001
0100
0001
1000
0100
0010
0001
1000
0010
1000
0001
0010
0100
1000
0001
,
0100
0010
1000
0001
0010
0001
1000
0010
0100
0001
1000
0001
0010
0100
1000
0001
,
1000
0010
0100
0001
1000
0100
0010
0001
1000
0010
1000
0001
0010
0100
1000
0001
,
0100
0010
1000
0001
0010
0001
1000
0010
0100
0001
1000
0100
0010
0001
1000
0010
,
1000
0001
0010
0001
1000
0010
0100
0001
1000
0100
1000
0001
0100
0010
1000
0001
,
0010
0100
1000
0001
0100
0001
1000
0100
0010
0001
1000
0001
0100
0010
1000
0001
,
1000
0100
0010
0001
1000
0010
0100
0001
1000
0100
1000
0001
0100
0010
1000
0001
,
0010
0100
1000
0001
0100
0001
1000
0100
0010
0001
0000
1000
0010
0000
0100
0000
,
0001
1000
0100
1000
0001
0100
0010
1000
0001
0010
0001
1000
0010
0100
0001
1000
,
0100
0010
0001
1000
0010
1000
0001
0010
0100
1000
0001
1000
0010
0100
0001
1000
,
0001
0010
0100
1000
0001
0100
0010
1000
0001
0010
0001
1000
0010
0100
0001
1000
,
0100
0010
0001
1000
0010
1000
0001
0010
0100
1000
0001
0100
0010
1000
0001
0010
,
0001
1000
0010
1000
0001
0010
0100
1000
0001
0100
0001
1000
0100
0010
0001
1000
,
0010
0100
0001
1000
0100
1000
0001
0100
0010
1000
0001
1000
0100
0010
0001
1000
,
0001
0100
0010
1000
0001
0010
0100
1000
0001
0100
0001
1000
0100
0010
0001
1000
,
0010
0100
0001
1000
0100
1000
0001
0100
0010
1000
0000
0001
0010
0000
0100
0000
,
1000
0100
0010
0001
1000
0010
0100
0001
1000
0100
1000
0001
0100
0010
1000
0001
,
0010
0100
1000
0001
0100
0001
1000
0100
0010
0001
1000
0001
0100
0010
1000
0001
,
1000
0100
0010
0001
1000
0010
0100
0001
1000
0100
1000
0001
0100
0010
1000
0001
,
0010
0100
1000
0001
0100
0001
1000
0100
0010
0001
1000
0010
0100
0001
1000
0100
,
1000
0001
0100
0001
1000
0100
0010
0001
1000
0010
1000
0001
0010
0100
1000
0001
,
0100
0010
1000
0001
0010
0001
1000
0010
0100
0001
1000
0001
0010
0100
1000
0001
,
1000
0010
0100
0001
1000
0100
0010
0001
1000
0010
1000
0001
0010
0100
1000
0001
,
0100
0010
1000
0001
0010
0001
1000
0010
0100
0001
0000
1000
0100
0000
0010
0000
,
0001
0100
0010
1000
0001
0010
0001
1000
0010
0100
0001
1000
0100
1000
0001
0100
,
0010
1000
0001
0010
0100
1000
0001
0100
0010
1000
0010
0100
0001
1000
0100
0010
,
0001
1000
0010
0100
0001
1000
0100
1000
0001
0100
0010
1000
0001
0010
0001
1000
,
0010
0100
0001
1000
0100
1000
0001
0100
0010
1000
0001
0010
0100
1000
0001
0100
,
0010
1000
0001
1000
0100
1000
0001
0100
0010
1000
0001
0010
0001
1000
0001
0100
,
0010
1000
0001
0010
0100
1000
0001
0100
0010
1000
0001
0010
0001
1000
0001
0100
,
0010
1000
0001
1000
0100
1000
0001
0100
0001
1000
0100
0010
0001
1000
0020
0000
,
0130
0001
1000
0001
0010
0001
1000
0001
,
1001
0000
0000
0000
1000
0010
0000
0000
,
0100
0000
0001
0000
1000
0100
0000
0000
,
0010
0000
0000
0001
0100
0010
0000
0000
,
1000
0000
0000
0000
0001
0000
0000
0000
0010
0000
0000
0100
0000
0000
1000
0000
,
0001
0000
0000
0100
0010
1000
0000
0000
,
0100
0000
0000
0000
0010
0001
0000
0000
,
1000
0000
0000
0010
0100
0001
0000
0000
,
0010
0000
0000
0000
0100
0000
0000
0000
1000
0000
0010
0000
0100
0001
0100
0001
,
1000
0100
1000
0001
1000
0010
0100
0001
1000
0001
0010
0100
1000
0001
0100
0001
,
1000
0100
0010
0001
1000
0010
1000
0001
0010
0100
1000
0001
0100
0001
1000
0100
,
0010
0001
1000
0001
0100
0010
1000
0001
1000
0100
0010
0001
1000
0010
1000
0001
,
0010
0001
1000
0010
0100
0001
1000
0001
0010
0100
1000
0001
0100
0010
1000
0001
,
1000
0100
0010
0001
1000
0010
1000
0001
0010
0100
1000
0001
1000
0010
0100
0001
,
1000
0100
0010
0001
1000
0010
1000
0001
0010
0100
1000
0001
0100
0001
1000
0100
,
0010
0001
1000
0001
0100
0010
1000
0001
1000
0100
0010
0001
1000
0001
0100
0001
,
1000
0100
0010
0001
0010
0100
1000
0001
0100
0010
1000
0001
1000
0100
1000
0001
,
0100
0010
1000
0001
0010
0100
1000
0001
0100
0001
1000
0100
0010
0001
1000
0010
,
1000
0001
0010
0001
1000
0010
0100
0001
1000
0100
0010
0001
1000
0010
0100
0001
,
1000
0100
1000
0001
0100
0010
1000
0100
1000
0001
0100
0010
1000
0100
1000
0001
,
0100
0001
1000
0001
0010
0100
1000
0001
1000
0010
0100
0001
1000
0001
0010
0100
,
1000
0001
0100
0001
1000
0100
0010
0001
1000
0010
1000
0001
0010
0100
1000
0001
,
1000
0010
0100
0001
0010
0100
1000
0001
0100
0010
1000
0001
0010
0100
1000
0001
,
0100
0001
1000
0100
0010
0001
0100
0001
1000
0100
0010
0001
0100
0001
1000
0100
,
1000
0001
1000
0010
0100
0001
1000
0001
0010
0100
1000
0001
1000
0010
0100
0001
,
1000
0100
1000
0001
0100
0010
1000
0001
1000
0100
1000
0001
0100
0010
1000
0001
,
0010
0001
1000
0010
1000
0001
0010
0100
1000
0001
0100
0010
1000
0001
0010
0001
,
1000
0010
0100
0001
1000
0100
0010
0001
1000
0001
0100
0010
1000
0001
0010
0001
,
1000
0010
1000
0001
0010
0100
1000
0001
1000
0010
1000
0001
0010
0001
1000
0010
,
0100
0001
1000
0001
0010
0001
1000
0010
1000
0001
0010
0100
1000
0001
0100
0010
,
1000
0001
1000
0100
1000
0001
0100
0001
1000
0100
0010
0001
1000
0010
0100
0001
,
1000
0100
1000
0001
0100
0001
1000
0100
0010
0001
1000
0010
0100
0001
1000
0100
,
1000
0001
1000
0010
0100
0001
1000
0001
0010
0100
1000
0001
0100
0010
1000
0001
,
0010
0000
0000
0000
0000
0000
0000
0000
0000
0000
0000
0000
0000
0000
0001
1000
,
0010
0100
0001
1000
0001
0010
0100
1000
0001
0100
0001
1000
0100
1000
0001
0100
,
0010
1000
0001
0010
0100
1000
0010
0100
0001
1000
0100
0010
0001
1000
0001
0100
,
0010
1000
0001
0010
0100
1000
0001
1000
0010
0100
0010
1000
0001
1000
0100
0010
,
0001
1000
0010
1000
0001
1000
0100
0010
0001
0010
0100
1000
0001
0100
0001
1000
,
0100
0010
0001
1000
0010
1000
0100
1000
0001
0100
0001
1000
0100
1000
0001
0100
,
0001
0010
0001
1000
0010
1000
0001
0010
0100
1000
0001
0100
0001
1000
0100
1000
,
0001
0100
0010
1000
0001
1000
0100
0010
0001
1000
0010
0100
0001
1000
0100
1000
,
0001
0100
0001
0010
0001
1000
0010
1000
0100
1000
0001
0100
0010
0100
0001
1000
,
0100
0010
0001
1000
0001
0100
0010
1000
0001
0010
0001
1000
0010
1000
0001
0010
,
0100
1000
0001
0100
0010
1000
0100
0010
0001
1000
0010
0100
0001
1000
0001
0010
,
0100
1000
0001
0100
0010
1000
0001
1000
0100
0010
0100
1000
0001
1000
0010
0100
,
0001
1000
0100
1000
0001
1000
0010
0100
0001
0100
0010
1000
0001
0010
0001
1000
,
0010
1000
0100
1000
0001
0100
0001
1000
0100
0010
0001
1000
0010
1000
0001
0010
,
0001
0100
0001
1000
0100
1000
0001
0100
0010
1000
0001
0010
0001
1000
0010
1000
,
0001
0010
0100
1000
0001
1000
0010
0100
0001
1000
0100
0010
0001
1000
0010
1000
,
0001
0010
0001
0100
0001
1000
0100
1000
0010
1000
0001
0010
0001
1000
0010
0100
,
0001
1000
0100
1000
0001
1000
0010
0100
0001
1000
0100
1000
0001
0100
0001
1000
,
0100
0010
0001
1000
0010
0100
0001
0010
0100
1000
0001
0100
0010
1000
0001
1000
,
0100
0010
0001
1000
0010
0100
0001
1000
0001
0010
0100
0010
0001
1000
0001
0100
,
0010
1000
0001
0010
0001
1000
0001
0100
0010
1000
0010
0100
0001
1000
0100
1000
,
0001
0100
0010
1000
0001
0010
0001
0100
0001
1000
0100
1000
0001
0100
0001
1000
,
0100
1000
0010
1000
0001
0010
0001
1000
0010
0100
0001
1000
0100
1000
0001
0100
,
0001
1000
0100
0010
0001
1000
0001
0100
0010
1000
0001
0010
0100
1000
0001
0100
,
0001
1000
0100
1000
0010
1000
0001
0010
0001
0100
0001
1000
0100
1000
0001
0100
,
0001
1000
0001
0010
0100
0010
0001
1000
0001
0100
0010
1000
0001
0010
0001
1000
,
0010
0100
0001
1000
0100
0010
0001
0100
0010
1000
0001
0010
0100
1000
0001
1000
,
0010
0100
0001
1000
0100
0010
0001
1000
0001
0100
0010
0100
0001
1000
0001
0010
,
0100
1000
0001
0100
0001
1000
0001
0010
0100
1000
0100
0010
0001
1000
0010
1000
,
0001
0010
0001
0100
0001
1000
0100
1000
0001
0100
0010
1000
0001
0010
0001
1000
,
0010
1000
0100
1000
0001
0100
0001
1000
0100
0010
0001
1000
0010
1000
0001
0010
,
0001
1000
0010
0100
0001
1000
0001
0010
0100
1000
0001
0100
0010
1000
0001
0010
,
0001
1000
0010
1000
0100
1000
0001
0100
0001
1000
0100
1000
0001
0100
0010
1000
,
0001
0010
0001
1000
0001
0100
0010
1000
0001
0010
0001
1000
0010
0100
0001
1000
,
0100
1000
0001
1000
0010
0100
0001
1000
0001
0010
0100
1000
0001
1000
0010
0100
,
0001
1000
0001
0010
0100
1000
0001
0100
0001
1000
0100
0010
0001
1000
0010
1000
,
0001
0010
0100
1000
0001
0100
0010
1000
0001
0010
0001
1000
0010
0100
0001
1000
,
0001
0010
0001
1000
0010
1000
0001
0010
0100
1000
0001
0100
0001
1000
0100
1000
,
0001
1000
0010
0100
0001
1000
0001
0010
0100
1000
0001
0100
0001
1000
0100
0010
,
0001
1000
0001
0100
0010
1000
0001
0010
0100
1000
0001
0100
0010
1000
0001
0000
,
0000
0010
0000
0100
0000
1000
0000
0010
,
0100
0001
1000
0001
0100
0001
1000
0100
1000
0001
1000
0100
0010
0001
1000
0010
,
0100
0001
1000
0001
0100
0001
1000
0100
1000
0001
1000
0100
0010
0001
1000
0010
,
0100
0001
1000
0001
0100
0001
1000
0100
1000
0001
1000
0100
0010
0001
1000
0001
,
0100
0010
1000
0001
0010
0100
1000
0001
1000
0010
0100
0001
1000
0100
1000
0100
,
0010
0001
1000
0001
0010
0001
1000
0010
1000
0001
1000
0010
0100
0001
1000
0100
,
0010
0001
1000
0001
0010
0001
1000
0010
1000
0001
1000
0010
0100
0001
1000
0001
,
0010
0100
1000
0001
0100
0010
1000
0001
1000
0100
0010
0001
1000
0010
0100
0001
,
1000
0100
1000
0001
0100
0001
1000
0100
0010
0001
1000
0001
0100
0010
1000
0001
,
0010
0100
1000
0001
1000
0100
1000
0001
0100
0001
1000
0001
0100
0010
1000
0001
,
0010
0100
1000
0001
1000
0100
1000
0001
0100
0001
1000
0001
0100
0010
1000
0001
,
0010
0100
1000
0001
1000
0100
1000
0001
0100
0001
1000
0001
0100
0010
1000
0001
,
1000
0100
0010
0001
1000
0010
0100
0001
1000
0001
0010
0100
1000
0001
0100
0001
,
1000
0100
0010
0001
1000
0010
1000
0001
0010
0001
1000
0001
0010
0100
1000
0001
,
0100
0010
1000
0001
1000
0010
1000
0001
0010
0001
1000
0001
0010
0100
1000
0001
,
1000
0010
0100
0001
1000
0100
0010
0001
1000
0001
0100
0010
1000
0001
0010
0100
,
1000
0001
0100
0001
0010
0001
1000
0010
1000
0001
1000
0100
0010
0001
1000
0001
,
0100
0000
0000
0000
,
0000
0000
0000
0000
,
0000
0000
0000
0000
,
0000
0000
0000
0000
,
0001
0000
0000
0001
0000
0000
0001
0000
1000
0000
0000
1000
0000
0000
1000
0000
,
0100
0000
0000
0010
0000
0000
0001
0000
0100
0000
0000
0010
0000
0000
1000
0000
,
0001
0000
1000
0100
0000
1000
0001
1000
0010
0000
0100
0001
0000
1000
0100
0000
,
0010
0000
0001
0100
0000
0001
1000
0001
0020
0030
0200
0300
2000
3000
0002
0003
,
0200
0310
1000
0001
1000
0100
0010
0001
,
1000
0001
0100
0001
1000
0001
0010
0100
,
1000
0000
0000
1000
0000
0000
1000
0000
0001
0000
0000
0001
0000
0000
0001
0000
,
0200
0000
0000
0010
0000
0000
0301
0000
2000
0000
0000
0100
0000
0000
3001
0000
,
0100
0000
0000
0010
0000
0000
1000
0000
0100
0000
0000
0010
0000
0000
0001
0000
,
1000
0000
0000
0010
0000
0000
0100
0000
0001
0000
0000
0010
0000
0000
0100
0000
,
1000
0000
0001
0100
0000
0001
1000
0001
0010
0000
0100
1000
0000
0001
0100
0000
,
0010
0000
1000
0100
0000
1000
0001
1000
0020
0030
0200
0300
0002
0003
2000
3000
,
0100
0010
0001
1000
0001
0100
0010
1000
,
0001
1000
0100
1000
0001
1000
0010
0100
,
0001
0000
0000
0001
0000
0000
0001
0000
1000
0000
0000
1000
0000
0000
1000
0000
,
0200
0000
0000
0010
0000
0000
1300
0000
0002
0000
0000
0100
0000
0000
1003
0000
,
0100
0000
0000
0010
0000
0000
0001
0000
0100
0000
0000
0010
0000
0000
1000
0000
,
0001
0000
0000
0010
0000
0000
0100
0000
1000
0000
0000
0010
0000
0000
0100
0000
,
0001
0000
1000
0100
0000
1000
0001
1000
0010
0000
0100
0001
0000
1000
0100
0000
,
0010
0000
0001
0100
0000
0001
1000
0001
0010
0000
0100
0000
1000
0000
0001
0000
,
1000
0010
0100
0001
1000
0100
0000
0010
,
0000
0001
0000
1000
0000
0010
0000
0200
,
0000
0301
1000
0100
0010
0001
0000
2000
,
0000
3010
0100
0002
0000
0000
0003
0000
,
1000
0000
0001
0010
0100
1000
0000
0001
,
1000
0000
0010
0000
0100
0000
0001
0000
1000
0000
0001
0010
0000
0001
1000
0000
,
0010
0100
0001
0010
0000
0100
0000
1000
,
0001
0000
0000
0000
1000
0000
0010
0000
0100
0000
0001
0000
0000
0000
1000
0001
,
0010
0100
1000
0001
1000
0010
0100
0001
1000
0100
1000
0001
0100
0001
1000
0100
,
0010
0001
1000
0010
0100
0001
0010
0100
1000
0001
0100
0010
1000
0001
1000
0100
,
0010
0001
1000
0010
0100
0001
1000
0001
0010
0100
0010
0001
1000
0001
0100
0010
,
1000
0001
0010
0001
1000
0001
0100
0010
1000
0010
0100
0001
1000
0100
1000
0001
,
0100
0010
1000
0001
0010
0001
0100
0001
1000
0100
1000
0001
0100
0001
1000
0100
,
1000
0010
1000
0001
0010
0001
1000
0010
0100
0001
1000
0100
1000
0001
0100
0001
,
1000
0100
0010
0001
1000
0001
0100
0010
1000
0001
0010
0100
1000
0001
0100
0001
,
1000
0100
1000
0010
1000
0001
0010
0001
0100
0001
1000
0100
0010
0100
1000
0001
,
0100
0010
1000
0001
1000
0100
0010
0001
1000
0010
1000
0001
0010
0001
1000
0010
,
0100
0001
1000
0100
0010
0001
0100
0010
1000
0001
0010
0100
1000
0001
1000
0010
,
0100
0001
1000
0100
0010
0001
1000
0001
0100
0010
0100
0001
1000
0001
0010
0100
,
1000
0001
0100
0001
1000
0001
0010
0100
1000
0100
0010
0001
1000
0010
1000
0001
,
0010
0001
0100
0001
1000
0100
1000
0001
0100
0010
1000
0001
0010
0001
1000
0010
,
1000
0100
1000
0001
0100
0001
1000
0100
0010
0001
1000
0010
1000
0001
0010
0001
,
1000
0010
0100
0001
1000
0001
0010
0100
1000
0001
0100
0010
1000
0001
0010
0001
,
1000
0010
1000
0100
1000
0001
0100
0001
0010
0001
1000
0010
0100
0001
1000
0100
,
1000
0001
0100
0001
1000
0001
0010
0100
1000
0001
0100
0001
1000
0100
1000
0001
,
0100
0010
1000
0001
0010
0100
1000
0010
0100
0001
1000
0100
0010
0001
1000
0001
,
0100
0010
1000
0001
0010
0100
1000
0001
1000
0010
0100
0010
1000
0001
1000
0100
,
0010
0001
1000
0010
1000
0001
1000
0100
0010
0001
0010
0100
1000
0001
0100
0001
,
1000
0100
0010
0001
1000
0010
1000
0100
1000
0001
0100
0001
1000
0100
1000
0001
,
0100
0001
0010
0001
1000
0010
1000
0001
0010
0100
1000
0001
0100
0001
1000
0100
,
1000
0001
0100
0010
1000
0001
1000
0100
0010
0001
1000
0010
0100
0001
1000
0100
,
1000
0001
0100
0001
0010
0001
1000
0010
1000
0100
1000
0001
0100
0010
1000
0001
,
1000
0100
0010
0001
1000
0001
0100
0010
1000
0001
0010
0001
1000
0010
1000
0001
,
0010
0100
1000
0001
0100
0010
1000
0100
0010
0001
1000
0010
0100
0001
1000
0001
,
0010
0100
1000
0001
0100
0010
1000
0001
1000
0100
0010
0100
1000
0001
1000
0010
,
0100
0001
1000
0100
1000
0001
1000
0010
0100
0001
0100
0010
1000
0001
0010
0001
,
1000
0010
1000
0100
1000
0001
0100
0001
1000
0100
0010
0001
1000
0010
1000
0001
,
0010
0001
0100
0001
1000
0100
1000
0001
0100
0010
1000
0001
0010
0001
1000
0010
,
1000
0001
0010
0100
1000
0001
1000
0010
0100
0001
1000
0100
0010
0001
1000
0010
,
1000
0001
0010
0001
0100
0001
1000
0100
1000
0001
0100
0001
1000
0100
0010
0001
,
1000
0010
1000
0001
1000
0100
0010
0001
1000
0010
1000
0001
0010
0100
1000
0001
,
0100
0001
1000
0001
0010
0100
1000
0001
1000
0010
0100
0001
1000
0001
0010
0100
,
1000
0001
1000
0010
0100
0001
1000
0100
1000
0001
0100
0010
1000
0001
0010
0001
,
1000
0010
0100
0001
1000
0100
0010
0001
1000
0010
1000
0001
0010
0100
1000
0001
,
1000
0010
1000
0001
0010
0001
1000
0010
0100
0001
1000
0100
1000
0001
0100
0001
,
1000
0001
0010
0100
1000
0001
1000
0010
0100
0001
1000
0100
1000
0001
0100
0010
,
1000
0001
1000
0100
0010
0001
1000
0010
0100
0001
1000
0100
0010
0001
1000
0000
,
0000
0010
0000
0100
0000
0001
0000
0010
,
0100
1000
0001
1000
0100
1000
0001
0100
0001
1000
0001
0100
0010
1000
0001
0010
,
0100
1000
0001
1000
0100
1000
0001
0100
0001
1000
0001
0100
0010
1000
0001
0010
,
0100
1000
0001
1000
0100
1000
0001
0100
0001
1000
0001
0100
0010
1000
0001
1000
,
0100
0010
0001
1000
0010
0100
0001
1000
0001
0010
0100
1000
0001
0100
0001
0100
,
0010
1000
0001
1000
0010
1000
0001
0010
0001
1000
0001
0010
0100
1000
0001
0100
,
0010
1000
0001
1000
0010
1000
0001
0010
0001
1000
0001
0010
0100
1000
0001
1000
,
0010
0100
0001
1000
0100
0010
0001
1000
0001
0100
0010
1000
0001
0010
0100
1000
,
0001
0100
0001
1000
0100
1000
0001
0100
0010
1000
0001
1000
0100
0010
0001
1000
,
0010
0100
0001
1000
0001
0100
0001
1000
0100
1000
0001
1000
0100
0010
0001
1000
,
0010
0100
0001
1000
0001
0100
0001
1000
0100
1000
0001
1000
0100
0010
0001
1000
,
0010
0100
0001
1000
0001
0100
0001
1000
0100
1000
0001
1000
0100
0010
0001
1000
,
0001
0100
0010
1000
0001
0010
0100
1000
0001
1000
0010
0100
0001
1000
0100
1000
,
0001
0100
0010
1000
0001
0010
0001
1000
0010
1000
0001
1000
0010
0100
0001
1000
,
0100
0010
0001
1000
0001
0010
0001
1000
0010
1000
0001
1000
0010
0100
0001
1000
,
0001
0010
0100
1000
0001
0100
0010
1000
0001
1000
0100
0010
0001
1000
0010
0100
,
0001
1000
0100
1000
0001
1000
0010
0100
0001
1000
0100
1000
0001
0100
0010
0000
;
