#TITLE:YOKOHAMA EVOLVED ver.C;
#SUBTITLE:;
#ARTIST:Tachibana Tomoyuki;
#TITLETRANSLIT:;
#SUBTITLETRANSLIT:;
#ARTISTTRANSLIT:;
#CREDIT:;
#BANNER:yokohama_evolved_verC-bn.png;
#BACKGROUND:yokohama_evolved_verC-bg.png;
#LYRICSPATH:YOKOHAMA_EVOLVED_ver.C.lrc;
#CDTITLE:NAOKI_cdtitle.png;
#MUSIC:YOKOHAMA EVOLVED ver.C.ogg;
#OFFSET:-0.080;
#SAMPLESTART:25.714;
#SAMPLELENGTH:12.000;
#SELECTABLE:YES;
#BPMS:0.000=168.000,200.000=42.000,200.500=84.000,201.500=126.000,203.000=168.000;
#STOPS:268.750=0.357
;
#BGCHANGES:;

//---------------dance-single - ----------------
#NOTES:
     dance-single:
     :
     Hard:
     16:
     0.942,1.000,0.786,0.487,0.829: // measure 1
0000
0000
0000
0000
,  // measure 2
0000
0000
0000
0000
,  // measure 3
0000
0000
0000
0000
,  // measure 4
0000
0000
0000
0000
,  // measure 5
0000
0000
0000
0000
,  // measure 6
0011
0000
0000
0001
1000
0000
0010
0000
0100
0000
0000
0000
0110
0000
0000
0010
,  // measure 7
1000
0000
0100
0000
0010
0001
0000
0000
0100
0000
0000
0000
0110
0000
0000
0000
,  // measure 8
1010
0000
0000
1000
0001
0000
0010
0000
0100
0000
0000
0000
0110
0000
0000
0010
,  // measure 9
0001
0000
0100
0000
0010
1000
0000
0000
0100
0000
0000
0000
1001
0000
0000
0000
,  // measure 10
0200
0000
0010
0000
0000
0000
0310
1000
,  // measure 11
0002
0000
0010
0000
0000
0000
0013
0100
,  // measure 12
2000
0000
0010
0000
0000
0000
3010
0100
,  // measure 13
0020
0100
0000
0130
,  // measure 14
2010
3100
0012
0103
,  // measure 15
2100
0000
3010
0000
0102
0000
0013
0100
,  // measure 16
1100
0011
1010
0101
,  // measure 17
0010
0000
1000
0000
0001
0000
0010
0000
0100
1000
0100
1000
0001
0100
0001
0100
,  // measure 18
0020
0001
1030
0100
,  // measure 19
1001
0000
0000
0011
0000
0000
1010
0000
0100
0000
0001
0000
0011
0000
1000
0100
,  // measure 20
0000
0100
0010
0000
0001
0000
0100
0010
1000
0000
0001
0010
0000
0100
1000
0000
,  // measure 21
1001
0000
0000
1010
0000
0000
0011
0000
0100
0000
1000
0001
0100
0000
0010
0100
,  // measure 22
0000
0100
0001
0000
1000
0000
0100
0010
0001
0000
1000
0010
0000
0100
0001
0000
,  // measure 23
1001
0000
0000
1100
0000
0000
0101
0000
0010
0000
1000
0000
1100
0000
0001
0010
,  // measure 24
0000
0010
0100
0000
1000
0000
0010
0100
0001
0000
1000
0100
0000
0010
0001
0000
,  // measure 25
1001
0000
0000
0101
0000
0000
1100
0000
0010
0000
0001
0000
1000
0000
0020
0000
,  // measure 26
0200
0000
0330
0000
0010
1000
0100
0010
,  // measure 27
1001
0000
0001
0100
0000
0100
0010
0000
1000
0000
0100
0010
0001
0000
1000
0010
,  // measure 28
0000
0010
0100
0000
0001
1000
0100
0000
0011
0000
0000
1010
0000
0000
0101
0000
,  // measure 29
1001
0000
1000
0100
0000
0100
0010
0000
0001
0000
0100
0010
1000
0000
0001
0010
,  // measure 30
0000
0010
0100
0000
1000
0001
0100
0000
1010
0000
0000
0011
0000
0000
1100
0000
,  // measure 31
1001
0000
0001
0010
0000
0010
0100
0000
1000
0000
0010
0100
0001
0000
1000
0100
,  // measure 32
0000
0100
0010
0000
0001
1000
0010
0000
0101
0000
0000
1100
0000
0000
0011
0000
,  // measure 33
1001
0000
0000
1000
0001
0000
0000
0001
0100
0000
0010
1000
0100
0000
0010
0001
,  // measure 34
0200
0000
1000
0000
0301
0000
0000
0000
1000
0100
0010
0001
1000
0010
0100
0001
,  // measure 35
0020
0000
0130
1000
0000
0001
0200
0000
0310
0000
1000
0001
0100
0000
0010
0000
,  // measure 36
1000
0100
0010
0001
1000
0100
0010
0001
0000
0001
0100
0010
1000
0000
0100
0010
,  // measure 37
0200
0000
0310
0001
0000
1000
0020
0000
0130
0001
0000
1000
0200
0000
0310
0000
,  // measure 38
0001
0100
0010
1000
0001
0100
0010
1000
0100
0000
1000
0001
0100
0000
0010
0100
,  // measure 39
0020
0000
0130
0001
0000
1000
0200
0000
0310
0000
0001
1000
0010
0000
0100
0000
,  // measure 40
0001
0010
0100
1000
0001
0010
0100
1000
0000
1000
0010
0100
0001
0000
0100
0010
,  // measure 41
0200
0000
0310
1000
0000
0001
0020
0000
0130
1000
0000
0001
0200
0000
0310
0000
,  // measure 42
1000
0001
1000
0001
1000
0001
0100
0000
0001
0000
0010
0000
0100
0000
1000
0000
,  // measure 43
2001
0000
3010
0100
0000
0100
0002
0000
1003
0000
0100
0010
0100
0000
1000
0010
,  // measure 44
0100
0010
1000
0010
0100
0001
0000
1000
0100
0010
0001
0000
0100
0000
0010
0000
,  // measure 45
1010
0000
0000
0011
0000
0000
1100
0000
0000
0101
0000
0000
0110
0000
1000
0000
,  // measure 46
0001
0010
0100
0010
0001
0010
0100
0000
1100
0000
1000
0001
0100
0000
0001
0000
,  // measure 47
0011
0000
0000
1010
0000
0000
0101
0000
0000
0000
0100
0000
0000
0000
0010
1000
,  // measure 48
0010
0000
0100
0001
1000
0010
0100
0000
0001
0010
0000
0100
1000
0000
0100
0010
,  // measure 49
0001
0000
0001
0100
0000
0100
0010
0000
0010
1000
0000
1000
0100
0000
0000
0000
,  // measure 50
0000
0000
0000
0000
,  // measure 51
2002
0000
0000
3003
,  // measure 52
0000
0000
1020
0000
0001
0000
1030
0100
,  // measure 53
0010
0001
1200
0000
0001
0000
1300
0010
,  // measure 54
0100
0001
0021
0000
1000
0000
0031
0100
,  // measure 55
0010
1000
0201
0000
1000
0000
0301
0010
,  // measure 56
0100
1000
1010
0000
0011
0000
1010
0100
,  // measure 57
0001
0010
1100
0000
0101
0000
1100
0010
,  // measure 58
0001
0100
0101
0000
1100
0000
0101
0010
,  // measure 59
1000
0100
0011
0000
1010
0000
0011
0100
,  // measure 60
1001
0000
0010
0000
0011
0000
0100
0000
1000
0000
0001
0100
0000
0001
0100
0010
,  // measure 61
1000
0000
0010
0000
1010
0000
0100
0000
0001
0000
1000
0100
0000
1000
0100
0010
,  // measure 62
0001
0000
0100
0000
0101
0000
0010
0000
1000
0000
0001
0010
0000
0001
0010
0100
,  // measure 63
1000
0000
0100
0000
1100
0000
0010
0001
0100
0000
0010
0000
0100
0001
1000
0100
,  // measure 64
0010
0000
0001
0000
1001
0000
1000
0010
0000
1000
0010
0000
0110
0000
0001
0010
,  // measure 65
0000
0001
0010
0000
1001
0000
1000
0100
0000
1000
0100
0000
0110
0000
0001
0100
,  // measure 66
0000
0001
0100
0000
2010
0000
3100
0000
0012
0000
1003
0000
2100
0000
3001
0000
,  // measure 67
0102
0000
0013
0000
0022
0033
0000
2020
3030
0000
0202
0303
0000
2200
3300
0000
,  // measure 68
0010
0100
0010
0100
1002
0000
0103
0010
0000
0010
1000
0001
0010
0000
0100
1000
,  // measure 69
0001
0000
0100
0010
2000
0000
3100
0010
0000
0010
0001
1000
0010
0000
0100
0001
,  // measure 70
1000
0000
0010
0100
0002
0000
0013
0100
0000
0100
1000
0001
0100
0000
0110
0000
,  // measure 71
0010
1000
0001
0010
0100
0000
0110
0000
0010
0001
1000
0010
0100
0000
0010
1000
,  // measure 72
0001
0000
0010
0100
2000
0000
3010
0100
0000
0100
0001
1000
0100
0000
0010
0001
,  // measure 73
1000
0000
0010
0100
0002
0000
0013
0100
0000
0100
1000
0001
0100
0000
0010
1000
,  // measure 74
0001
0000
0100
0010
2000
0000
3100
0010
0000
0010
0001
1000
0010
0100
0001
0010
,  // measure 75
0100
0000
0100
1000
0000
0001
0100
0000
0100
0010
1000
0100
0010
0001
0100
0000
,  // measure 76
0110
0000
0010
0000
1000
0000
0001
0010
1000
0010
0001
0010
0100
0000
1000
0000
,  // measure 77
0001
0000
0100
0000
0010
0000
1000
0010
0001
0010
1000
0010
0100
0000
0001
0000
,  // measure 78
1000
0000
0100
0000
0010
0000
0001
0100
1000
0100
0001
0100
0010
0000
0100
0001
,  // measure 79
1000
0100
0010
0001
0100
0000
0010
0000
1010
0000
0000
0100
0001
0000
0100
0010
,  // measure 80
2000
0000
0001
0000
3100
0000
0010
0001
0000
0000
1100
0000
0000
0110
0000
0000
,  // measure 81
0012
0000
1000
0000
0103
0000
0010
1000
0000
0001
0010
0100
0000
0100
1000
0000
,  // measure 82
2100
0000
3001
0100
0010
0100
0001
0000
0102
0000
1003
0100
0010
0100
1000
0000
,  // measure 83
2020
3030
0000
0022
0033
0000
2200
3300
0000
0202
0303
0000
0010
0000
0100
0000
,  // measure 84
2002
0000
0000
0000
,  // measure 85
3003
0000
0000
0000
;

//---------------dance-single - ----------------
#NOTES:
     dance-single:
     :
     Easy:
     8:
     0.377,0.429,0.244,0.126,0.000:
0000
0000
0000
0000
,
0000
0000
0000
0000
,
0000
0000
0000
0000
,
0000
0000
0000
0000
,
0000
0000
0000
0000
,
0010
0000
0010
0000
,
0100
0000
0100
0000
,
0001
0000
0001
0000
,
1000
0000
1000
0000
,
0012
0000
0103
0000
,
2010
0000
3100
0000
,
0102
0000
0013
0000
,
2100
0000
3010
0000
,
1001
1000
0110
0010
,
1001
0001
0110
0010
,
0100
0100
0010
0010
,
0001
0000
1000
0000
0001
1000
0001
1000
,
0020
0000
0000
0030
,
0100
0001
0010
1000
,
0010
0001
0100
0100
,
0010
1000
0100
0001
,
0100
1000
1001
0010
,
0100
1000
0010
0001
,
0010
1000
0100
0100
,
0010
0001
0100
1000
,
0100
0001
1001
0000
,
0100
0000
0001
0100
1000
0000
0100
0000
,
0010
1000
0001
0010
,
0100
0000
1000
0100
0001
0000
0100
0000
,
0010
0000
0001
0000
1001
0000
0100
0010
,
0100
0000
0001
0010
1000
0000
0010
0000
,
0100
1000
0001
0100
,
0010
0000
1000
0010
0001
0000
0010
0000
,
0100
0000
0010
0000
,
1000
0100
0100
1000
,
0010
0100
0010
0000
1000
0001
0010
0000
,
0001
0100
0100
0001
,
0010
0100
0010
0000
0001
1000
0010
0000
,
1000
0010
0010
1000
,
0100
0010
0100
0000
1000
0001
0100
0000
,
0001
0010
0010
0001
,
0100
0010
0100
0000
0001
1000
0100
0000
,
1000
0100
0001
0100
,
1000
0001
0100
0000
0110
0000
0000
0000
,
0001
0100
1000
0100
,
0001
1000
0100
0000
0110
0000
0000
0000
,
0010
0000
0001
0000
,
1000
0000
0010
0000
,
0100
0100
0100
0000
,
0000
0000
0000
0000
,
2002
0000
0000
3003
0000
0000
0000
0000
,
0000
0120
0100
0130
,
0000
0200
0010
0310
,
0000
0002
0000
0013
,
0000
2000
0000
3010
,
0000
0200
0000
0310
,
0000
0020
0100
0130
,
0000
0002
1000
1003
,
0000
0200
0010
0310
,
1000
1100
0000
0010
,
0000
0101
0000
0010
,
0000
1010
0000
0100
,
0000
0011
0000
0100
,
0000
1001
1000
0110
,
0100
1001
0001
0110
,
0100
0010
0010
0100
,
0100
0001
0010
0100
,
1000
0000
0110
0000
0010
1000
0001
0000
,
0010
0000
1000
0000
0010
0001
0100
0000
,
0010
0000
0110
0000
0100
0001
1000
0000
,
0100
0000
0001
0000
0100
1000
0010
0000
,
0110
0000
1001
0000
0010
0001
1000
0000
,
0010
0000
0001
0000
0010
1000
0100
0000
,
0010
0000
0110
0000
0100
1000
0001
0000
,
0100
0000
1000
0000
0100
0001
0010
0000
,
0110
0000
1001
0000
0100
1000
0001
0000
,
0100
0000
1000
0000
0100
0001
0010
0000
,
0100
0000
0110
0000
0010
0001
1000
0000
,
0010
0000
0001
0000
0010
1000
0100
0000
,
0010
0001
0100
0000
0100
0000
0000
0000
,
0010
1000
0100
0000
0100
0000
0010
0001
,
0100
0000
0000
0100
0010
0000
0000
0010
,
1000
0100
0010
0001
,
0200
0000
0000
0000
,
0300
0000
0000
0000
;

//---------------dance-single - ----------------
#NOTES:
     dance-single:
     :
     Medium:
     11:
     0.499,0.561,0.393,0.189,0.079:
0000
0000
0000
0000
,
0000
0000
0000
0000
,
0000
0000
0000
0000
,
0000
0000
0000
0000
,
0000
0000
0000
0000
,
0001
1000
0010
0000
0100
0000
0110
0000
,
1000
0001
0010
0000
0100
0000
1001
0000
,
1000
0001
0100
0000
0010
0000
0110
0000
,
0001
1000
0100
0000
0010
0000
1001
0000
,
0200
0010
0000
0310
,
2000
0100
0000
3100
,
0002
0100
0000
0103
,
0020
0100
0000
0130
,
2010
3100
0012
1003
,
2100
3010
0102
1003
,
0110
1001
1100
0101
,
0001
0010
0100
1000
0001
0100
0010
1000
,
0000
0000
0000
0000
,
0010
1000
0001
0010
0000
0000
0100
0000
,
1000
0010
0100
0001
,
0010
0001
1000
0010
0000
0010
0100
0000
,
0001
0000
1000
0000
0100
0000
0000
0000
0010
0000
0000
0010
0000
0000
0010
0000
,
0100
1000
0001
0100
0000
0000
0010
0000
,
1000
0100
0010
0001
,
0100
0001
1000
0100
0000
0010
0001
1000
,
0020
0001
1030
0100
,
0010
0001
1000
0010
0000
0000
0100
0000
,
0001
0010
0100
1000
,
0010
1000
0001
0010
0000
0010
0100
0000
,
1000
0000
0001
0000
0100
0000
0000
0000
0010
0000
0000
0010
0000
0000
0010
0000
,
0100
0001
1000
0100
0000
0000
0010
0000
,
0001
0100
0010
1000
,
0100
1000
0001
0100
0000
0010
1000
0001
,
0020
1000
0031
0000
,
0010
0000
0000
0001
0000
0000
0101
0000
0000
0000
0100
0000
0010
0000
0000
0000
,
1000
0100
0001
0000
0001
0100
1000
0000
,
0001
0000
0000
0100
0000
0000
0010
0000
0000
1000
0000
0000
0100
0000
0000
0000
,
0010
0001
0100
0000
0010
1000
0001
0100
,
0010
0000
0000
1000
0000
0000
1100
0000
0000
0000
0100
0000
0010
0000
0000
0000
,
0001
0100
1000
0000
1000
0100
0001
0000
,
1000
0000
0000
0100
0000
0000
0010
0000
0000
0001
0000
0000
0100
0000
0000
0000
,
0201
1000
0001
0310
,
0100
0000
0000
0001
0000
0000
0011
0000
0000
0000
0010
0000
0100
0000
0000
0000
,
1000
0010
0001
0000
0001
0010
1000
0000
,
0001
0000
0000
0010
0000
0000
0100
0000
0000
1000
0000
0000
0010
0000
0000
0000
,
0100
0001
0010
0000
0100
1000
0001
0010
,
0100
0000
0000
1000
0000
0000
0010
0000
0000
0000
0100
0000
0000
0000
0001
0000
,
0000
0010
0000
0100
0000
1000
0000
0001
,
0100
0000
0000
0100
0000
0000
0010
0000
0000
0010
0000
0000
1000
0000
0000
0000
,
0000
0000
0000
0000
,
2002
0000
0000
3003
,
0000
1200
0001
1300
,
0010
0201
1000
0301
,
0010
2100
0010
3100
,
0010
0102
0010
0103
,
0010
0000
1000
0200
1000
0000
0310
0001
,
0100
0000
0001
0200
0001
0000
0310
1000
,
0100
0000
1000
0020
1000
0000
0130
0001
,
0010
0000
0001
0020
0001
0000
0130
1000
,
0010
0101
0100
0010
,
1000
1100
0100
0010
,
0001
0011
0010
0100
,
1000
1010
0010
0100
,
0001
0011
1000
1010
,
0001
0101
1000
1100
,
0100
0010
0001
1000
,
0010
0000
0000
0000
0110
0000
0000
1000
0000
0000
0100
0000
0000
0010
0000
0000
,
0002
0000
2000
3003
1001
0000
0000
0000
0010
0000
0001
0000
0100
0000
0000
0000
,
1010
0000
0011
0000
1000
0100
0001
0000
,
1100
0000
0101
0000
1000
0010
0001
0000
,
0100
0001
0010
0000
0100
1000
0010
0000
,
0110
0000
1001
0000
0010
1000
0100
0000
,
0011
0000
1010
0000
0001
0100
1000
0000
,
0101
0000
1100
0000
0001
0010
1000
0000
,
0100
1000
0010
0000
0100
0001
0010
0100
,
1000
0000
0110
0000
1000
0010
0001
0000
,
1010
0000
1100
0000
0010
0001
0100
0000
,
0101
0000
0011
0000
0100
1000
0010
0000
,
0001
0010
1000
0000
0001
0100
1000
0000
,
1001
0000
0000
0000
0010
0000
0000
0000
0000
0000
0010
0000
0000
0100
0000
0000
,
0110
0000
0000
0000
0001
0000
0000
0000
0000
0000
1000
0000
0000
0001
0000
0000
,
1001
0100
0110
0001
,
0010
0000
0000
0100
0000
0000
1000
0000
0000
0001
0000
0000
0100
0000
0010
0000
,
0200
0000
0000
0000
,
0300
0000
0000
0000
;

//---------------dance-single - Copied from----------------
#NOTES:
     dance-single:
     Copied from:
     Beginner:
     6:
     0.283,0.330,0.165,0.094,0.000:
0000
0000
0000
0000
,
0000
0000
0000
0000
,
0000
0000
0000
0000
,
0000
0000
0000
0000
,
0000
0000
0000
0000
,
0010
0000
0010
0000
,
0100
0000
0100
0000
,
0001
0000
0001
0000
,
1000
0000
1000
0000
,
0011
0000
0000
0000
,
1010
0000
0000
0000
,
0101
0000
0000
0000
,
1100
0000
0000
0000
,
1001
0000
0110
0000
,
1001
0000
0110
0000
,
0010
0010
0100
0100
,
0001
1000
0001
1000
,
0020
0000
0000
0030
,
0100
0001
0010
0000
,
0100
1000
0001
0010
,
0100
1000
0010
0000
,
0100
0001
1000
0100
,
0010
0001
0100
0000
,
0010
1000
0001
0100
,
0010
1000
0100
0000
,
0010
0000
0100
0000
,
1000
0010
0001
0000
,
0010
1000
0001
0100
,
0001
0010
1000
0000
,
0010
0001
1000
0010
,
1000
0100
0001
0000
,
0100
1000
0001
0010
,
0001
0100
1000
0000
,
0100
0000
0010
0000
,
1000
0100
0001
0100
,
1000
0010
0100
0000
,
0001
0100
1000
0100
,
0001
0010
0100
0000
,
1000
0010
0001
0010
,
1000
0100
0010
0000
,
0001
0010
1000
0010
,
0001
0100
0010
0000
,
1000
0100
0001
0000
,
1000
0010
0001
0000
,
0001
0100
1000
0000
,
0001
0010
1000
0001
,
0110
0000
0010
0000
,
0100
0000
0100
0000
,
1000
0000
1000
0000
,
0001
0000
0001
0000
,
2002
0000
0000
3003
0000
0000
0000
0000
,
0000
0120
0100
0130
,
0000
0200
0010
0310
,
0000
0002
0000
0003
,
0000
2000
0000
3000
,
0000
0200
0000
0300
,
0000
0020
0100
0130
,
0000
0002
1000
1003
,
0000
0210
0010
0310
,
0000
1100
0000
0000
,
0000
0101
0000
0000
,
0000
1010
0000
0000
,
0000
0011
0000
0000
,
0000
1001
0000
0110
,
0000
1001
0000
0110
,
0000
0010
0010
0100
,
0100
0001
0010
0100
,
1000
0110
1000
0001
,
0010
0100
0010
0001
,
1000
0010
0100
0010
,
1000
1000
1000
0000
,
0100
0010
0001
1000
,
0010
0100
0010
1000
,
0001
0010
0100
0010
,
0001
0001
0001
0000
,
0010
0100
1000
0001
,
0100
0010
0100
0001
,
1000
0100
0010
0100
,
1000
1000
1000
0000
,
0010
0010
0010
0000
,
0100
0100
0100
0000
,
0001
0001
0001
0000
,
1000
0100
0010
0001
,
0200
0000
0000
0000
,
0300
0000
0000
0000
;
