#TITLE:Weeble Wobble;
#SUBTITLE:Short ver.;
#ARTIST:Eliminate;
#TITLETRANSLIT:;
#SUBTITLETRANSLIT:;
#ARTISTTRANSLIT:;
#GENRE:;
#CREDIT:NAOKI;
#MUSIC:Weeble Wobble.ogg;
#BANNER:Weeble-Wobble-bn.png;
#BACKGROUND:Weeble-Wobble-bg.png;
#CDTITLE:naokicdtitle.png;
#SAMPLESTART:77.504;
#SAMPLELENGTH:11.429;
#SELECTABLE:YES;
#OFFSET:0.591;
#BPMS:0.000=126.000;
#STOPS:;
#BGCHANGES:;
#FGCHANGES:;

//--------------- dance-single - NAOKI BR FS+ SS XO ----------------
#NOTES:
     dance-single:
     NAOKI BR FS+ SS XO:
     Challenge:
     12:
     0,0,0,0,0:
0000
0000
0000
0000
,
0001
0000
0000
0000
0000
0000
0000
0000
0200
0300
0000
0000
0000
0000
0000
0000
0010
0000
0000
0000
0000
0000
0000
0000
2000
3000
0000
0000
0000
0000
0000
0000
0001
0000
0000
0000
0000
0000
0000
0000
0020
0030
0000
0000
0000
0000
0000
0000
0100
0000
0000
0000
1000
0000
0000
0000
0002
0003
0000
0000
0000
0000
0000
0000
,
0100
0000
0000
0000
0000
0000
0000
0000
0020
0030
0000
0000
0000
0000
0000
0000
0100
0000
0000
0000
0000
0000
0000
0000
0002
0003
0000
0000
0000
0000
0000
0000
1000
0000
0000
0000
0100
0000
0000
0000
0100
0000
0000
0000
0001
0000
0000
0000
1000
0000
0000
0000
0100
0000
0000
0000
0100
0000
0000
0000
0001
0000
0000
0000
,
1010
0000
0000
0000
0000
0000
0000
0000
0200
0300
0000
0000
0000
0000
0000
0000
0010
0000
0000
0000
0000
0000
0000
0000
0002
0003
0000
0000
0000
0000
0000
0000
1000
0000
0000
0000
0000
0000
0000
0000
0020
0030
0000
0000
0000
0000
0000
0000
0100
0000
0000
0000
0001
0000
0000
0000
2000
3000
0000
0000
0000
0000
0000
0000
,
0100
0000
0000
0000
0000
0000
0000
0000
0020
0030
0000
0000
0000
0000
0000
0000
0100
0000
0000
0000
0000
0000
0000
0000
2000
3000
0000
0000
0000
0000
0000
0000
0001
0000
0000
0000
0100
0000
0000
0000
0100
0000
0000
0000
1000
0000
0000
0000
0001
0000
0000
0000
0100
0000
0000
0000
0100
0000
0000
0000
1000
0000
0000
0000
,
0011
0000
0000
0000
0000
0000
0000
0000
0200
0300
0000
0000
0000
0000
0000
0000
0001
0000
0000
0000
0000
0000
0000
0000
2000
3000
0000
0000
0000
0000
0000
0000
0100
0000
0000
0000
0000
0000
0000
0000
0020
0030
0000
0000
0000
0000
0000
0000
0001
0000
0000
0000
1000
0000
0000
0000
0020
0030
0000
0000
0000
0000
0000
0000
,
0100
0000
0000
0000
0000
0000
0000
0000
0002
0003
0000
0000
0000
0000
0000
0000
0010
0000
0000
0000
0000
0000
0000
0000
0200
0300
0000
0000
0000
0000
0000
0000
1000
0000
0000
0000
0010
0000
0000
0000
0010
0000
0000
0000
0001
0000
0000
0000
1000
0000
0000
0000
0010
0000
0000
0000
0010
0000
0000
0000
0001
0000
0000
0000
,
1100
0000
0000
0000
0000
0000
0000
0000
0020
0030
0000
0000
0000
0000
0000
0000
1000
0000
0000
0000
0000
0000
0000
0000
0002
0003
0000
0000
0000
0000
0000
0000
0100
0000
0000
0000
0000
0000
0000
0000
0020
0030
0000
0000
0000
0000
0000
0000
1000
0000
0000
0000
0001
0000
0000
0000
0020
0030
0000
0000
0000
0000
0000
0000
,
0100
0000
0000
0000
0000
0000
0000
0000
2000
3000
0000
0000
0000
0000
0000
0000
0010
0000
0000
0000
0000
0000
0000
0000
0200
0300
0000
0000
0000
0000
0000
0000
0001
0000
0000
0000
0010
0000
0000
0000
0010
0000
0000
0000
1000
0000
0000
0000
0001
0000
0000
0000
0010
0000
0000
0000
0010
0000
0000
0000
1000
0000
0000
0000
,
0101
0000
1000
0000
0001
0000
0100
0000
0000
0010
1000
0001
0010
0001
1000
0010
,
0000
0000
0100
0000
0001
1000
0100
0000
0000
0010
0001
1000
0010
1000
0001
0010
,
0000
0000
0001
0000
1000
0010
0100
0000
0000
0001
0100
0100
1000
0100
0100
0001
,
0000
0000
1000
0000
0001
0010
0100
0000
0000
1000
0100
0100
0001
0100
0100
1000
,
0011
0000
1000
0000
0100
0010
0001
0000
1000
0010
0010
0100
1000
0010
0010
0100
,
1000
0000
0001
0000
0100
0010
1000
0000
0001
0010
0010
0100
0001
0010
0010
0100
,
0001
0000
1000
0000
0100
0010
0001
0000
0100
0010
1000
0000
0001
0010
0100
0000
,
1000
0001
0100
0100
1000
0100
0100
0001
0010
0010
1000
0010
0010
0001
1000
0010
,
2100
0000
3001
0100
0100
1000
0001
0100
00M0
0100
1000
0010
0010
0001
1000
0010
,
0M00
0010
0001
0100
0010
1000
0100
0010
0001
0100
0100
1000
0100
0100
0001
1000
,
0102
0000
1003
0100
0100
0001
1000
0100
00M0
0100
0001
0010
0010
1000
0001
0010
,
0M00
0010
1000
0100
0010
0001
0100
0010
1000
0100
0100
0100
0010
0100
0100
0100
,
2010
0000
3001
0100
0010
1000
0001
0010
0M00
0010
1000
0100
0010
0001
1000
0010
,
0M00
0010
0001
0100
0010
1000
0001
0010
0001
0100
0100
0100
0010
0100
0100
0100
,
0011
1000
0001
0100
0100
1000
0010
0001
0000
0010
1000
0100
0100
0001
0010
1000
,
0000
0010
0001
0100
0100
1000
0001
0100
0010
1000
0100
0010
0001
0100
0010
1000
,
0102
0000
1003
0100
0100
0001
1000
0100
00M0
0100
0001
0010
0010
1000
0001
0010
,
0M00
0010
1000
0100
0010
0001
0100
0010
1000
0100
0100
0001
0100
0100
1000
0001
,
2100
0000
3001
0100
0100
1000
0001
0100
00M0
0100
1000
0010
0010
0001
1000
0010
,
0M00
0010
0001
0100
0010
1000
0100
0010
0001
0100
0100
0100
0010
0100
0100
0100
,
0012
0000
1003
0010
0010
0001
1000
0010
0M00
0010
0001
0100
0100
1000
0001
0100
,
00M0
0100
1000
0010
0010
0001
0100
0010
1000
0100
0100
0100
0010
0100
0100
0100
,
1010
0001
1000
0010
0100
0010
0100
0001
0010
0010
1000
0100
0010
0100
0010
0001
,
0100
0100
1000
0010
0100
0010
0100
0001
0010
0010
1000
0100
0010
0001
0100
0100
,
1000
0001
0100
0010
0000
1000
0100
0010
0000
0001
0100
0100
1000
0010
0100
0001
,
0000
1000
0100
0010
0000
0001
0100
0010
0000
1000
0100
0100
0001
0010
0100
1000
,
0000
0001
0100
0010
0000
1000
0100
0010
0000
0001
0100
0100
1000
0010
0100
0001
,
0000
1000
0100
0010
0000
0001
0100
0010
0000
1000
0100
0100
0001
0100
0100
1000
,
0010
1000
0100
0010
0000
0001
0100
0010
0000
1000
0100
0100
0001
0010
0100
1000
,
0000
0001
0100
0010
0000
1000
0100
0010
0000
0001
0100
0100
1000
0010
0100
0001
,
0000
0000
1000
0000
0100
0000
0100
0000
0001
0000
0100
0000
0100
0000
1000
0000
0010
0000
0100
0000
0001
0000
0010
0M00
0010
0000
1000
0000
0100
0000
0010
0000
,
0000
0001
0100
0010
1000
0100
0010
0001
0100
0100
0100
0010
0100
0100
0100
0000
,
0011
1000
0100
0100
0001
0010
1000
0000
10M0
0100
0010
0001
1000
0010
0001
0000
,
00M1
0100
0010
1000
0001
0010
1000
0000
10M0
0100
0100
0001
0010
0001
0100
0100
,
1010
0001
0100
0100
1000
0010
0001
0000
00M1
0100
0010
1000
0001
0010
1000
0000
,
10M0
0100
0010
0001
1000
0010
0001
0000
0010
0100
0100
0100
0001
0100
0100
0100
,
0011
1000
0100
0010
0001
0100
1000
0000
1M00
0010
0100
0001
1000
0100
0001
0000
,
0M01
0010
0100
1000
0001
0100
1000
0000
1M00
0010
0010
0001
0100
0001
0010
0010
,
1100
0000
0000
0000
0001
0000
0100
0000
0100
0000
1000
0000
0010
0000
0000
0000
0100
00M0
0100
0000
1000
0000
0010
0000
0100
0000
0001
0000
0010
0000
0000
0000
,
0100
00M0
0100
0000
0001
0000
0010
0000
0100
0000
1000
0000
0010
0000
0100
0000
0001
0000
0010
0000
0100
0000
1000
0000
0010
0000
0100
0000
0001
0000
1000
0000
,
0102
0000
1003
0100
0100
0001
0010
0001
0100
0100
1000
0100
0100
0001
0010
0001
,
0100
0100
1000
0001
0100
0100
1000
0010
1000
0100
0100
0001
0100
0100
1000
0010
,
1000
0001
0010
0010
1000
0100
1000
0010
0010
0001
1000
0010
0010
0001
0100
0001
,
1000
0100
0100
0100
0010
0100
0100
0100
1000
0010
0100
1000
0100
0010
1000
0001
,
2100
0000
3001
0100
0100
1000
0010
1000
0100
0100
0001
0100
0100
1000
0010
1000
,
0100
0100
0001
1000
0100
0100
0001
0010
0001
0100
0100
1000
0100
0100
0001
0010
,
0001
1000
0010
0010
0001
0100
0001
0010
0010
1000
0001
0010
0010
1000
0100
1000
,
0001
0100
0100
0100
0010
0100
0100
0100
0001
0010
0100
0001
0100
0010
0002
2000
,
0000
0000
0000
0000
,
3003
0000
0000
0000
;
