#VERSION:0.83;
#TITLE:Virtuous suicide;
#SUBTITLE:(EXTENDED Ver.);
#ARTIST:DiGiTAL WiNG;
#TITLETRANSLIT:;
#SUBTITLETRANSLIT:;
#ARTISTTRANSLIT:;
#GENRE:;
#CREDIT:NAOKI;
#MUSIC:Virtuous suicide (EXTENDED Ver.).ogg;
#BANNER:Virtuous_suicide-bn.png;
#BACKGROUND:Virtuous_suicide-bg.png;
#CDTITLE:naokicdtitle.png;
#SAMPLESTART:101.592;
#SAMPLELENGTH:26.035;
#SELECTABLE:YES;
#OFFSET:0.792;
#BPMS:0.000=157.000;
#STOPS:;
#BGCHANGES:2.125=virtuous_suicide-video.mp4=1.000=0=0=1,
99999.000=-nosongbg-=1.000=0=0=0=StretchNoLoop====
;
#FGCHANGES:;

//--------------- dance-single - NAOKI (8 26*/42*/26*/2 32*/18) ----------------
#NOTEDATA:;
#STEPSTYPE:dance-single;
#DESCRIPTION:NAOKI (8 26*/42*/26*/2 32*/18);
#DIFFICULTY:Challenge;
#METER:15;
#RADARVALUES:1.26355,1.064651,0.010698,0.326299,2.162401,3307,3303,4,122,0,0,1.26355,1.064651,0.010698,0.326299,2.162401,3307,3303,4,122,0,0;
#NOTES:
0000
0000
0000
0000
,
0000
0000
0000
0000
,
0000
0000
0000
0000
,
0000
0000
0000
0000
,
0000
0000
0000
0000
,
1000
0001
0000
0100
0000
0010
1000
0000
0001
0010
0000
0100
0000
1000
0001
0000
,
0100
0010
0000
1000
0000
0001
0010
0000
0000
0100
0010
0001
0000
1000
0000
0010
,
0100
0001
0000
1000
0100
0000
0010
0001
0000
1000
0010
0000
0100
0010
1000
0000
,
0001
0010
0000
0100
1000
0000
0001
0000
0100
0010
1000
0001
0010
0100
0010
0001
,
1000
0010
1000
0100
1000
0001
0100
0001
1000
0010
1000
0100
1000
0001
0010
0001
,
1000
0010
0100
0001
0010
0001
1000
0010
1000
0100
0010
0001
0100
0010
1000
0001
,
0010
0001
0100
0001
1000
0100
1000
0001
0010
0001
0100
0001
1000
0100
1000
0001
,
0100
0010
1000
0100
0010
0001
0100
0010
1000
0100
1000
0001
1000
0010
0100
0001
,
1000
0100
1000
0010
1000
0001
0010
0001
1000
0100
1000
0010
1000
0001
0100
0001
,
1000
0100
0010
0001
0100
0001
1000
0010
0100
0010
1000
0001
0010
0100
1000
0001
,
0100
0001
0010
0001
1000
0100
1000
0001
0100
0001
0010
0001
1000
0010
1000
0001
,
0010
0100
1000
0010
0100
0001
0010
0100
1000
0010
1000
0001
1000
0100
0010
0001
,
0100
0010
0000
1000
0000
0001
0010
0000
0100
1000
0000
0001
0000
0100
0010
0000
,
1000
0100
0010
0100
1000
0001
0100
0010
0100
0001
1000
0100
1000
0001
1000
0100
,
0010
0001
0000
1000
0000
0010
0100
0000
0001
1000
0000
0100
0000
0010
0001
0000
,
0100
0010
1000
0001
0010
0100
0010
0001
1000
0010
0100
0010
1000
0000
0001
0000
,
0010
0100
0000
1000
0000
0001
0100
0000
0010
1000
0000
0001
0000
0010
0100
0000
,
1000
0010
1000
0001
0010
0100
1000
0001
0100
0010
0100
0001
1000
0100
1000
0010
,
0100
0001
0000
1000
0000
0100
0010
0000
0001
1000
0000
0010
0000
0100
0001
0000
,
0010
0000
0000
0001
0000
0000
1000
0000
0000
0010
0000
0000
1000
0000
0000
0001
0000
0000
0010
0000
0000
0001
0000
0000
1000
0000
0000
0000
0010
0000
0000
0000
0100
0000
0000
0000
0002
0000
0000
0000
0000
0000
0003
0000
0000
0000
0000
0000
,
2000
0000
3000
0200
0000
0300
0020
0000
0030
0200
0000
0300
1000
0000
0001
0000
,
0200
0000
0300
0020
0000
0030
2000
0000
0000
0000
0000
0000
3000
0000
0001
0010
,
0200
0000
0300
0020
0000
0030
0001
0000
2000
0000
3000
0020
0000
0030
0200
0000
,
0000
0000
0000
0000
0000
0300
0000
0001
,
0020
0000
0030
0200
0000
0300
2000
0000
3000
0002
0003
0000
0100
0000
0010
0000
,
2000
0000
3000
0200
0000
0300
0020
0000
0000
0000
0000
0000
0030
0000
0001
1000
,
0020
0000
0030
0200
0000
0300
0002
0003
0020
0000
0030
0200
0000
0300
2000
3000
,
0001
0100
0010
0100
0001
1000
0100
0000
,
1000
0010
0000
0100
0001
0000
1000
0100
0000
0010
0001
0000
0100
0010
0100
0001
,
1000
0100
1000
0001
0100
0001
0010
0001
1000
0010
1000
0001
0010
0001
0100
0001
,
1000
0100
1000
0001
0100
0001
0010
0001
1000
0010
1000
0001
1000
0100
0010
0001
,
1000
0010
1000
0001
0010
0001
0100
0001
1000
0100
1000
0001
0100
0001
0010
0001
,
1000
0010
0100
0001
1000
0100
0010
0001
0100
0001
1000
0001
0010
0100
1000
0001
,
0100
0001
1000
0100
1000
0010
1000
0001
0010
0001
1000
0010
1000
0100
1000
0001
,
0100
0001
1000
0100
1000
0010
1000
0001
0010
0001
1000
0001
0100
0010
1000
0001
,
0010
0001
1000
0010
1000
0100
1000
0001
0100
0001
1000
0100
1000
0010
1000
0001
,
0010
0100
1000
0001
0100
0010
1000
0100
1000
0001
1000
0010
0100
0001
1000
0100
,
0010
0001
0000
1000
0010
0000
0100
0001
0000
1000
0100
0000
0010
0100
0010
0100
,
1000
0001
1000
0010
1000
0001
0100
0001
1000
0100
0010
0100
1000
0001
0100
0010
,
1000
0001
1000
0100
1000
0001
0010
0001
1000
0010
0100
0001
1000
0100
1000
0001
,
0010
0001
1000
0001
0100
0010
1000
0001
0010
0100
0010
0001
1000
0010
0100
0001
,
1000
0010
1000
0001
1000
0100
0010
0001
1000
0010
0100
0010
1000
0001
0010
0001
,
1000
0100
1000
0001
1000
0010
0100
0001
1000
0100
1000
0001
0100
0010
1000
0001
,
0010
0001
1000
0001
0100
0010
1000
0001
0010
0001
1000
0010
0100
0001
0010
0100
,
1000
0001
1000
0010
1000
0001
0010
0100
1000
0001
0100
0010
1000
0100
0010
0001
,
0100
0001
1000
0001
0010
0100
1000
0001
0200
0000
0300
0010
1000
0000
0001
0010
,
0100
1000
0001
1000
0010
1000
0001
0010
0001
1000
0100
1000
0001
0100
0010
0100
,
0001
1000
0001
0010
0001
1000
0010
0100
0001
1000
0100
1000
0001
0010
0001
1000
,
0010
1000
0001
1000
0100
0010
0001
1000
0010
0100
0001
0010
0001
1000
0100
1000
,
0001
0100
0001
1000
0001
0010
0100
0010
0001
1000
0010
1000
0001
0010
0100
0010
,
0001
1000
0010
1000
0001
1000
0100
0010
0001
0100
0001
1000
0100
1000
0001
0100
,
0010
1000
0001
1000
0100
1000
0001
0100
0010
1000
0100
1000
0001
0100
0010
1000
,
0001
0010
0001
1000
0001
0100
0010
1000
0100
1000
0001
0100
0010
1000
0001
0010
,
0001
1000
0001
0100
0010
0000
1000
0000
0001
0010
0001
0100
0010
1000
0100
0010
,
0001
0100
0001
1000
0100
1000
0001
0100
0010
1000
0001
0010
0100
0010
0001
1000
,
0100
1000
0001
0100
0010
0100
0001
1000
0100
0010
0001
0100
0010
0000
1000
0000
,
0001
0010
0100
1000
0001
0100
0001
1000
0010
1000
0001
0010
0100
0010
0001
1000
,
0010
0100
0001
1000
0100
1000
0001
0100
0010
1000
0001
0010
0100
0000
1000
0000
,
0001
0100
0001
0010
0001
1000
0010
1000
0001
0100
0010
1000
0100
1000
0001
0100
,
0010
1000
0001
0010
0100
0010
0001
1000
0010
0100
0001
1000
0100
0000
0010
0000
,
0001
0100
0010
1000
0100
0010
0001
1000
0010
1000
0001
0010
0001
1000
0010
0100
,
0001
0000
0000
1000
0000
0000
0100
0000
0000
1000
0000
0000
0001
0000
0000
0100
0000
0000
0010
0000
0000
1000
0000
0000
0001
0000
0000
0000
0010
0000
0000
0000
0100
0000
0000
0000
2000
0000
0000
0000
0000
0000
3000
0000
0000
0000
0000
0000
,
0001
0100
0001
1000
0100
1000
0001
0010
0100
1000
0001
0100
0010
0100
0001
1000
,
0100
0010
0001
1000
0010
1000
0001
0010
0001
1000
0001
0100
0010
0100
0001
1000
,
0100
1000
0001
0100
0001
1000
0100
0010
0001
1000
0010
0100
0010
1000
0001
0010
,
0001
1000
0001
0100
0010
1000
0001
1000
0100
1000
0001
0100
0010
1000
0100
1000
,
0001
0010
0001
1000
0010
1000
0001
0100
0010
1000
0001
0010
0100
0010
0001
1000
,
0010
1000
0001
0010
0001
1000
0010
1000
0001
1000
0100
0010
0001
0100
0001
1000
,
0100
1000
0010
0100
0001
1000
0010
1000
0001
0100
0001
0010
0100
1000
0001
0010
,
0001
1000
0100
1000
0001
0100
0010
0100
0001
1000
0100
1000
0001
0100
0010
1000
,
0100
1000
0001
0100
0001
1000
0100
0010
0001
1000
0100
0010
0100
1000
0001
0100
,
0010
1000
0001
0010
0001
1000
0010
1000
0001
1000
0100
0010
0001
1000
0010
0100
,
0001
0010
0001
1000
0010
1000
0100
0010
0001
0100
0001
1000
0100
1000
0010
1000
,
0001
0010
0001
1000
0001
0100
0010
1000
0100
0010
0001
1000
0010
0100
0010
1000
,
0001
0010
0001
0100
0010
1000
0100
1000
0010
0100
0001
1000
0100
1000
0001
0100
,
0010
1000
0001
0010
0100
0010
0001
1000
0001
0100
0010
1000
0001
1000
0100
1000
,
0001
0100
0001
1000
0100
1000
0010
0100
0001
0010
0001
1000
0010
1000
0001
0010
,
0100
1000
0001
1000
0010
1000
0001
0010
0100
0010
0001
1000
0010
0100
0010
1000
,
0001
0010
0000
0100
1000
0000
0001
0100
0000
0010
1000
0000
0100
0010
0100
1000
,
0001
0100
0001
1000
0100
1000
0010
1000
0001
0010
0001
1000
0010
1000
0100
1000
,
0001
0100
0001
1000
0100
1000
0010
1000
0001
0010
0001
1000
0001
0100
0010
1000
,
0001
0010
0001
1000
0010
1000
0100
1000
0001
0100
0001
1000
0100
1000
0010
1000
,
0001
0010
0100
1000
0001
0100
0010
1000
0100
1000
0001
1000
0010
0100
0001
1000
,
0100
1000
0001
0100
0001
0010
0001
1000
0010
1000
0001
0010
0001
0100
0001
1000
,
0100
1000
0001
0100
0001
0010
0001
1000
0010
1000
0001
1000
0100
0010
0001
1000
,
0010
1000
0001
0010
0001
0100
0001
1000
0100
1000
0001
0100
0001
0010
0001
1000
,
0010
0100
0001
1000
0100
0010
0001
0100
0001
1000
0001
0010
0100
1000
0001
0100
,
0010
1000
0000
0001
0010
0000
0100
1000
0000
0001
0100
0000
0010
0100
0010
0100
,
0001
1000
0001
0010
0001
1000
0100
1000
0001
0100
0010
0100
0001
1000
0100
0010
,
0001
1000
0001
0100
0001
1000
0010
1000
0001
0010
0100
1000
0001
0100
0001
1000
,
0010
1000
0001
1000
0100
0010
0001
1000
0010
0100
0010
1000
0001
0010
0100
1000
,
0001
0010
0001
1000
0001
0100
0010
1000
0001
0010
0100
0010
0001
1000
0100
1000
,
0001
0100
0001
1000
0001
0010
0100
1000
0001
0100
0001
1000
0100
0010
0001
1000
,
0010
1000
0001
1000
0100
0010
0001
1000
0010
1000
0001
0010
0100
1000
0010
0100
,
0001
1000
0001
0010
0001
1000
0010
0100
0001
1000
0100
0010
0001
0100
0010
1000
,
0100
1000
0001
1000
0010
0100
0001
1000
0200
0000
0300
0010
0001
0000
1000
0010
,
0100
0001
1000
0001
0010
0001
1000
0100
1000
0001
0100
0001
1000
0100
0010
0100
,
1000
0001
1000
0010
1000
0001
0010
0100
1000
0001
0100
0001
1000
0010
1000
0001
,
0010
0001
1000
0001
0100
0010
1000
0001
0010
0100
1000
0010
1000
0001
0100
0001
,
1000
0100
1000
0001
1000
0010
0100
0010
1000
0001
0010
0001
1000
0010
0100
0010
,
1000
0001
0010
0001
1000
0001
0100
0010
1000
0100
1000
0001
0100
0001
1000
0100
,
0010
0001
1000
0001
0100
0001
1000
0100
0010
0001
0100
0001
1000
0100
0010
0001
,
1000
0010
1000
0001
1000
0100
0010
0001
0100
0001
1000
0100
0010
0001
1000
0010
,
1000
0001
1000
0100
0010
0000
0001
0000
1000
0010
1000
0100
0010
0001
0100
0010
,
1000
0100
1000
0001
0100
0001
1000
0100
0010
0001
1000
0010
0100
0010
1000
0001
,
0100
0001
1000
0100
0010
0100
1000
0001
0100
0010
1000
0100
0010
0000
0001
0000
,
1000
0010
0100
0001
1000
0100
1000
0001
0010
0001
1000
0010
0100
0010
1000
0001
,
0010
0100
1000
0001
0100
0001
1000
0100
0010
0001
1000
0010
0100
0000
0001
0000
,
1000
0100
1000
0010
1000
0001
0010
0001
1000
0100
0010
0001
0100
0001
1000
0100
,
0010
0001
1000
0010
0100
0010
1000
0001
0010
0100
1000
0001
0100
0000
0010
0000
,
1000
0100
0010
0001
0100
0010
1000
0001
0010
0001
1000
0010
1000
0001
0010
0100
,
1000
0000
0000
0001
0000
0000
0100
0000
0000
0001
0000
0000
1000
0000
0000
0100
0000
0000
0010
0000
0000
0001
0000
0000
1000
0000
0000
0000
0010
0000
0000
0000
0100
0000
0000
0000
0002
0000
0000
0000
0000
0000
0003
0000
0000
0000
0000
0000
,
1000
0100
1000
0001
0100
0001
1000
0010
0100
0001
1000
0100
0010
0100
1000
0001
,
0100
0010
1000
0001
0010
0001
1000
0010
1000
0001
1000
0100
0010
0100
1000
0001
,
0100
0001
1000
0100
1000
0001
0100
0010
1000
0001
0010
0100
0010
0001
1000
0010
,
1000
0001
1000
0100
0010
0001
1000
0001
0100
0001
1000
0100
0010
0001
0100
0001
,
1000
0010
1000
0001
0010
0001
1000
0100
0010
0001
1000
0010
0100
0010
1000
0001
,
0010
0001
1000
0010
1000
0001
0010
0001
1000
0001
0100
0010
1000
0100
1000
0001
,
0100
0001
0010
0100
1000
0001
0010
0001
1000
0100
1000
0010
0100
0001
1000
0010
,
1000
0001
0100
0001
1000
0100
0010
0100
1000
0001
0100
0001
1000
0100
0010
0001
,
0100
0001
1000
0100
1000
0001
0100
0010
1000
0001
0100
0010
0100
0001
1000
0100
,
0010
0001
1000
0010
1000
0001
0010
0001
1000
0001
0100
0010
1000
0001
0010
0100
,
1000
0010
1000
0001
0010
0001
0100
0010
1000
0100
1000
0001
0100
0001
0010
0001
,
1000
0010
1000
0001
1000
0100
0010
0001
0100
0001
1000
0001
0010
0100
0010
0001
,
1000
0010
1000
0100
0010
0001
0100
0001
0010
0100
1000
0001
0100
0001
1000
0100
,
0010
0001
1000
0010
0100
0010
1000
0001
1000
0100
0010
0001
1000
0001
0100
0001
,
1000
0100
1000
0001
0100
0001
0010
0100
1000
0010
1000
0001
0010
0001
1000
0010
,
0100
0001
1000
0001
0010
0001
1000
0010
0100
0010
1000
0001
0010
0100
0010
0001
,
1000
0010
0000
0100
0001
0000
1000
0100
0000
0010
0001
0000
0100
0010
0100
0001
,
1000
0100
1000
0001
0100
0001
0010
0001
1000
0010
1000
0001
0010
0001
0100
0001
,
1000
0100
1000
0001
0100
0001
0010
0001
1000
0010
1000
0001
1000
0100
0010
0001
,
1000
0010
1000
0001
0010
0001
0100
0001
1000
0100
1000
0001
0100
0001
0010
0001
,
1000
0010
0100
0001
1000
0100
0010
0001
0100
0001
1000
0001
0010
0100
1000
0001
,
0100
0001
1000
0100
1000
0010
1000
0001
0010
0001
1000
0010
1000
0100
1000
0001
,
0100
0001
1000
0100
1000
0010
1000
0001
0010
0001
1000
0001
0100
0010
1000
0001
,
0010
0001
1000
0010
1000
0100
1000
0001
0100
0001
1000
0100
1000
0010
1000
0001
,
0010
0000
0000
0000
0100
0000
0000
0000
1000
0000
0000
0000
0001
0000
0000
0000
0100
0000
0000
0000
0010
0000
0000
0000
1000
0000
0000
0000
0100
0000
0000
0000
1000
0000
0000
0000
0001
0000
0000
0000
0100
0000
0000
0000
0040
0030
0000
0000
1000
0000
0000
0000
0004
0003
0000
0000
1000
0000
0000
0000
0400
0300
0000
0000
,
0020
0030
0000
0000
0002
0000
0000
0000
0003
0000
0000
0000
2000
0000
0000
0000
3000
0000
0000
0000
0020
0030
0000
0000
0200
0000
0000
0000
0300
0000
0000
0000
0002
0003
0000
0000
2000
0000
0000
0000
3000
0000
0000
0000
0200
0000
0000
0000
0300
0000
0000
0000
0020
0030
0000
0000
0002
0000
0000
0000
0003
0000
0000
0000
,
2000
3000
0000
0000
0020
0000
0000
0000
0030
0000
0000
0000
0200
0000
0000
0000
0300
0000
0000
0000
0020
0030
0000
0000
2000
0000
0000
0000
3000
0000
0000
0000
0002
0000
0000
0000
0003
0000
0000
0000
0020
0000
0000
0000
0030
0000
0000
0000
0200
0000
0000
0000
0300
0000
0000
0000
2000
0000
0000
0000
3000
0000
0000
0000
,
0002
0003
0000
0000
0200
0000
0000
0000
0300
0000
0000
0000
0020
0000
0000
0000
0030
0000
0000
0000
2000
3000
0000
0000
0002
0000
0000
0000
0003
0000
0000
0000
0020
0030
0000
0000
0200
0000
0000
0000
0300
0000
0000
0000
2000
0000
0000
0000
3000
0000
0000
0000
0002
0003
0000
0000
0200
0000
0000
0000
0300
0000
0000
0000
,
0020
0030
0000
0000
2000
3000
0000
0000
0200
0300
0000
0000
0000
0000
0000
0000
0020
0030
0000
0000
0002
0003
0000
0000
0200
0300
0000
0000
0020
0000
0000
0000
0030
0000
0000
0000
2000
3000
0000
0000
0200
0300
0000
0000
0020
0030
0000
0000
0002
0000
0000
0000
0000
0000
0003
0000
0000
0000
0000
0000
0100
0000
0000
0000
,
0020
0030
0000
0000
2000
0000
0000
0000
3000
0000
0000
0000
0002
0000
0000
0000
0003
0000
0000
0000
0020
0030
0000
0000
0200
0000
0000
0000
0300
0000
0000
0000
2000
3000
0000
0000
0002
0000
0000
0000
0003
0000
0000
0000
0200
0000
0000
0000
0300
0000
0000
0000
0020
0030
0000
0000
2000
0000
0000
0000
3000
0000
0000
0000
,
0002
0003
0000
0000
0020
0000
0000
0000
0030
0000
0000
0000
0200
0000
0000
0000
0300
0000
0000
0000
0020
0030
0000
0000
0002
0000
0000
0000
0003
0000
0000
0000
2000
0000
0000
0000
3000
0000
0000
0000
0020
0000
0000
0000
0030
0000
0000
0000
0200
0000
0000
0000
0300
0000
0000
0000
0002
0000
0000
0000
0003
0000
0000
0000
,
2000
3000
0000
0000
0200
0000
0000
0000
0300
0000
0000
0000
0020
0000
0000
0000
0030
0000
0000
0000
0002
0003
0000
0000
2000
0000
0000
0000
3000
0000
0000
0000
0020
0030
0000
0000
0200
0000
0000
0000
0300
0000
0000
0000
0002
0000
0000
0000
0003
0000
0000
0000
2000
3000
0000
0000
0200
0000
0000
0000
0300
0000
0000
0000
,
0020
0030
0000
0000
0002
0003
0000
0000
0200
0300
0000
0000
0000
0000
0000
0000
0020
0030
0000
0000
2000
3000
0000
0000
0200
0300
0000
0000
0020
0000
0000
0000
0030
0000
0000
0000
0001
0000
0000
0000
1000
0000
0000
0000
0010
0000
0000
0000
0000
0000
0000
0000
0100
0000
0000
0000
0001
0000
0000
0000
1000
0000
0000
0000
,
0100
0010
0000
0001
1000
0000
0010
0100
0000
0001
1000
0000
0100
0010
0100
0010
,
0001
0100
0000
0010
0000
1000
0001
0000
0010
0100
0000
1000
0000
0001
0100
0000
,
0010
1000
0000
0001
0000
0010
0100
0000
2000
0000
3000
0000
0002
0000
0003
0000
,
1000
0100
0000
0010
0000
0001
1000
0000
0010
0100
0000
0001
0000
1000
0100
0000
,
0020
0030
0002
0003
2000
3000
0010
0100
,
0001
0010
0000
0100
0000
1000
0001
0000
0100
0010
0000
1000
0000
0001
0010
0000
,
0100
1000
0000
0001
0000
0100
0010
0000
2000
0000
3000
0000
0002
0000
0003
0000
,
1000
0010
0000
0100
0000
0001
1000
0000
0100
0010
0000
0001
0000
1000
0010
0000
,
0200
0000
0000
0000
0000
0000
0000
0000
0300
0000
0000
0000
0000
0000
0000
0000
0002
0000
0000
0000
0000
0000
0003
0000
1000
0000
0000
0000
0100
0000
0000
0000
0010
0000
0000
0000
0001
0000
0000
0000
1000
0000
0000
0000
0001
0000
0000
0000
0200
0300
0000
0000
0010
0000
0000
0000
1000
0000
0000
0000
0001
0000
0000
0000
,
0010
0100
1000
0100
0010
0100
1000
0001
0100
0000
0010
1000
0000
0001
0010
0000
,
0100
0010
0001
0000
1000
0010
0000
0100
0001
0000
1000
0100
0000
0010
0001
0000
,
1000
0010
0100
0000
0010
1000
0000
0001
0010
0000
0100
1000
0000
0001
0100
0000
,
0010
0000
1000
0000
0001
0010
0000
0001
0100
0000
0010
1000
0000
0100
1000
0000
,
0010
0100
0001
0100
0010
0100
0001
1000
0100
0000
0010
0001
0000
1000
0010
0000
,
0100
0010
1000
0000
0001
0010
0000
0100
1000
0000
0001
0100
0000
0010
1000
0000
,
0001
0010
0100
0000
0010
0001
0000
1000
0010
0000
0100
0001
0000
1000
0100
0000
,
0010
0000
0000
0000
0000
0000
0000
0000
0001
0000
0000
0000
0000
0000
0000
0000
1000
0000
0000
0000
0010
0000
0000
0000
0100
0000
0000
0000
0000
0000
0000
0000
0001
0000
0000
0000
0010
0000
0000
0000
0100
0000
0000
0000
1000
0000
0000
0000
0020
0030
0000
0000
1000
0000
0000
0000
0001
0000
0000
0000
1000
0000
0000
0000
,
0100
0010
0001
1000
0010
1000
0001
0010
0100
1000
0001
0100
0010
0100
0001
1000
,
0010
1000
0001
0010
0100
0010
0001
1000
0010
0100
0001
0010
0100
0000
1000
0000
,
0001
0100
0010
1000
0001
0010
0001
1000
0100
1000
0001
0100
0010
0100
0001
1000
,
0100
0010
0001
1000
0010
1000
0001
0010
0100
0000
0000
1100
0000
0000
1001
0000
,
0001
0010
0001
0100
0001
1000
0100
1000
0001
0010
0100
1000
0010
1000
0001
0010
,
0100
1000
0001
0100
0010
0100
0001
1000
0100
0010
0001
1000
0010
0000
0100
0000
,
0001
0010
0100
1000
0010
0100
0001
1000
0100
1000
0001
0100
0001
1000
0100
0010
,
0001
0000
0000
1000
0000
0000
0010
0000
0000
1000
0000
0000
0001
0000
0000
0010
0000
0000
0100
0000
0000
1000
0000
0000
0001
0000
0000
0000
0100
0000
0000
0000
0010
0000
0000
0000
2000
0000
0000
0000
0000
0000
0000
0000
0000
0000
0000
0000
,
3001
0000
0000
0000
,
0000
0000
0000
0000
,
1000
0000
0000
0000
,
0000
0000
0000
0000
0000
0000
0000
0001
,
1001
0000
0000
0000
,
0000
0000
0000
0000
0000
0000
0000
0000
0000
0000
0000
0000
0000
0000
1000
0100
,
1000
0000
0000
0001
0100
0000
0000
0010
,
0110
1000
0010
0100
,
0001
0010
0001
1000
0010
1000
0001
0100
0010
1000
0001
0010
0100
0010
0001
1000
,
0010
0100
0001
1000
0100
1000
0001
0100
0001
1000
0001
0010
0100
0010
0001
1000
,
0010
1000
0001
0010
0001
1000
0010
0100
0001
1000
0100
0010
0100
1000
0001
0100
,
0001
1000
0001
0010
0100
1000
0001
1000
0010
1000
0001
0010
0100
1000
0010
1000
,
0001
0100
0001
1000
0100
1000
0001
0010
0100
1000
0001
0100
0010
0100
0001
1000
,
0100
1000
0001
0100
0001
1000
0100
1000
0001
1000
0010
0100
0001
0010
0001
1000
,
0010
1000
0100
0010
0001
1000
0100
1000
0001
0010
0001
0100
0010
1000
0001
0100
,
0001
1000
0010
1000
0001
0010
0100
0010
0001
1000
0010
1000
0001
0010
0100
1000
,
0010
1000
0001
0010
0001
1000
0010
0100
0001
1000
0010
0100
0010
1000
0001
0010
,
0100
1000
0001
0100
0001
1000
0100
1000
0001
1000
0010
0100
0001
1000
0100
0010
,
0001
0100
0001
1000
0100
1000
0010
0100
0001
0010
0001
1000
0010
1000
0100
1000
,
0001
0100
0001
1000
0001
0010
0100
1000
0010
1000
0001
1000
0100
0010
0100
1000
,
0001
0100
0001
0010
0100
1000
0010
1000
0100
0010
0001
1000
0010
1000
0001
0010
,
0100
1000
0001
0100
0010
0100
0001
1000
0001
0010
0100
1000
0001
1000
0010
1000
,
0001
0010
0001
1000
0010
1000
0100
0010
0001
0100
0001
1000
0100
1000
0001
0100
,
0010
1000
0001
1000
0100
1000
0001
0100
0010
0100
0001
1000
0100
0010
0100
1000
,
0001
0100
0000
0010
1000
0000
0001
0010
0000
0100
1000
0000
0010
0100
0010
1000
,
0001
0010
0001
1000
0010
1000
0100
1000
0001
0100
0001
1000
0100
1000
0010
1000
,
0001
0010
0001
1000
0010
1000
0100
1000
0001
0100
0001
1000
0001
0010
0100
1000
,
0001
0100
0001
1000
0100
1000
0010
1000
0001
0010
0001
1000
0010
1000
0100
1000
,
0001
0100
0010
1000
0001
0010
0100
1000
0010
1000
0001
1000
0100
0010
0001
1000
,
0010
1000
0001
0010
0001
0100
0001
1000
0100
1000
0001
0100
0001
0010
0001
1000
,
0010
1000
0001
0010
0001
0100
0001
1000
0100
1000
0001
1000
0010
0100
0001
1000
,
0100
1000
0001
0100
0001
0010
0001
1000
0010
1000
0001
0010
0001
0100
0001
1000
,
0100
0010
0001
1000
0010
0100
0001
0010
0100
1000
0001
0100
0000
0010
0100
0001
,
1000
0010
1000
0001
0010
0001
0100
0001
1000
0100
1000
0001
0100
0001
0010
0001
,
1000
0010
1000
0001
0010
0001
0100
0001
1000
0100
1000
0001
1000
0010
0100
0001
,
1000
0100
1000
0001
0100
0001
0010
0001
1000
0010
1000
0001
0010
0001
0100
0001
,
1000
0100
0010
0001
1000
0010
0100
0001
0010
0001
1000
0001
0100
0010
1000
0001
,
0010
0001
1000
0010
1000
0100
1000
0001
0100
0001
1000
0100
1000
0010
1000
0001
,
0010
0001
1000
0010
1000
0100
1000
0001
0100
0001
1000
0001
0010
0100
1000
0001
,
0100
0001
1000
0100
1000
0010
1000
0001
0010
0001
1000
0010
1000
0100
1000
0001
,
0100
0010
1000
0001
0010
0100
1000
0010
0100
0001
1000
0100
0000
0010
0100
1000
,
0001
0010
0001
1000
0010
1000
0001
0010
0100
1000
0001
0100
0010
0100
0001
1000
,
0010
1000
0001
0010
0100
0010
0001
1000
0010
0100
0001
0010
0100
0000
1000
0000
,
0001
0100
0010
1000
0001
0010
0001
1000
0100
1000
0001
0100
0010
0100
0001
1000
,
0100
0010
0001
1000
0010
1000
0001
0010
0100
1000
0001
0100
0010
0000
1000
0000
,
0001
0010
0001
0100
0001
1000
0100
1000
0001
0010
0100
1000
0010
1000
0001
0010
,
0100
1000
0001
0100
0010
0100
0001
1000
0100
0010
0001
1000
0010
0000
0100
0000
,
0001
0010
0100
1000
0010
0100
0001
1000
0100
1000
0001
0100
0001
1000
0100
0010
,
0001
0000
0000
0000
1000
0000
0000
0000
0010
0000
0000
0000
1000
0000
0000
0000
0001
0000
0000
0000
0010
0000
0000
0000
0100
0000
0000
0000
1000
0000
0000
0000
0002
0003
0000
0000
0200
0300
0000
0000
0020
0030
0000
0000
0200
0300
0000
0000
0002
0003
0000
0000
0200
0300
0000
0000
0020
0030
0000
0000
2000
3000
0000
0000
,
0001
0010
0001
0100
0001
1000
0100
1000
0001
0010
0001
0100
0001
1000
0010
1000
,
0001
0010
0100
1000
0010
1000
0001
0010
0001
0100
0010
1000
0100
0010
0001
1000
,
0010
1000
0100
1000
0001
0100
0001
1000
0010
1000
0100
1000
0001
0100
0001
1000
,
0100
0010
0001
1000
0010
1000
0100
0010
0001
0100
0001
1000
0001
0010
0100
1000
,
0001
0100
0001
0010
0001
1000
0010
1000
0001
0100
0001
0010
0001
1000
0100
1000
,
0001
0100
0010
1000
0100
1000
0001
0010
0100
0010
0001
1000
0010
0100
0001
1000
,
0100
1000
0010
1000
0001
0100
0001
1000
0100
1000
0010
1000
0001
0010
0001
1000
,
0010
0100
0001
1000
0100
1000
0010
0100
0001
0010
0001
1000
0001
0100
0010
1000
,
0100
1000
0001
1000
0010
0100
0010
1000
0100
1000
0001
1000
0010
0100
0010
1000
,
0100
1000
0001
1000
0010
0100
0010
1000
0001
0010
0100
1000
0001
0100
0010
1000
,
0001
0010
0001
1000
0001
0100
0010
0100
0001
0010
0001
1000
0001
0100
0010
0100
,
0001
0010
0001
1000
0010
1000
0100
0010
0001
0100
0001
1000
0100
1000
0001
0100
,
0010
1000
0001
1000
0100
0010
0100
1000
0010
1000
0001
1000
0100
0010
0100
1000
,
0010
1000
0001
1000
0100
0010
0100
1000
0001
0100
0001
1000
0010
1000
0100
0010
,
0001
0100
0001
1000
0001
0010
0100
0010
0001
0100
0001
1000
0001
0010
0100
0010
,
0001
0100
0001
1000
0001
0010
0100
0010
0001
1000
0010
0100
0001
1000
0100
0010
,
0001
0100
0000
0010
1000
0000
0001
0010
0000
0100
1000
0000
0010
0100
0010
0100
,
0002
0003
0000
0000
;
