#TITLE:Urara;
#SUBTITLE:;
#ARTIST:Aquestion;
#TITLETRANSLIT:;
#SUBTITLETRANSLIT:;
#ARTISTTRANSLIT:;
#GENRE:;
#CREDIT:NAOKI;
#MUSIC:Urara.ogg;
#BANNER:Urara-bn.png;
#BACKGROUND:Urara-bg.png;
#CDTITLE:naokicdtitle.png;
#SAMPLESTART:43.363;
#SAMPLELENGTH:21.073;
#SELECTABLE:YES;
#OFFSET:-0.046;
#BPMS:0.000=205.000;
#STOPS:;
#BGCHANGES:;
#FGCHANGES:;

//--------------- dance-single - NAOKI 3-8/2/3-17-7*-8/2/3-16/18/8* ----------------
#NOTES:
     dance-single:
     NAOKI 3-8/2/3-17-7*-8/2/3-16/18/8*:
     Hard:
     16:
     0,0,0,0,0:
0000
0000
0000
0000
,
0001
0000
0000
0100
0000
0000
0010
0000
1000
0000
0000
0100
0000
0000
0010
0000
,
0001
1000
0001
0100
0010
1000
0001
1000
,
0200
0000
0000
0010
0000
0300
1000
0000
0002
0000
0000
0100
0000
0000
1003
0000
,
0010
0000
0000
0100
0000
0000
0001
0000
1000
0000
0100
0000
0010
0000
0001
0000
,
1000
0000
0000
0010
0000
0000
0100
0000
0001
0000
0000
0010
0000
0000
0100
0000
,
1000
0001
1000
0010
0100
0001
1000
0001
,
0020
0000
0000
0100
0000
0030
0001
0000
2000
0000
0000
0010
0000
0000
3001
0000
,
0010
0100
1000
0001
0100
0001
1000
0100
,
0010
0000
0001
0000
1000
0000
0010
0000
0100
0000
0001
1000
0001
0000
0010
0000
,
0100
0000
1000
0001
1000
0000
0010
0000
0100
0000
0001
0000
1000
0000
0100
0000
,
1000
0010
0100
0001
1000
0001
0010
0100
1000
0001
0100
0001
1000
0100
0010
0001
,
1000
0000
0000
0000
0010
0000
0000
0000
0100
0000
0001
1000
0100
0000
0000
0000
,
0010
0001
1000
0001
0100
0010
1000
0001
0010
0001
1000
0010
0100
0001
1000
0001
,
0010
0100
1000
0010
1000
0001
0010
0001
0100
0000
0010
1000
0100
0000
0000
0000
,
1000
0010
0100
0001
1000
0100
0010
0001
1000
0010
1000
0001
1000
0100
0010
0001
,
1000
0001
0100
0010
1000
0000
0100
0000
0010
0001
1000
0001
0100
0000
0000
0000
,
0001
0010
0100
1000
0001
0100
0010
1000
0001
0010
0001
1000
0001
0100
0010
1000
,
0001
0000
1000
0100
0010
0001
1000
0000
0001
0000
0100
0000
0010
0000
0000
0000
,
1000
0001
0010
0001
1000
0010
0100
0001
1000
0100
0010
0001
1000
0010
1000
0001
,
0010
0100
1000
0001
0100
0010
1000
0001
0010
0001
1000
0010
1000
0001
0010
0100
,
1000
0001
1000
0010
0100
0001
1000
0100
0010
0001
1000
0001
0100
0010
1000
0001
,
0010
0001
1000
0010
0100
0001
1000
0100
0010
0001
1000
0010
1000
0001
0010
0100
,
1000
0001
0100
0001
1000
0100
0010
0001
1000
0010
1000
0001
0010
0001
1000
0010
,
0100
0001
1000
0001
0010
0100
1000
0001
0100
0001
1000
0100
1000
0001
0100
0010
,
1000
0100
1000
0001
0100
0001
0010
0100
1000
0010
1000
0001
0010
0001
1000
0010
,
0100
0001
1000
0001
0010
0100
1000
0001
0100
0010
1000
0100
0010
0000
0000
0000
,
1002
0000
0003
0100
0010
0000
2000
0000
,
3100
0000
0000
0010
0000
0000
0001
0000
1000
0000
0010
0100
0002
0000
0003
0000
,
1000
0100
0010
0001
1000
0010
0100
0001
1000
0100
1000
0001
0100
0010
1000
0001
,
0010
0001
1000
0010
1000
0001
0010
0001
0100
0010
1000
0100
1000
0001
0100
0010
,
2000
0000
0000
0000
3000
0000
0100
0000
0010
0001
1000
0010
1000
0001
0010
0100
,
1000
0000
0000
0010
0000
0000
0100
0000
0002
0000
0000
0000
1003
0000
0000
0000
,
0001
0010
0100
1000
0001
0100
0010
1000
0001
0010
0001
1000
0010
1000
0001
0010
,
0100
1000
0001
1000
0010
0100
0001
1000
0100
1000
0001
0100
0001
1000
0100
0010
,
0001
1000
0001
0100
0001
1000
0100
1000
0001
1000
0010
0100
0001
1000
0100
0010
,
0001
0000
0000
0100
0000
0000
0010
0000
2000
0000
0000
0000
3001
0000
0000
0000
,
0010
0100
1000
0010
1000
0001
0010
0001
0100
0010
1000
0100
1000
0001
0100
0001
,
1000
0100
0010
0001
1000
0010
1000
0001
0010
0100
1000
0001
0100
0001
1000
0100
,
0010
0001
1000
0010
1000
0001
0010
0001
0100
0010
1000
0100
1000
0001
0100
0001
,
0010
0100
1000
0010
1000
0001
0010
0001
1000
0010
1000
0001
1000
0100
0010
0001
,
0100
0010
1000
0100
1000
0001
0100
0001
0010
0100
1000
0010
1000
0001
0010
0001
,
1000
0010
0100
0001
1000
0100
1000
0001
0100
0010
1000
0001
0010
0001
1000
0010
,
0100
0001
1000
0100
1000
0001
0100
0001
0010
0100
1000
0010
1000
0001
0010
0001
,
0100
0010
1000
0100
1000
0001
0100
0001
0010
0100
1000
0001
1000
0010
0100
0001
,
0010
0100
1000
0001
0100
0010
1000
0001
0010
0001
1000
0010
1000
0001
0010
0001
,
0100
0010
1000
0100
1000
0001
0100
0001
0010
0100
1000
0001
1000
0010
0100
0001
,
0010
0001
1000
0001
0100
0010
1000
0001
1000
0100
0010
0001
1000
0010
0100
0001
,
0010
0001
1000
0010
1000
0001
0010
0001
1000
0010
0100
0001
1000
0001
0010
0100
,
1000
0010
0100
0001
1000
0100
0010
0001
1000
0010
1000
0001
0010
0001
1000
0010
,
0100
0001
1000
0100
1000
0001
0100
0001
1000
0100
1000
0001
0100
0010
1000
0001
,
0010
0100
1000
0001
1000
0010
0100
0001
1000
0100
0010
0001
1000
0010
1000
0001
,
0010
0100
1000
0001
0100
0010
1000
0001
0010
0100
1000
0001
0100
0001
1000
0100
,
0010
0001
1000
0010
1000
0001
1000
0100
0010
0001
1000
0001
0100
0010
1000
0100
,
0010
0000
0001
1000
0020
0000
0130
0000
,
0001
0010
0100
1000
0001
0100
0010
1000
0001
0010
0001
1000
0001
0100
0010
1000
,
0001
1000
0100
0010
0001
0000
0100
0000
0010
1000
0001
1000
0100
0000
0000
0000
,
1000
0010
0100
0001
1000
0100
0010
0001
1000
0010
1000
0001
1000
0100
0010
0001
,
1000
0001
0100
0010
1000
0100
1000
0001
0100
0010
1000
0001
0010
0000
0000
0000
,
0001
0100
0010
1000
0001
0010
0100
1000
0001
0100
0001
1000
0001
0010
0100
1000
,
0001
1000
0010
0100
0001
0000
0010
0000
0100
1000
0001
1000
0010
0000
0000
0000
,
1000
0100
0010
0001
1000
0010
0100
0001
1000
0100
1000
0001
1000
0010
0100
0001
,
1000
0000
0001
0010
0100
1000
0001
0000
1000
0000
0010
0000
0100
0000
0000
0000
,
0001
1000
0010
1000
0001
0010
0100
1000
0001
0100
0010
1000
0001
0010
0001
1000
,
0010
0100
0001
1000
0100
0010
0001
1000
0010
1000
0001
0010
0001
1000
0010
0100
,
0001
1000
0001
0010
0100
1000
0001
0100
0010
1000
0001
1000
0100
0010
0001
1000
,
0010
1000
0001
0010
0100
1000
0001
0100
0010
1000
0001
0010
0001
1000
0010
0100
,
0001
1000
0100
1000
0001
0100
0010
1000
0001
0010
0001
1000
0010
1000
0001
0010
,
0100
1000
0001
1000
0010
0100
0001
1000
0100
1000
0001
0100
0001
1000
0100
0010
,
0001
0100
0001
1000
0100
1000
0010
0100
0001
0010
0001
1000
0010
1000
0001
0010
,
0100
1000
0001
1000
0010
0100
0001
1000
0100
0010
0001
0100
0010
0000
0000
0000
,
2001
0000
3000
0100
0010
0000
0002
0000
,
0103
0000
0000
0010
0000
0000
1000
0000
0001
0000
0010
0100
2000
0000
3000
0000
,
0001
0100
0010
1000
0001
0010
0100
1000
0001
0100
0001
1000
0100
0010
0001
1000
,
0010
1000
0001
0010
0001
1000
0010
1000
0100
0010
0001
0100
0001
1000
0100
0010
,
0002
0000
0000
0000
0003
0000
0100
0000
0010
1000
0001
0010
0001
1000
0010
0100
,
0001
0000
0000
0010
0000
0000
0100
0000
2000
0000
0010
0000
3001
0000
0000
0000
,
1000
0010
0100
0001
1000
0100
0010
0001
1000
0010
1000
0001
0010
0001
1000
0010
,
0100
0001
1000
0001
0010
0100
1000
0001
0100
0001
1000
0100
1000
0001
0100
0010
,
1000
0001
1000
0100
1000
0001
0100
0001
1000
0001
0010
0100
1000
0001
0100
0010
,
1000
0000
0000
0100
0000
0000
0010
0000
0002
0000
0100
0000
1003
0000
0000
0000
,
0010
1000
0001
0010
0001
1000
0010
1000
0100
0010
0001
0100
0001
1000
0100
1000
,
0001
0100
0010
1000
0001
0010
0001
1000
0010
0100
0001
1000
0100
1000
0001
0100
,
0010
1000
0001
0010
0001
1000
0010
1000
0100
0010
0001
0100
0001
1000
0100
1000
,
0010
0100
0001
0010
0001
1000
0010
1000
0001
0010
0001
1000
0001
0100
0010
1000
,
0100
1000
0001
0100
0001
1000
0100
1000
0010
0100
0001
0010
0001
1000
0010
1000
,
0001
0010
0100
1000
0001
0100
0001
1000
0100
0010
0001
1000
0010
1000
0001
0010
,
0100
1000
0001
0100
0001
1000
0100
1000
0010
0100
0001
0010
0001
1000
0010
1000
,
0100
0010
0001
0100
0001
1000
0100
1000
0010
0100
0001
1000
0001
0010
0100
1000
,
0010
0100
0001
1000
0100
0010
0001
1000
0010
1000
0001
0010
0001
1000
0010
1000
,
0100
0010
0001
0100
0001
1000
0100
1000
0010
0100
0001
1000
0001
0010
0100
1000
,
0010
1000
0001
1000
0100
0010
0001
1000
0001
0100
0010
1000
0001
0010
0100
1000
,
0010
1000
0001
0010
0001
1000
0010
1000
0001
0010
0100
1000
0001
1000
0010
0100
,
0001
0010
0100
1000
0001
0100
0010
1000
0001
0010
0001
1000
0010
1000
0001
0010
,
0100
1000
0001
0100
0001
1000
0100
1000
0001
0100
0001
1000
0100
0010
0001
1000
,
0010
0100
0001
1000
0001
0010
0100
1000
0001
0100
0010
1000
0001
0010
0001
1000
,
0010
0100
0001
1000
0100
0010
0001
1000
0010
0100
0001
1000
0100
0000
0000
0000
,
0010
0000
0001
0000
1000
0010
0000
0100
0010
0000
1000
0010
0000
0100
0010
0000
,
1000
0000
0000
0000
0001
0010
0000
0100
0010
0000
0001
0010
0000
0100
0010
0000
,
0001
0000
0000
0000
0100
0000
0010
1000
0000
0001
0010
0000
0100
1000
0000
0001
,
0100
0000
0000
0000
0010
0000
1000
0001
0010
0000
0100
0000
1000
0000
0000
0000
,
0001
0000
0100
0000
0010
1000
0000
0001
1000
0000
0100
1000
0000
0001
1000
0000
,
0010
0000
0100
0000
0001
1000
0000
0001
0010
0000
0001
1000
0000
0001
0100
0000
,
0010
0000
1000
0000
0001
0010
0000
0100
1000
0000
0001
0100
0000
0010
1000
0000
,
0001
0000
0010
0100
1000
0000
0010
0000
1000
0000
0001
0000
0010
0000
0000
0000
,
0100
1000
0001
0100
0010
0100
0001
1000
,
0100
1000
0001
1000
0010
0100
0001
1000
,
0100
1000
0001
0100
0010
0100
0001
0010
,
0001
1000
0001
0100
0010
1000
0100
1000
,
0001
0100
0001
1000
0100
0010
0001
1000
,
0010
1000
0001
1000
0100
0010
0001
0100
,
0010
1000
0001
0010
0100
0010
0001
1000
,
0010
0000
1000
0001
0010
0000
0100
0000
1000
0000
0001
0000
0100
0000
0000
0000
,
0100
0001
1000
0100
0010
0100
1000
0001
,
0100
0001
1000
0001
0010
0100
1000
0001
,
0100
0001
1000
0100
0010
0100
1000
0010
,
1000
0001
1000
0100
0010
0001
0100
0001
,
1000
0100
1000
0001
0100
0010
1000
0001
,
0010
0001
1000
0001
0100
0010
1000
0100
,
0010
0001
1000
0010
0100
0010
1000
0001
,
0010
0000
0100
1000
0001
0000
0100
0000
0010
0000
1000
0000
0200
0000
0300
0000
,
0010
0000
0000
0001
0000
0000
1000
0000
0010
0000
0000
0100
0000
0000
0001
0000
,
1000
0100
0010
0001
,
0100
0000
0000
0010
0000
0000
1000
0000
0001
0000
0000
0010
0000
0000
0100
0000
,
1000
0000
0000
0010
0000
0000
0100
0000
0002
0000
0000
0000
1003
0000
0000
0000
,
0001
0010
0100
1000
,
0001
0100
0010
1000
,
0001
0100
0001
1000
0100
1000
0001
0100
0010
1000
0001
0010
0001
1000
0010
0100
,
0001
0010
0100
1000
0001
0200
0310
0000
,
0100
0001
1000
0100
1000
0001
0100
0001
0010
0100
1000
0010
1000
0001
0010
0001
,
1000
0010
0100
0001
1000
0100
1000
0001
0100
0010
1000
0001
0010
0001
1000
0010
,
0100
0001
1000
0100
1000
0001
0100
0001
0010
0001
1000
0010
1000
0001
0010
0001
,
0100
0010
1000
0100
1000
0001
0100
0001
1000
0100
1000
0001
1000
0010
0100
0001
,
0010
0100
1000
0010
1000
0001
0010
0001
0100
0010
1000
0100
1000
0001
0100
0001
,
1000
0100
0010
0001
1000
0010
1000
0001
0010
0100
1000
0001
0100
0001
1000
0100
,
0010
0001
1000
0010
1000
0001
0010
0001
0100
0001
1000
0100
1000
0001
0100
0001
,
0010
0100
1000
0010
1000
0001
0010
0001
0100
0010
1000
0010
1000
0001
0010
0001
,
0100
0010
1000
0001
0010
0100
1000
0001
0100
0001
1000
0100
1000
0001
0100
0001
,
0010
0100
1000
0010
1000
0001
0010
0001
0100
0010
1000
0001
1000
0100
0010
0001
,
0100
0001
1000
0001
0010
0100
1000
0001
1000
0010
0100
0001
1000
0100
0010
0001
,
0100
0001
1000
0100
1000
0001
0100
0001
1000
0100
0010
0001
0010
0001
1000
0010
,
1000
0100
0010
0001
1000
0010
0100
0001
1000
0100
1000
0001
0100
0001
1000
0100
,
1000
0010
0100
0001
0010
0001
1000
0010
1000
0001
0010
0100
1000
0010
0100
0001
,
1000
0100
0010
0001
0100
0010
1000
0001
0010
0100
1000
0001
1000
0010
0100
0001
,
1000
0100
0010
0001
0100
0010
1000
0001
0010
0100
1000
0001
1000
0010
0100
0001
,
1000
0100
0010
0001
0100
0010
1000
0001
0010
0001
1000
0001
0100
0010
1000
0001
,
1000
0100
0010
0001
1000
0010
0100
0001
1000
0100
0010
0001
1000
0010
1000
0001
,
0010
0000
0100
1000
0001
0000
0100
0000
0010
0000
1000
0000
0100
0000
0010
0000
,
0002
0000
1003
0010
0200
0000
0310
0000
,
1000
0100
0010
0001
1000
0010
0100
0001
1000
0100
1000
0001
1000
0010
0100
0001
,
1000
0001
0010
0100
1000
0000
0010
0000
0100
0001
1000
0001
0010
0000
0000
0000
,
0001
0100
0010
1000
0001
0010
0100
1000
0001
0100
0001
1000
0001
0010
0100
1000
,
0001
1000
0010
0100
0001
0010
0001
1000
0010
0100
0001
1000
0100
0000
0000
0000
,
1000
0010
0100
0001
1000
0100
0010
0001
1000
0010
1000
0001
1000
0100
0010
0001
,
1000
0001
0100
0010
1000
0000
0100
0000
0010
0001
1000
0001
0100
0000
0000
0000
,
0001
0010
0100
1000
0001
0100
0010
1000
0001
0010
0001
1000
0001
0100
0010
1000
,
0001
0010
0100
1000
0001
0100
0010
0000
1000
0000
0100
0000
0010
0000
0000
0000
,
2002
0000
0000
0000
,
0000
0000
0000
0000
,
3003
0000
0000
0000
;

//--------------- dance-single - NAOKI 3-8/2/3-17-7-8/2/3-40/18/8 ----------------
#NOTES:
     dance-single:
     NAOKI 3-8/2/3-17-7-8/2/3-40/18/8:
     Challenge:
     17:
     0,0,0,0,0:
0000
0000
0000
0000
,
0001
0000
0000
0100
0000
0000
0010
0000
1000
0000
0000
0100
0000
0000
0010
0000
,
0001
1000
0001
0100
0010
1000
0001
1000
,
0200
0000
0000
0010
0000
0300
1000
0000
0002
0000
0000
0100
0000
0000
1003
0000
,
0010
0000
0000
0100
0000
0000
0001
0000
1000
0000
0100
0000
0010
0000
0001
0000
,
1000
0000
0000
0010
0000
0000
0100
0000
0001
0000
0000
0010
0000
0000
0100
0000
,
1000
0001
1000
0010
0100
0001
1000
0001
,
0020
0000
0000
0100
0000
0030
0001
0000
2000
0000
0000
0010
0000
0000
3001
0000
,
0010
0100
1000
0001
0100
0001
1000
0100
,
0010
0000
0001
0000
1000
0000
0010
0000
0100
0000
0001
1000
0001
0000
0010
0000
,
0100
0000
1000
0001
1000
0000
0010
0000
0100
0000
0001
0000
1000
0000
0100
0000
,
1000
0010
0100
0001
1000
0001
0010
0100
1000
0001
0100
0001
1000
0100
0010
0001
,
1000
0000
0000
0000
0010
0000
0000
0000
0100
0000
0001
1000
0100
0000
0000
0000
,
0010
0001
1000
0001
0100
0010
1000
0001
0010
0001
1000
0010
0100
0001
1000
0001
,
0010
0100
1000
0010
1000
0001
0010
0001
0100
0000
0010
1000
0100
0000
0000
0000
,
1000
0010
0100
0001
1000
0100
0010
0001
1000
0010
1000
0001
1000
0100
0010
0001
,
1000
0001
0100
0010
1000
0100
1000
0001
0100
0010
1000
0001
0010
0001
1000
0010
,
1000
0100
0010
0001
1000
0010
0100
0001
1000
0100
1000
0001
1000
0010
0100
0001
,
1000
0001
0010
0100
1000
0001
0100
0000
0010
0000
1000
0000
0001
0000
0000
0000
,
1000
0001
0010
0001
1000
0010
0100
0001
1000
0100
0010
0001
1000
0010
1000
0001
,
0010
0100
1000
0001
0100
0010
1000
0001
0010
0001
1000
0010
1000
0001
0010
0100
,
1000
0001
1000
0010
0100
0001
1000
0100
0010
0001
1000
0001
0100
0010
1000
0001
,
0010
0001
1000
0010
0100
0001
1000
0100
0010
0001
1000
0010
1000
0001
0010
0100
,
1000
0001
0100
0001
1000
0100
0010
0001
1000
0010
1000
0001
0010
0001
1000
0010
,
0100
0001
1000
0001
0010
0100
1000
0001
0100
0001
1000
0100
1000
0001
0100
0010
,
1000
0100
1000
0001
0100
0001
0010
0100
1000
0010
1000
0001
0010
0001
1000
0010
,
0100
0001
1000
0001
0010
0100
1000
0001
0100
0010
1000
0100
0010
0000
0000
0000
,
1002
0000
0003
0100
0010
0000
2000
0000
,
3100
0000
0000
0010
0000
0000
0001
0000
1000
0000
0010
0100
0002
0000
0003
0000
,
1000
0100
0010
0001
1000
0010
0100
0001
1000
0100
1000
0001
0100
0010
1000
0001
,
0010
0001
1000
0010
1000
0001
0010
0001
0100
0010
1000
0100
1000
0001
0100
0010
,
2000
0000
0000
0000
3000
0000
0100
0000
0010
0001
1000
0010
1000
0001
0010
0100
,
1000
0000
0000
0010
0000
0000
0100
0000
0002
0000
0000
0000
1003
0000
0000
0000
,
0001
0010
0100
1000
0001
0100
0010
1000
0001
0010
0001
1000
0010
1000
0001
0010
,
0100
1000
0001
1000
0010
0100
0001
1000
0100
1000
0001
0100
0001
1000
0100
0010
,
0001
1000
0001
0100
0001
1000
0100
1000
0001
1000
0010
0100
0001
1000
0100
0010
,
0001
0000
0000
0100
0000
0000
0010
0000
2000
0000
0000
0000
3001
0000
0000
0000
,
0010
0100
1000
0010
1000
0001
0010
0001
0100
0010
1000
0100
1000
0001
0100
0001
,
1000
0100
0010
0001
1000
0010
1000
0001
0010
0100
1000
0001
0100
0001
1000
0100
,
0010
0001
1000
0010
1000
0001
0010
0001
0100
0010
1000
0100
1000
0001
0100
0001
,
0010
0100
1000
0010
1000
0001
0010
0001
1000
0010
1000
0001
1000
0100
0010
0001
,
0100
0010
1000
0100
1000
0001
0100
0001
0010
0100
1000
0010
1000
0001
0010
0001
,
1000
0010
0100
0001
1000
0100
1000
0001
0100
0010
1000
0001
0010
0001
1000
0010
,
0100
0001
1000
0100
1000
0001
0100
0001
0010
0100
1000
0010
1000
0001
0010
0001
,
0100
0010
1000
0001
0010
0001
1000
0010
0100
0001
1000
0100
1000
0001
0100
0001
,
0010
0100
1000
0001
0100
0010
1000
0001
0010
0001
1000
0010
1000
0001
0010
0001
,
0100
0010
1000
0100
1000
0001
0100
0001
0010
0100
1000
0001
1000
0010
0100
0001
,
0010
0001
1000
0001
0100
0010
1000
0001
1000
0100
0010
0001
1000
0010
0100
0001
,
0010
0001
1000
0010
1000
0001
0010
0001
1000
0010
0100
0001
1000
0001
0010
0100
,
1000
0010
0100
0001
1000
0100
0010
0001
1000
0010
1000
0001
0010
0001
1000
0010
,
0100
0001
1000
0100
1000
0001
0100
0001
1000
0100
1000
0001
0100
0010
1000
0001
,
0010
0100
1000
0001
1000
0010
0100
0001
1000
0100
0010
0001
1000
0010
1000
0001
,
0010
0100
1000
0001
0100
0010
1000
0001
0010
0100
1000
0001
0100
0001
1000
0100
,
0010
0001
1000
0010
1000
0001
1000
0100
0010
0001
1000
0001
0100
0010
1000
0100
,
0010
0000
0001
1000
0020
0000
0130
0000
,
0001
0010
0100
1000
0001
0100
0010
1000
0001
0010
0001
1000
0001
0100
0010
1000
,
0001
1000
0100
0010
0001
0100
0001
1000
0100
0010
0001
1000
0010
1000
0001
0010
,
0001
0100
0010
1000
0001
0010
0100
1000
0001
0100
0001
1000
0001
0010
0100
1000
,
0001
1000
0010
0100
0001
1000
0100
0010
0001
1000
0001
0100
0010
0100
0001
1000
,
0001
0010
0100
1000
0001
0100
0010
1000
0001
0010
0001
1000
0001
0100
0010
1000
,
0001
1000
0100
0010
0001
0100
0001
1000
0100
0010
0001
1000
0010
1000
0001
0010
,
0001
0100
0010
1000
0001
0010
0100
1000
0001
0100
0001
1000
0001
0010
0100
1000
,
0001
1000
0010
0100
0001
1000
0100
0000
0010
0000
0001
0000
1000
0000
0000
0000
,
0001
1000
0010
1000
0001
0010
0100
1000
0001
0100
0010
1000
0001
0010
0001
1000
,
0010
0100
0001
1000
0100
0010
0001
1000
0010
1000
0001
0010
0001
1000
0010
0100
,
0001
1000
0001
0010
0100
1000
0001
0100
0010
1000
0001
1000
0100
0010
0001
1000
,
0010
1000
0001
0010
0100
1000
0001
0100
0010
1000
0001
0010
0001
1000
0010
0100
,
0001
1000
0100
1000
0001
0100
0010
1000
0001
0010
0001
1000
0010
1000
0001
0010
,
0100
1000
0001
1000
0010
0100
0001
1000
0100
1000
0001
0100
0001
1000
0100
0010
,
0001
0100
0001
1000
0100
1000
0010
0100
0001
0010
0001
1000
0010
1000
0001
0010
,
0100
1000
0001
1000
0010
0100
0001
1000
0100
0010
0001
0100
0010
0000
0000
0000
,
2001
0000
3000
0100
0010
0000
0002
0000
,
0103
0000
0000
0010
0000
0000
1000
0000
0001
0000
0010
0100
2000
0000
3000
0000
,
0001
0100
0010
1000
0001
0010
0100
1000
0001
0100
0001
1000
0100
0010
0001
1000
,
0010
1000
0001
0010
0001
1000
0010
1000
0100
0010
0001
0100
0001
1000
0100
0010
,
0002
0000
0000
0000
0003
0000
0100
0000
0010
1000
0001
0010
0001
1000
0010
0100
,
0001
0000
0000
0010
0000
0000
0100
0000
2000
0000
0010
0000
3001
0000
0000
0000
,
1000
0010
0100
0001
1000
0100
0010
0001
1000
0010
1000
0001
0010
0001
1000
0010
,
0100
0001
1000
0001
0010
0100
1000
0001
0100
0001
1000
0100
1000
0001
0100
0010
,
1000
0001
1000
0100
1000
0001
0100
0001
1000
0001
0010
0100
1000
0001
0100
0010
,
1000
0000
0000
0100
0000
0000
0010
0000
0002
0000
0100
0000
1003
0000
0000
0000
,
0010
1000
0001
0010
0001
1000
0010
1000
0100
0010
0001
0100
0001
1000
0100
1000
,
0001
0100
0010
1000
0001
0010
0001
1000
0010
0100
0001
1000
0100
1000
0001
0100
,
0010
1000
0001
0010
0001
1000
0010
1000
0100
0010
0001
0100
0001
1000
0100
1000
,
0010
0100
0001
0010
0001
1000
0010
1000
0001
0010
0001
1000
0001
0100
0010
1000
,
0100
0010
0001
0100
0001
1000
0100
1000
0010
0100
0001
0010
0001
1000
0010
1000
,
0001
0010
0100
1000
0001
0100
0001
1000
0100
0010
0001
1000
0010
1000
0001
0010
,
0100
1000
0001
0100
0001
1000
0100
1000
0010
0100
0001
0010
0001
1000
0010
1000
,
0100
0010
0001
0100
0001
1000
0100
1000
0010
0100
0001
1000
0001
0010
0100
1000
,
0010
0100
0001
1000
0100
0010
0001
1000
0010
1000
0001
0010
0001
1000
0010
1000
,
0100
0010
0001
0100
0001
1000
0100
1000
0001
0100
0010
1000
0001
0010
0001
1000
,
0010
1000
0001
1000
0100
0010
0001
1000
0001
0100
0010
1000
0001
0010
0100
1000
,
0010
1000
0001
0010
0001
1000
0010
1000
0001
0010
0100
1000
0001
1000
0010
0100
,
0001
0010
0100
1000
0001
0100
0010
1000
0001
0010
0001
1000
0010
1000
0001
0010
,
0100
1000
0001
0100
0001
1000
0100
1000
0001
0100
0001
1000
0100
0010
0001
1000
,
0010
0100
0001
1000
0001
0010
0100
1000
0001
0100
0001
1000
0100
1000
0001
1000
,
0010
0100
0001
1000
0100
0010
0001
1000
0010
0100
0001
1000
0100
1000
0001
0100
,
0010
1000
0001
0010
0001
1000
0001
0100
0010
1000
0001
1000
0100
0010
0001
1000
,
0010
1000
0001
0010
0100
1000
0001
0100
0001
1000
0100
1000
0001
0100
0001
1000
,
0100
0010
0001
1000
0010
1000
0001
0010
0001
1000
0010
1000
0001
0010
0001
1000
,
0010
0100
0001
1000
0100
1000
0001
0100
0010
1000
0010
0100
0010
1000
0001
0010
,
0100
1000
0001
0100
0010
1000
0001
0010
0001
1000
0010
1000
0001
0010
0001
1000
,
0010
0100
0001
1000
0100
1000
0001
0100
0001
1000
0100
1000
0001
0100
0001
1000
,
0100
0010
0001
1000
0010
1000
0001
0010
0001
1000
0010
1000
0001
0010
0001
1000
,
0010
1000
0001
0010
0001
0100
0001
1000
0100
1000
0001
0100
0010
1000
0001
1000
,
0100
0010
0001
1000
0010
1000
0001
0010
0100
1000
0001
0100
0001
1000
0100
1000
,
0001
0100
0010
1000
0001
1000
0100
0010
0001
1000
0010
0100
0001
1000
0100
1000
,
0001
0100
0010
1000
0001
0010
0001
1000
0010
0100
0001
1000
0100
1000
0001
0100
,
0001
1000
0100
0010
0001
1000
0010
0100
0001
1000
0001
0010
0100
1000
0001
1000
,
0010
0100
0001
1000
0100
1000
0001
0100
0010
1000
0001
0010
0001
1000
0010
1000
,
0001
0010
0100
1000
0001
0100
0010
1000
0001
1000
0100
0010
0001
1000
0010
1000
,
0001
0010
0100
1000
0001
0100
0001
1000
0100
0010
0001
1000
0010
1000
0001
0010
,
0100
1000
0001
0100
0001
1000
0100
0010
0001
1000
0010
1000
0001
0010
0100
1000
,
0001
0100
0010
1000
0001
0010
0001
1000
0010
0100
0001
1000
0100
1000
0001
0100
,
0001
1000
0100
0010
0001
1000
0010
0100
0001
1000
0001
0010
0100
1000
0001
0100
,
0001
1000
0100
0010
0001
1000
0010
1000
0001
0010
0100
1000
0001
0100
0001
1000
,
0100
1000
0001
0100
0010
1000
0001
0010
0100
1000
0001
1000
0010
0100
0001
1000
,
0001
0010
0100
1000
0001
0100
0001
1000
0100
0010
0001
1000
0010
1000
0001
0010
,
0001
1000
0010
0100
0001
1000
0100
0010
0001
1000
0001
0100
0010
1000
0001
0010
,
0001
1000
0010
0100
0001
1000
0100
1000
0001
0100
0010
1000
0001
0010
0001
1000
,
0010
1000
0001
0010
0100
1000
0001
0100
0010
1000
0001
1000
0200
0000
0300
0000
,
0010
0000
0000
0001
0000
0000
1000
0000
0010
0000
0000
0100
0000
0000
0001
0000
,
1000
0100
0010
0001
,
0100
0000
0000
0010
0000
0000
1000
0000
0001
0000
0000
0010
0000
0000
0100
0000
,
1000
0000
0000
0010
0000
0000
0100
0000
0002
0000
0000
0000
1003
0000
0000
0000
,
0001
0000
0000
0010
0100
0000
1000
0000
0001
0000
0000
0100
0010
0000
1000
0000
,
0001
0010
0100
1000
,
0001
0100
0001
1000
0100
1000
0001
0100
0010
1000
0001
0010
0001
1000
0010
0100
,
0001
0010
0100
1000
0001
0200
0310
0000
,
0100
0001
1000
0100
1000
0001
0100
0001
0010
0100
1000
0010
1000
0001
0010
0001
,
1000
0010
0100
0001
1000
0100
1000
0001
0100
0010
1000
0001
0010
0001
1000
0010
,
0100
0001
1000
0100
1000
0001
0100
0001
0010
0001
1000
0010
1000
0001
0010
0001
,
0100
0010
1000
0100
1000
0001
0100
0001
1000
0100
1000
0001
1000
0010
0100
0001
,
0010
0100
1000
0010
1000
0001
0010
0001
0100
0010
1000
0100
1000
0001
0100
0001
,
1000
0100
0010
0001
1000
0010
1000
0001
0010
0100
1000
0001
0100
0001
1000
0100
,
0010
0001
1000
0010
1000
0001
0010
0001
0100
0001
1000
0100
1000
0001
0100
0001
,
0010
0100
1000
0010
1000
0001
0010
0001
0100
0010
1000
0010
1000
0001
0010
0001
,
0100
0010
1000
0001
0010
0100
1000
0001
0100
0001
1000
0100
1000
0001
0100
0001
,
0010
0100
1000
0010
1000
0001
0010
0001
0100
0010
1000
0001
1000
0100
0010
0001
,
0100
0001
1000
0001
0010
0100
1000
0001
1000
0010
0100
0001
1000
0100
0010
0001
,
0100
0001
1000
0100
1000
0001
0100
0001
1000
0100
0010
0001
0010
0001
1000
0010
,
1000
0100
0010
0001
1000
0010
0100
0001
1000
0100
1000
0001
0100
0001
1000
0100
,
1000
0010
0100
0001
0010
0001
1000
0010
1000
0001
0010
0100
1000
0010
0100
0001
,
1000
0100
0010
0001
0100
0010
1000
0001
0010
0100
1000
0001
1000
0010
0100
0001
,
1000
0100
0010
0001
0100
0010
1000
0001
0010
0100
1000
0001
1000
0010
0100
0001
,
1000
0100
0010
0001
0100
0010
1000
0001
0010
0001
1000
0001
0100
0010
1000
0001
,
1000
0100
0010
0001
1000
0010
0100
0001
1000
0100
0010
0001
1000
0010
1000
0001
,
0010
0000
0100
1000
0001
0000
0100
0000
0010
0000
1000
0000
0100
0000
0010
0000
,
0002
0000
1003
0010
0200
0000
0310
0000
,
1000
0100
0010
0001
1000
0010
0100
0001
1000
0100
1000
0001
1000
0010
0100
0001
,
1000
0001
0010
0100
1000
0010
1000
0001
0010
0100
1000
0001
0100
0001
1000
0100
,
1000
0010
0100
0001
1000
0100
0010
0001
1000
0010
1000
0001
1000
0100
0010
0001
,
1000
0001
0100
0010
1000
0001
0010
0100
1000
0001
1000
0010
0100
0010
1000
0001
,
1000
0100
0010
0001
1000
0010
0100
0001
1000
0100
1000
0001
1000
0010
0100
0001
,
1000
0001
0010
0100
1000
0010
1000
0001
0010
0100
1000
0001
0100
0001
1000
0100
,
1000
0010
0100
0001
1000
0100
0010
0001
1000
0010
1000
0001
1000
0100
0010
0001
,
1000
0010
0100
0001
1000
0100
1000
0001
0100
0010
1000
0100
0010
0000
0000
0000
,
2002
0000
0000
0000
,
0000
0000
0000
0000
,
3003
0000
0000
0000
;
