#TITLE:UNKNOWN REALITY;
#SUBTITLE:;
#ARTIST:SOUND HOLIC;
#TITLETRANSLIT:;
#SUBTITLETRANSLIT:;
#ARTISTTRANSLIT:;
#GENRE:;
#CREDIT:NAOKI;
#MUSIC:UNKNOWN_REALITY.ogg;
#BANNER:UNKNOWN_REALITY-bn.png;
#BACKGROUND:UNKNOWN_REALITY-bg.png;
#CDTITLE:naokicdtitle.png;
#SAMPLESTART:85.155;
#SAMPLELENGTH:17.250;
#SELECTABLE:YES;
#OFFSET:-0.405;
#BPMS:0.000=160.000;
#STOPS:;
#BGCHANGES:;
#FGCHANGES:;

//--------------- dance-single - 1/11-36-16-28-16-27/16-11 ----------------
#NOTES:
     dance-single:
     1/11-36-16-28-16-27/16-11:
     Hard:
     15:
     0,0,0,0,0:
1000
0000
0001
0000
1000
0010
0100
0000
,
0001
0000
0010
0200
1300
0001
0200
0310
,
2000
0000
0000
0000
3002
0000
0000
0000
0023
0000
0000
0230
0000
0000
1300
0000
,
0010
0100
0001
1000
0100
1000
0001
0100
0001
1000
0100
0010
0001
1000
0001
0100
,
0010
0000
1000
0000
0001
0020
0130
1000
,
0020
0030
0000
0000
0000
0000
0000
0000
0100
0000
0000
0000
0000
0000
0000
0000
0020
0030
0000
0000
0000
0000
0000
0000
0100
0000
0000
0000
0000
0000
0000
0000
0001
0000
0000
0000
0000
0000
0000
0000
1000
0000
0000
0000
0000
0000
0000
0000
0200
0000
0000
0000
0000
0000
0000
0000
0310
0000
0000
0000
0000
0000
0000
0000
,
0002
0000
0000
0000
2003
0000
0000
0000
3020
0000
0000
0230
0000
0000
0301
0000
,
0010
0000
0100
0000
1000
0000
0001
0000
0100
0000
0010
0000
1000
0000
0001
0000
0010
0000
0001
0000
1000
0000
0010
0000
0200
0300
0000
0000
0000
0000
0000
0000
,
0001
0010
0100
1000
0001
0100
0010
1000
0001
0010
0001
1000
0010
0100
0001
1000
,
0100
1000
0001
0100
0010
1000
0001
1000
0100
0010
0001
1000
0010
0100
0010
1000
,
0001
0010
0100
1000
0001
0100
0010
1000
0100
1000
0001
0100
0001
1000
0100
0010
,
0001
0100
0001
1000
0100
1000
0010
0100
0001
0010
0001
0100
0010
1000
0100
1000
,
0010
0100
0001
1000
0100
0010
0001
1000
0010
1000
0001
0010
0100
1000
0001
0100
,
0001
1000
0100
0010
0001
1000
0001
0100
0010
1000
0001
0010
0100
0010
0001
1000
,
0010
0100
0001
1000
0100
0010
0001
0100
0001
1000
0100
1000
0001
0100
0010
1000
,
0100
1000
0010
0100
0001
0010
0001
0100
0010
1000
0001
0010
0100
1000
0010
0100
,
0001
0010
0100
1000
0001
0100
0010
1000
0100
1000
0001
0100
0001
1000
0100
1000
,
0001
0100
0001
1000
0100
0010
0001
1000
0010
1000
0001
0010
0001
1000
0010
1000
,
0001
0000
0000
0000
0010
0000
0000
0000
0100
0000
0000
0000
1000
0000
0000
0000
0001
0000
0000
0000
0100
0000
0000
0000
0010
0000
0000
0000
1000
0000
0000
0000
0400
0300
0000
0000
0010
0000
0000
0000
0001
0000
0000
0000
0400
0300
0000
0000
0010
0000
0000
0000
1000
0000
0000
0000
0400
0300
0000
0000
0010
0000
0000
0000
,
0002
0000
0003
0000
2000
3000
0002
0003
,
1000
0010
0100
0001
1000
0100
0010
0001
0100
0001
1000
0100
1000
0001
0100
0010
,
1000
0001
0010
0001
1000
0001
0100
0010
1000
0001
1000
0100
0010
0001
1000
0010
,
0100
0010
1000
0001
0010
0100
0010
0001
1000
0010
1000
0001
0010
0001
0100
0010
,
1000
0100
0010
0001
0100
0001
1000
0100
1000
0001
0100
0010
1000
0100
0010
0001
,
0100
0010
1000
0001
0010
0100
1000
0001
0100
0001
1000
0100
1000
0001
0100
0010
,
0100
0001
1000
0100
1000
0001
1000
0010
0100
0001
1000
0001
0010
0100
1000
0001
,
0100
0001
1000
0100
1000
0001
0100
0010
1000
0100
0010
0001
1000
0010
0100
0001
,
0010
0100
1000
0001
0100
0010
1000
0001
0010
0001
1000
0010
1000
0001
0010
0100
,
1000
0010
0100
0001
1000
0100
0010
0001
1000
0010
1000
0001
0010
0001
1000
0010
,
0100
0001
0100
0010
1000
0001
0010
0100
1000
0001
1000
0010
0100
0001
1000
0001
,
0010
0100
1000
0001
0100
0010
1000
0001
0010
0001
1000
0010
1000
0001
0010
0001
,
0100
0010
1000
0100
0010
0001
0100
0010
1000
0100
0010
0001
0100
0001
0010
0100
,
1000
0010
0100
0001
1000
0100
0010
0001
1000
0010
1000
0001
0010
0001
1000
0010
,
0100
0001
1000
0001
0010
0100
1000
0001
0100
0001
1000
0100
1000
0001
0100
0010
,
1000
0100
0010
0001
1000
0010
0100
0001
1000
0100
1000
0001
0100
0010
1000
0001
,
0010
0100
1000
0010
0100
0001
0010
0001
1000
0010
0100
0001
1000
0100
0010
0001
,
1000
0010
1000
0001
1000
0100
0010
0001
1000
0010
1000
0001
0010
0001
1000
0010
,
0100
0001
1000
0001
0010
0001
1000
0010
0100
0001
1000
0100
1000
0001
0100
0001
,
1000
0100
1000
0001
1000
0010
0100
0001
1000
0100
1000
0001
0100
0001
1000
0100
,
1000
0010
0100
0001
1000
0100
0010
0001
0100
0001
1000
0100
1000
0001
0100
0001
,
1000
0100
0010
0001
1000
0010
0100
0001
1000
0100
1000
0001
0100
0001
1000
0100
,
0010
0001
0010
0100
1000
0001
0100
0010
1000
0001
1000
0100
0010
0001
1000
0001
,
0100
0010
1000
0001
0010
0100
1000
0001
0100
0001
1000
0100
1000
0001
0100
0001
,
0010
0100
1000
0010
0100
0001
0010
0100
1000
0010
0100
0001
0010
0001
0100
0010
,
1000
0100
0010
0001
1000
0010
0100
0001
1000
0100
1000
0001
0100
0001
1000
0100
,
0010
0001
1000
0001
0100
0010
1000
0001
0010
0001
1000
0010
1000
0001
0010
0100
,
1000
0010
0100
0001
1000
0100
0010
0001
1000
0010
1000
0001
0010
0100
1000
0001
,
0100
0010
1000
0100
0010
0001
0100
0010
1000
0100
0010
0001
1000
0010
0100
0001
,
0010
0100
1000
0010
1000
0001
0010
0001
0100
0001
1000
0100
1000
0001
0100
0010
,
1000
0010
0100
0001
1000
0001
0010
0001
1000
0010
1000
0001
1000
0100
0010
0001
,
0100
0010
1000
0100
1000
0001
0100
0001
0010
0001
1000
0010
1000
0001
0010
0100
,
1000
0100
0010
0001
1000
0010
0100
0001
0010
0001
1000
0001
0100
0010
0100
0001
,
1000
0001
0010
0001
1000
0010
1000
0100
1000
0001
0100
0001
1000
0100
0010
0001
,
0010
0100
1000
0001
1000
0010
1000
0001
0010
0001
1000
0001
0100
0010
1000
0100
,
0010
0001
0100
0001
1000
0100
1000
0010
1000
0001
0010
0001
1000
0010
0100
0001
,
0100
0010
1000
0001
0010
0100
1000
0001
0100
0010
1000
0100
1000
0001
1000
0010
,
0100
0001
1000
0100
0010
0000
0000
0000
0001
0100
0001
1000
0001
0010
0100
1000
,
0001
1000
0010
0100
0001
1000
0001
0010
0100
1000
0001
1000
0010
1000
0100
0010
,
0001
1000
0010
1000
0001
0010
0100
1000
0001
0100
0001
1000
0001
0010
0100
1000
,
0001
1000
0010
0100
0001
1000
0001
0010
0100
1000
0001
0100
0001
1000
0100
1000
,
0010
0100
0001
0100
0010
1000
0001
0010
0100
1000
0001
0100
0010
0100
0001
1000
,
0001
0010
0100
1000
0001
1000
0010
0100
0001
0010
0001
1000
0001
0100
0010
1000
,
0001
1000
0100
0010
0001
1000
0001
0100
0010
1000
0001
0010
0001
1000
0010
0100
,
0001
0010
0100
1000
0001
0100
0010
1000
0100
0010
0001
1000
0010
0100
0001
1000
,
0001
0010
0100
1000
0001
1000
0010
0100
0001
0010
0100
1000
0001
0100
0010
1000
,
0001
1000
0100
0010
0001
1000
0001
0100
0010
1000
0001
1000
0100
1000
0001
0100
,
0010
1000
0001
0010
0001
1000
0010
0100
0001
0010
0001
1000
0001
0100
0010
1000
,
0001
1000
0100
0010
0001
1000
0001
0100
0010
1000
0001
0010
0001
1000
0010
1000
,
0100
0010
0001
0010
0100
1000
0001
0100
0010
1000
0001
0010
0100
0010
0001
1000
,
0001
0100
0010
1000
0001
1000
0100
0010
0001
0100
0001
1000
0001
0010
0100
1000
,
0001
1000
0010
0100
0010
1000
0001
0010
0001
1000
0001
0100
0010
1000
0001
0010
,
0100
1000
0001
1000
0010
1000
0001
0010
0100
1000
0010
1000
0001
0010
0100
0010
,
0001
0100
0010
0100
0001
1000
0200
0000
0000
0300
0010
0001
0100
0000
0000
0000
,
0001
0010
0100
1000
0001
0100
0010
1000
0100
1000
0001
0100
0001
1000
0100
0010
,
0001
1000
0010
1000
0001
1000
0100
0010
0001
1000
0001
0100
0010
1000
0001
0010
,
0100
0010
0001
1000
0010
0100
0010
1000
0001
0010
0001
1000
0010
1000
0100
0010
,
0001
0100
0010
1000
0100
1000
0001
0100
0001
1000
0100
0010
0001
0100
0010
1000
,
0100
0010
0001
1000
0010
0100
0001
1000
0100
1000
0001
0100
0001
1000
0100
0010
,
0100
1000
0001
0100
0001
1000
0001
0010
0100
1000
0001
1000
0010
0100
0001
1000
,
0100
1000
0001
0100
0001
1000
0100
0010
0001
0100
0010
1000
0001
0010
0100
1000
,
0010
0100
0001
1000
0100
0010
0001
1000
0010
1000
0001
0010
0001
1000
0010
0100
,
0001
0010
0100
1000
0001
0100
0010
1000
0001
0010
0001
1000
0010
1000
0001
0010
,
0100
1000
0100
0010
0001
1000
0010
0100
0001
1000
0001
0010
0100
1000
0001
1000
,
0010
0100
0001
1000
0100
0010
0001
1000
0010
1000
0001
0010
0001
1000
0010
1000
,
0100
0010
0001
0100
0010
1000
0100
0010
0001
0100
0010
1000
0100
1000
0010
0100
,
0001
0010
0100
1000
0001
0100
0010
1000
0001
0010
0001
1000
0010
1000
0001
0010
,
0100
1000
0001
1000
0010
0100
0001
1000
0100
1000
0001
0100
0001
1000
0100
0010
,
0001
0100
0010
1000
0001
0010
0100
1000
0001
0100
0001
1000
0100
0010
0001
1000
,
0010
0100
0001
0010
0100
1000
0010
0100
0001
0010
0100
1000
0001
0100
0010
1000
,
0001
0010
0001
1000
0001
0100
0010
1000
0001
0010
0001
1000
0010
1000
0001
0010
,
0100
1000
0001
1000
0010
1000
0001
0010
0100
1000
0001
0100
0001
1000
0100
1000
,
0001
0100
0001
1000
0001
0010
0100
1000
0001
0100
0001
1000
0100
1000
0001
0100
,
0010
0100
0001
0010
0100
1000
0001
0100
0010
1000
0001
0010
0001
1000
0010
1000
,
0100
0010
0001
0100
0001
1000
0100
1000
0010
1000
0001
0010
0001
1000
0010
0100
,
0001
0100
0010
1000
0001
1000
0100
1000
0001
0100
0001
1000
0001
0010
0100
1000
,
0010
0100
0001
0010
0001
1000
0010
1000
0100
1000
0001
0100
0001
1000
0100
0010
,
0001
0010
0100
1000
0001
0100
0010
1000
0100
1000
0001
1000
0010
0100
0010
1000
,
0001
1000
0100
1000
0001
0100
0001
0010
0001
1000
0010
1000
0001
0010
0100
1000
,
0100
0010
0001
1000
0001
0100
0001
1000
0100
1000
0001
1000
0010
0100
0001
0010
,
0100
1000
0010
1000
0001
0010
0001
0100
0001
1000
0100
1000
0001
0100
0010
1000
,
0010
0100
0001
1000
0100
0010
0001
1000
0010
0100
0001
0010
0001
1000
0001
0100
,
0010
1000
0001
0010
0100
0000
0000
0000
1000
0010
1000
0001
1000
0100
0010
0001
,
1000
0001
0100
0010
1000
0001
1000
0100
0010
0001
1000
0001
0100
0001
0010
0100
,
1000
0001
0100
0001
1000
0100
0010
0001
1000
0010
1000
0001
1000
0100
0010
0001
,
1000
0001
0100
0010
1000
0001
1000
0100
0010
0001
1000
0010
1000
0001
0010
0001
,
0100
0010
1000
0010
0100
0001
1000
0100
0010
0001
1000
0010
0100
0010
1000
0001
,
1000
0100
0010
0001
1000
0001
0100
0010
1000
0100
1000
0001
1000
0010
0100
0001
,
1000
0001
0010
0100
1000
0001
1000
0010
0100
0001
1000
0100
1000
0001
0100
0010
,
1000
0100
0010
0001
1000
0010
0100
0001
0010
0100
1000
0001
0100
0010
1000
0001
,
1000
0100
0010
0001
1000
0001
0100
0010
1000
0100
0010
0001
1000
0010
0100
0001
,
1000
0001
0010
0100
1000
0001
1000
0010
0100
0001
1000
0001
0010
0001
1000
0010
,
0100
0001
1000
0100
1000
0001
0100
0010
1000
0100
1000
0001
1000
0010
0100
0001
,
1000
0001
0010
0100
1000
0001
1000
0010
0100
0001
1000
0100
1000
0001
0100
0001
,
0010
0100
1000
0100
0010
0001
1000
0010
0100
0001
1000
0100
0010
0100
1000
0001
,
1000
0010
0100
0001
1000
0001
0010
0100
1000
0010
1000
0001
1000
0100
0010
0001
,
1000
0001
0100
0010
0100
0001
1000
0100
1000
0001
1000
0010
0100
0001
1000
0100
,
0010
0001
1000
0001
0100
0001
1000
0100
0010
0001
0100
0001
1000
0100
0010
0100
,
1000
0010
0100
0010
1000
0001
0020
0000
0000
0030
0100
1000
0010
0000
0000
0000
,
1000
0100
1000
0010
1000
0001
0100
0001
0010
0001
0100
0010
1000
0001
1000
0100
,
0010
0100
1000
0001
0100
0001
0010
0100
1000
0001
0100
0001
1000
0100
0010
0001
,
0100
0001
1000
0100
1000
0010
0100
0001
1000
0001
0010
0001
1000
0010
1000
0001
,
1000
0100
0010
0001
1000
0001
0100
0010
1000
0001
0010
0100
1000
0001
0100
0001
,
1000
0100
0010
0001
1000
0010
0100
0001
0010
0100
1000
0001
0100
0010
1000
0001
,
1000
0100
0010
0001
1000
0010
0100
0001
0010
0100
1000
0001
0100
0010
1000
0001
,
1000
0100
0010
0001
1000
0010
0100
0001
1000
0100
1000
0001
0100
0010
1000
0001
,
0010
0001
0100
0010
1000
0100
1000
0001
0100
0001
1000
0100
0010
0001
1000
0010
,
0100
0001
1000
0001
0010
0001
1000
0010
1000
0001
1000
0100
0010
0001
1000
0010
,
1000
0001
0010
0100
1000
0001
0100
0001
1000
0100
1000
0010
1000
0001
0010
0001
,
1000
0010
0100
0001
0100
0010
1000
0001
0010
0001
1000
0010
0100
0001
1000
0100
,
1000
0001
0100
0001
1000
0100
0010
0001
1000
0010
1000
0001
0010
0100
1000
0001
,
0100
0001
1000
0001
0010
0100
1000
0001
1000
0010
0100
0001
0010
0100
1000
0001
,
0100
0001
1000
0100
1000
0010
0100
0001
1000
0100
0010
0001
1000
0010
1000
0001
,
0010
0100
1000
0001
0100
0010
1000
0001
0010
0001
1000
0010
0100
0001
1000
0100
,
1000
0001
0100
0001
1000
0100
0010
0001
1000
0001
0100
0001
1000
0100
0010
0001
,
0100
0010
1000
0010
0100
0001
1000
0100
0010
0001
0010
0100
1000
0001
1000
0010
,
0100
0001
0100
0010
1000
0001
0010
0100
1000
0001
0100
0001
1000
0001
0010
0100
,
1000
0001
1000
0010
1000
0001
0010
0001
0100
0010
1000
0001
1000
0100
0010
0001
,
0100
0001
1000
0100
0010
0001
0100
0010
1000
0001
0010
0001
0100
0010
1000
0100
,
1000
0010
0100
0001
0100
0010
1000
0001
0010
0100
1000
0001
0100
0001
1000
0100
,
0010
0001
1000
0010
1000
0001
0010
0100
1000
0010
1000
0001
1000
0100
0010
0001
,
0100
0010
1000
0010
0100
0001
1000
0001
0010
0100
1000
0001
0100
0010
1000
0001
,
0010
0001
1000
0010
0100
0001
0010
0001
1000
0010
0100
0010
1000
0010
0100
0001
,
1000
0100
0010
0001
1000
0010
0100
0001
0010
0001
1000
0010
1000
0001
0010
0001
,
1000
0010
1000
0001
0010
0001
1000
0010
0100
0001
1000
0100
1000
0001
0100
0001
,
0010
0000
0000
0000
0100
0000
0000
0000
1000
0000
0000
0000
0001
0000
0000
0000
0100
0000
0000
0000
0010
0000
0000
0000
1000
0000
0000
0000
0001
0000
0000
0000
0040
0030
0000
0000
0100
0000
0000
0000
1000
0000
0000
0000
0040
0030
0000
0000
0100
0000
0000
0000
0001
0000
0000
0000
0040
0030
0000
0000
0100
0000
0000
0000
,
1000
0001
1000
0010
1000
0000
0000
0000
0001
0000
0010
0000
0001
0000
0100
0000
,
0001
1000
0100
0010
0001
0000
0000
0000
1000
0000
0010
0000
1000
0000
0100
0000
,
1000
0001
0100
0010
1000
0000
0000
0000
0001
0010
0001
1000
0001
0100
0010
1000
,
0001
1000
0100
0010
0001
1000
0001
0100
0010
1000
0001
0010
0001
1000
0010
1000
,
0100
0010
0001
0010
0100
1000
0001
0100
0010
1000
0001
0010
0100
0010
0001
1000
,
0001
0100
0010
1000
0001
1000
0100
0010
0001
0100
0001
1000
0001
0010
0100
1000
,
0001
1000
0010
0100
0001
1000
0001
0010
0100
1000
0001
0100
0001
1000
0100
0010
,
0001
0100
0010
1000
0001
0010
0100
1000
0010
0100
0001
1000
0100
0010
0001
1000
,
0001
0100
0010
1000
0001
1000
0100
0010
0001
0100
0010
1000
0001
0010
0100
1000
,
0001
1000
0010
0100
0001
1000
0001
0010
0100
1000
0001
1000
0010
1000
0001
0010
,
0100
1000
0001
0100
0001
1000
0100
0010
0001
0100
0001
1000
0001
0010
0100
1000
,
0001
1000
0010
0100
0001
1000
0001
0010
0100
1000
0001
0100
0001
1000
0100
1000
,
0010
0100
0001
0100
0010
1000
0001
0010
0100
1000
0001
0100
0010
0100
0001
1000
,
0001
0010
0100
1000
0001
1000
0010
0100
0001
0010
0001
1000
0001
0100
0010
1000
,
0001
1000
0100
0010
0100
1000
0001
0100
0001
1000
0001
0010
0100
1000
0001
0100
,
0010
1000
0100
1000
0001
1000
0010
0100
0001
0010
0001
0100
0010
1000
0100
1000
,
0001
0100
0010
1000
0001
1000
0100
0010
0001
0100
0001
0010
0100
1000
0001
0100
,
0010
1000
0001
1000
0100
1000
0001
0100
0010
1000
0100
1000
0001
0100
0010
0100
,
0001
0010
0100
0010
0001
1000
0020
0000
0000
0030
0100
0001
0010
0000
0000
0000
,
0001
0100
0010
1000
0001
0010
0100
1000
0010
1000
0001
0010
0001
1000
0010
0100
,
0001
1000
0100
1000
0001
1000
0010
0100
0001
1000
0001
0010
0100
1000
0001
0100
,
0010
0100
0001
1000
0100
0010
0100
1000
0001
0100
0001
1000
0100
1000
0010
0100
,
0001
0010
0100
1000
0010
1000
0001
0010
0001
1000
0010
0100
0001
0010
0100
1000
,
0010
0100
0001
1000
0100
0010
0001
1000
0010
1000
0001
0010
0001
1000
0010
0100
,
0010
1000
0001
0010
0001
1000
0001
0100
0010
1000
0001
1000
0100
0010
0001
1000
,
0010
1000
0001
0010
0001
1000
0010
0100
0001
0010
0100
1000
0001
0100
0010
1000
,
0100
0010
0001
1000
0010
0100
0001
1000
0100
1000
0001
0100
0001
1000
0100
0010
,
0001
0100
0010
1000
0100
0010
0001
0100
0010
1000
0100
1000
0010
0100
0001
0010
,
0100
1000
0010
0100
0001
0010
0001
0100
0010
1000
0001
0010
0100
1000
0001
1000
,
0010
0100
0001
1000
0100
0010
0001
1000
0010
0100
0001
0010
0100
1000
0001
0100
,
0020
0030
0000
0000
;

//--------------- dance-single - NAOKI 1/163* ----------------
#NOTES:
     dance-single:
     NAOKI 1/163*:
     Challenge:
     15:
     0,0,0,0,0:
1000
0000
0001
0000
1000
0010
0100
0000
,
0001
0000
0010
0200
1300
0001
0200
0310
,
2000
0000
0000
0000
3002
0000
0000
0000
0023
0000
0000
0230
0000
0000
1300
0000
,
0010
0100
0001
1000
0100
1000
0001
0100
0001
1000
0100
0010
0001
1000
0001
0100
,
0010
0000
1000
0000
0001
0020
0130
1000
,
0020
0030
0000
0000
0000
0000
0000
0000
0100
0000
0000
0000
0000
0000
0000
0000
0020
0030
0000
0000
0000
0000
0000
0000
0100
0000
0000
0000
0000
0000
0000
0000
0001
0000
0000
0000
0000
0000
0000
0000
1000
0000
0000
0000
0000
0000
0000
0000
0200
0000
0000
0000
0000
0000
0000
0000
0310
0000
0000
0000
0000
0000
0000
0000
,
0002
0000
0000
0000
2003
0000
0000
0000
3020
0000
0000
0230
0000
0000
0301
0000
,
0010
0000
0100
0000
1000
0000
0001
0000
0100
0000
0010
0000
1000
0000
0001
0000
0010
0000
0001
0000
1000
0000
0010
0000
0200
0300
0000
0000
0000
0000
0000
0000
,
0001
0010
0100
1000
0001
0100
0010
1000
0001
0010
0001
1000
0010
0100
0001
1000
,
0100
1000
0001
0100
0010
1000
0001
1000
0100
0010
0001
1000
0010
0100
0010
1000
,
0001
0010
0100
1000
0001
0100
0010
1000
0100
1000
0001
0100
0001
1000
0100
0010
,
0001
0100
0001
1000
0100
1000
0010
0100
0001
0010
0001
0100
0010
1000
0100
1000
,
0010
0100
0001
1000
0100
0010
0001
1000
0010
1000
0001
0010
0100
1000
0001
0100
,
0001
1000
0100
0010
0001
1000
0001
0100
0010
1000
0001
0010
0100
0010
0001
1000
,
0010
0100
0001
1000
0100
0010
0001
0100
0001
1000
0100
1000
0001
0100
0010
1000
,
0100
1000
0010
0100
0001
0010
0001
0100
0010
1000
0001
0010
0100
1000
0010
0100
,
0001
0010
0100
1000
0001
0100
0010
1000
0100
1000
0001
0100
0001
1000
0100
1000
,
0001
0100
0001
1000
0100
0010
0001
1000
0010
1000
0001
0010
0001
1000
0010
1000
,
0001
0000
0000
0000
0010
0000
0000
0000
0100
0000
0000
0000
1000
0000
0000
0000
0001
0000
0000
0000
0100
0000
0000
0000
0010
0000
0000
0000
1000
0000
0000
0000
0400
0300
0000
0000
0010
0000
0000
0000
0001
0000
0000
0000
0400
0300
0000
0000
0010
0000
0000
0000
1000
0000
0000
0000
0400
0300
0000
0000
0010
0000
0000
0000
,
0002
0000
0003
0000
2000
3000
0002
0003
,
1000
0010
0100
0001
1000
0100
0010
0001
0100
0001
1000
0100
1000
0001
0100
0010
,
1000
0001
0010
0001
1000
0001
0100
0010
1000
0001
1000
0100
0010
0001
1000
0010
,
0100
0010
1000
0001
0010
0100
0010
0001
1000
0010
1000
0001
0010
0001
0100
0010
,
1000
0100
0010
0001
0100
0001
1000
0100
1000
0001
0100
0010
1000
0100
0010
0001
,
0100
0010
1000
0001
0010
0100
1000
0001
0100
0001
1000
0100
1000
0001
0100
0010
,
0100
0001
1000
0100
1000
0001
1000
0010
0100
0001
1000
0001
0010
0100
1000
0001
,
0100
0001
1000
0100
1000
0001
0100
0010
1000
0100
0010
0001
1000
0010
0100
0001
,
0010
0100
1000
0001
0100
0010
1000
0001
0010
0001
1000
0010
1000
0001
0010
0100
,
1000
0010
0100
0001
1000
0100
0010
0001
1000
0010
1000
0001
0010
0001
1000
0010
,
0100
0001
0100
0010
1000
0001
0010
0100
1000
0001
1000
0010
0100
0001
1000
0001
,
0010
0100
1000
0001
0100
0010
1000
0001
0010
0001
1000
0010
1000
0001
0010
0001
,
0100
0010
1000
0100
0010
0001
0100
0010
1000
0100
0010
0001
0100
0001
0010
0100
,
1000
0010
0100
0001
1000
0100
0010
0001
1000
0010
1000
0001
0010
0001
1000
0010
,
0100
0001
1000
0001
0010
0100
1000
0001
0100
0001
1000
0100
1000
0001
0100
0010
,
1000
0100
0010
0001
1000
0010
0100
0001
1000
0100
1000
0001
0100
0010
1000
0001
,
0010
0100
1000
0010
0100
0001
0010
0001
1000
0010
0100
0001
1000
0100
0010
0001
,
1000
0010
1000
0001
1000
0100
0010
0001
1000
0010
1000
0001
0010
0001
1000
0010
,
0100
0001
1000
0001
0010
0001
1000
0010
0100
0001
1000
0100
1000
0001
0100
0001
,
1000
0100
1000
0001
1000
0010
0100
0001
1000
0100
1000
0001
0100
0001
1000
0100
,
1000
0010
0100
0001
1000
0100
0010
0001
0100
0001
1000
0100
1000
0001
0100
0001
,
1000
0100
0010
0001
1000
0010
0100
0001
1000
0100
1000
0001
0100
0001
1000
0100
,
0010
0001
0010
0100
1000
0001
0100
0010
1000
0001
1000
0100
0010
0001
1000
0001
,
0100
0010
1000
0001
0010
0100
1000
0001
0100
0001
1000
0100
1000
0001
0100
0001
,
0010
0100
1000
0010
0100
0001
0010
0100
1000
0010
0100
0001
0010
0001
0100
0010
,
1000
0100
0010
0001
1000
0010
0100
0001
1000
0100
1000
0001
0100
0001
1000
0100
,
0010
0001
1000
0001
0100
0010
1000
0001
0010
0001
1000
0010
1000
0001
0010
0100
,
1000
0010
0100
0001
1000
0100
0010
0001
1000
0010
1000
0001
0010
0100
1000
0001
,
0100
0010
1000
0100
0010
0001
0100
0010
1000
0100
0010
0001
1000
0010
0100
0001
,
0010
0100
1000
0010
1000
0001
0010
0001
0100
0001
1000
0100
1000
0001
0100
0010
,
1000
0010
0100
0001
1000
0001
0010
0001
1000
0010
1000
0001
1000
0100
0010
0001
,
0100
0010
1000
0100
1000
0001
0100
0001
0010
0001
1000
0010
1000
0001
0010
0100
,
1000
0100
0010
0001
1000
0010
0100
0001
0010
0001
1000
0001
0100
0010
0100
0001
,
1000
0001
0010
0001
1000
0010
1000
0100
1000
0001
0100
0001
1000
0100
0010
0001
,
0010
0100
1000
0001
1000
0010
1000
0001
0010
0001
1000
0001
0100
0010
1000
0100
,
0010
0001
0100
0001
1000
0100
1000
0010
1000
0001
0010
0001
1000
0010
0100
0001
,
0100
0010
1000
0001
0010
0100
1000
0001
0100
0010
1000
0100
1000
0001
1000
0010
,
0100
0001
1000
0100
0010
0000
0000
0000
0001
0100
0001
1000
0001
0010
0100
1000
,
0001
1000
0010
0100
0001
1000
0001
0010
0100
1000
0001
1000
0010
1000
0100
0010
,
0001
1000
0010
1000
0001
0010
0100
1000
0001
0100
0001
1000
0001
0010
0100
1000
,
0001
1000
0010
0100
0001
1000
0001
0010
0100
1000
0001
0100
0001
1000
0100
1000
,
0010
0100
0001
0100
0010
1000
0001
0010
0100
1000
0001
0100
0010
0100
0001
1000
,
0001
0010
0100
1000
0001
1000
0010
0100
0001
0010
0001
1000
0001
0100
0010
1000
,
0001
1000
0100
0010
0001
1000
0001
0100
0010
1000
0001
0010
0001
1000
0010
0100
,
0001
0010
0100
1000
0001
0100
0010
1000
0100
0010
0001
1000
0010
0100
0001
1000
,
0001
0010
0100
1000
0001
1000
0010
0100
0001
0010
0100
1000
0001
0100
0010
1000
,
0001
1000
0100
0010
0001
1000
0001
0100
0010
1000
0001
1000
0100
1000
0001
0100
,
0010
1000
0001
0010
0001
1000
0010
0100
0001
0010
0001
1000
0001
0100
0010
1000
,
0001
1000
0100
0010
0001
1000
0001
0100
0010
1000
0001
0010
0001
1000
0010
1000
,
0100
0010
0001
0010
0100
1000
0001
0100
0010
1000
0001
0010
0100
0010
0001
1000
,
0001
0100
0010
1000
0001
1000
0100
0010
0001
0100
0001
1000
0001
0010
0100
1000
,
0001
1000
0010
0100
0010
1000
0001
0010
0001
1000
0001
0100
0010
1000
0001
0010
,
0100
1000
0001
1000
0010
1000
0001
0010
0100
1000
0010
1000
0001
0010
0100
0010
,
0001
0100
0010
0100
0001
1000
0200
0000
0000
0300
0010
0001
0100
0000
0000
0000
,
0001
0010
0100
1000
0001
0100
0010
1000
0100
1000
0001
0100
0001
1000
0100
0010
,
0001
1000
0010
1000
0001
1000
0100
0010
0001
1000
0001
0100
0010
1000
0001
0010
,
0100
0010
0001
1000
0010
0100
0010
1000
0001
0010
0001
1000
0010
1000
0100
0010
,
0001
0100
0010
1000
0100
1000
0001
0100
0001
1000
0100
0010
0001
0100
0010
1000
,
0100
0010
0001
1000
0010
0100
0001
1000
0100
1000
0001
0100
0001
1000
0100
0010
,
0100
1000
0001
0100
0001
1000
0001
0010
0100
1000
0001
1000
0010
0100
0001
1000
,
0100
1000
0001
0100
0001
1000
0100
0010
0001
0100
0010
1000
0001
0010
0100
1000
,
0010
0100
0001
1000
0100
0010
0001
1000
0010
1000
0001
0010
0001
1000
0010
0100
,
0001
0010
0100
1000
0001
0100
0010
1000
0001
0010
0001
1000
0010
1000
0001
0010
,
0100
1000
0100
0010
0001
1000
0010
0100
0001
1000
0001
0010
0100
1000
0001
1000
,
0010
0100
0001
1000
0100
0010
0001
1000
0010
1000
0001
0010
0001
1000
0010
1000
,
0100
0010
0001
0100
0010
1000
0100
0010
0001
0100
0010
1000
0100
1000
0010
0100
,
0001
0010
0100
1000
0001
0100
0010
1000
0001
0010
0001
1000
0010
1000
0001
0010
,
0100
1000
0001
1000
0010
0100
0001
1000
0100
1000
0001
0100
0001
1000
0100
0010
,
0001
0100
0010
1000
0001
0010
0100
1000
0001
0100
0001
1000
0100
0010
0001
1000
,
0010
0100
0001
0010
0100
1000
0010
0100
0001
0010
0100
1000
0001
0100
0010
1000
,
0001
0010
0001
1000
0001
0100
0010
1000
0001
0010
0001
1000
0010
1000
0001
0010
,
0100
1000
0001
1000
0010
1000
0001
0010
0100
1000
0001
0100
0001
1000
0100
1000
,
0001
0100
0001
1000
0001
0010
0100
1000
0001
0100
0001
1000
0100
1000
0001
0100
,
0010
0100
0001
0010
0100
1000
0001
0100
0010
1000
0001
0010
0001
1000
0010
1000
,
0100
0010
0001
0100
0001
1000
0100
1000
0010
1000
0001
0010
0001
1000
0010
0100
,
0001
0100
0010
1000
0001
1000
0100
1000
0001
0100
0001
1000
0001
0010
0100
1000
,
0010
0100
0001
0010
0001
1000
0010
1000
0100
1000
0001
0100
0001
1000
0100
0010
,
0001
0010
0100
1000
0001
0100
0010
1000
0100
1000
0001
1000
0010
0100
0010
1000
,
0001
1000
0100
1000
0001
0100
0001
0010
0001
1000
0010
1000
0001
0010
0100
1000
,
0100
0010
0001
1000
0001
0100
0001
1000
0100
1000
0001
1000
0010
0100
0001
0010
,
0100
1000
0010
1000
0001
0010
0001
0100
0001
1000
0100
1000
0001
0100
0010
1000
,
0010
0100
0001
1000
0100
0010
0001
1000
0010
0100
0001
0010
0001
1000
0001
0100
,
0010
1000
0001
0010
0100
0000
0000
0000
1000
0010
1000
0001
1000
0100
0010
0001
,
1000
0001
0100
0010
1000
0001
1000
0100
0010
0001
1000
0001
0100
0001
0010
0100
,
1000
0001
0100
0001
1000
0100
0010
0001
1000
0010
1000
0001
1000
0100
0010
0001
,
1000
0001
0100
0010
1000
0001
1000
0100
0010
0001
1000
0010
1000
0001
0010
0001
,
0100
0010
1000
0010
0100
0001
1000
0100
0010
0001
1000
0010
0100
0010
1000
0001
,
1000
0100
0010
0001
1000
0001
0100
0010
1000
0100
1000
0001
1000
0010
0100
0001
,
1000
0001
0010
0100
1000
0001
1000
0010
0100
0001
1000
0100
1000
0001
0100
0010
,
1000
0100
0010
0001
1000
0010
0100
0001
0010
0100
1000
0001
0100
0010
1000
0001
,
1000
0100
0010
0001
1000
0001
0100
0010
1000
0100
0010
0001
1000
0010
0100
0001
,
1000
0001
0010
0100
1000
0001
1000
0010
0100
0001
1000
0001
0010
0001
1000
0010
,
0100
0001
1000
0100
1000
0001
0100
0010
1000
0100
1000
0001
1000
0010
0100
0001
,
1000
0001
0010
0100
1000
0001
1000
0010
0100
0001
1000
0100
1000
0001
0100
0001
,
0010
0100
1000
0100
0010
0001
1000
0010
0100
0001
1000
0100
0010
0100
1000
0001
,
1000
0010
0100
0001
1000
0001
0010
0100
1000
0010
1000
0001
1000
0100
0010
0001
,
1000
0001
0100
0010
0100
0001
1000
0100
1000
0001
1000
0010
0100
0001
1000
0100
,
0010
0001
1000
0001
0100
0001
1000
0100
0010
0001
0100
0001
1000
0100
0010
0100
,
1000
0010
0100
0010
1000
0001
0020
0000
0000
0030
0100
1000
0010
0000
0000
0000
,
1000
0100
1000
0010
1000
0001
0100
0001
0010
0001
0100
0010
1000
0001
1000
0100
,
0010
0100
1000
0001
0100
0001
0010
0100
1000
0001
0100
0001
1000
0100
0010
0001
,
0100
0001
1000
0100
1000
0010
0100
0001
1000
0001
0010
0001
1000
0010
1000
0001
,
1000
0100
0010
0001
1000
0001
0100
0010
1000
0001
0010
0100
1000
0001
0100
0001
,
1000
0100
0010
0001
1000
0010
0100
0001
0010
0100
1000
0001
0100
0010
1000
0001
,
1000
0100
0010
0001
1000
0010
0100
0001
0010
0100
1000
0001
0100
0010
1000
0001
,
1000
0100
0010
0001
1000
0010
0100
0001
1000
0100
1000
0001
0100
0010
1000
0001
,
0010
0001
0100
0010
1000
0100
1000
0001
0100
0001
1000
0100
0010
0001
1000
0010
,
0100
0001
1000
0001
0010
0001
1000
0010
1000
0001
1000
0100
0010
0001
1000
0010
,
1000
0001
0010
0100
1000
0001
0100
0001
1000
0100
1000
0010
1000
0001
0010
0001
,
1000
0010
0100
0001
0100
0010
1000
0001
0010
0001
1000
0010
0100
0001
1000
0100
,
1000
0001
0100
0001
1000
0100
0010
0001
1000
0010
1000
0001
0010
0100
1000
0001
,
0100
0001
1000
0001
0010
0100
1000
0001
1000
0010
0100
0001
0010
0100
1000
0001
,
0100
0001
1000
0100
1000
0010
0100
0001
1000
0100
0010
0001
1000
0010
1000
0001
,
0010
0100
1000
0001
0100
0010
1000
0001
0010
0001
1000
0010
0100
0001
1000
0100
,
1000
0001
0100
0001
1000
0100
0010
0001
1000
0001
0100
0001
1000
0100
0010
0001
,
0100
0010
1000
0010
0100
0001
1000
0100
0010
0001
0010
0100
1000
0001
1000
0010
,
0100
0001
0100
0010
1000
0001
0010
0100
1000
0001
0100
0001
1000
0001
0010
0100
,
1000
0001
1000
0010
1000
0001
0010
0001
0100
0010
1000
0001
1000
0100
0010
0001
,
0100
0001
1000
0100
0010
0001
0100
0010
1000
0001
0010
0001
0100
0010
1000
0100
,
1000
0010
0100
0001
0100
0010
1000
0001
0010
0100
1000
0001
0100
0001
1000
0100
,
0010
0001
1000
0010
1000
0001
0010
0100
1000
0010
1000
0001
1000
0100
0010
0001
,
0100
0010
1000
0010
0100
0001
1000
0001
0010
0100
1000
0001
0100
0010
1000
0001
,
0010
0001
1000
0010
0100
0001
0010
0001
1000
0010
0100
0010
1000
0010
0100
0001
,
1000
0100
0010
0001
1000
0010
0100
0001
0010
0001
1000
0010
1000
0001
0010
0001
,
1000
0010
1000
0001
0010
0001
1000
0010
0100
0001
1000
0100
1000
0001
0100
0001
,
0010
0000
0000
0000
0100
0000
0000
0000
1000
0000
0000
0000
0001
0000
0000
0000
0100
0000
0000
0000
0010
0000
0000
0000
1000
0000
0000
0000
0001
0000
0000
0000
0040
0030
0000
0000
0100
0000
0000
0000
1000
0000
0000
0000
0040
0030
0000
0000
0100
0000
0000
0000
0001
0000
0000
0000
0040
0030
0000
0000
0100
0000
0000
0000
,
1000
0001
1000
0010
1000
0000
0000
0000
0001
0010
0001
1000
0001
0100
0010
1000
,
0001
1000
0100
0010
0001
1000
0001
0100
0010
1000
0001
1000
0100
1000
0010
0100
,
0001
1000
0100
1000
0001
0100
0010
1000
0001
0010
0001
1000
0001
0100
0010
1000
,
0001
1000
0100
0010
0001
1000
0001
0100
0010
1000
0001
0010
0001
1000
0010
1000
,
0100
0010
0001
0010
0100
1000
0001
0100
0010
1000
0001
0010
0100
0010
0001
1000
,
0001
0100
0010
1000
0001
1000
0100
0010
0001
0100
0001
1000
0001
0010
0100
1000
,
0001
1000
0010
0100
0001
1000
0001
0010
0100
1000
0001
0100
0001
1000
0100
0010
,
0001
0100
0010
1000
0001
0010
0100
1000
0010
0100
0001
1000
0100
0010
0001
1000
,
0001
0100
0010
1000
0001
1000
0100
0010
0001
0100
0010
1000
0001
0010
0100
1000
,
0001
1000
0010
0100
0001
1000
0001
0010
0100
1000
0001
1000
0010
1000
0001
0010
,
0100
1000
0001
0100
0001
1000
0100
0010
0001
0100
0001
1000
0001
0010
0100
1000
,
0001
1000
0010
0100
0001
1000
0001
0010
0100
1000
0001
0100
0001
1000
0100
1000
,
0010
0100
0001
0100
0010
1000
0001
0010
0100
1000
0001
0100
0010
0100
0001
1000
,
0001
0010
0100
1000
0001
1000
0010
0100
0001
0010
0001
1000
0001
0100
0010
1000
,
0001
1000
0100
0010
0100
1000
0001
0100
0001
1000
0001
0010
0100
1000
0001
0100
,
0010
1000
0100
1000
0001
1000
0010
0100
0001
0010
0001
0100
0010
1000
0100
1000
,
0001
0100
0010
1000
0001
1000
0100
0010
0001
0100
0001
0010
0100
1000
0001
0100
,
0010
1000
0001
1000
0100
1000
0001
0100
0010
1000
0100
1000
0001
0100
0010
0100
,
0001
0010
0100
0010
0001
1000
0020
0000
0000
0030
0100
0001
0010
0000
0000
0000
,
0001
0100
0010
1000
0001
0010
0100
1000
0010
1000
0001
0010
0001
1000
0010
0100
,
0001
1000
0100
1000
0001
1000
0010
0100
0001
1000
0001
0010
0100
1000
0001
0100
,
0010
0100
0001
1000
0100
0010
0100
1000
0001
0100
0001
1000
0100
1000
0010
0100
,
0001
0010
0100
1000
0010
1000
0001
0010
0001
1000
0010
0100
0001
0010
0100
1000
,
0010
0100
0001
1000
0100
0010
0001
1000
0010
1000
0001
0010
0001
1000
0010
0100
,
0010
1000
0001
0010
0001
1000
0001
0100
0010
1000
0001
1000
0100
0010
0001
1000
,
0010
1000
0001
0010
0001
1000
0010
0100
0001
0010
0100
1000
0001
0100
0010
1000
,
0100
0010
0001
1000
0010
0100
0001
1000
0100
1000
0001
0100
0001
1000
0100
0010
,
0001
0100
0010
1000
0100
0010
0001
0100
0010
1000
0100
1000
0010
0100
0001
0010
,
0100
1000
0010
0100
0001
0010
0001
0100
0010
1000
0001
0010
0100
1000
0001
1000
,
0010
0100
0001
1000
0100
0010
0001
1000
0010
0100
0001
0010
0100
1000
0001
0100
,
0020
0030
0000
0000
;
