#TITLE:Turn of the time;
#SUBTITLE:;
#ARTIST:TOMOYUKi;
#TITLETRANSLIT:;
#SUBTITLETRANSLIT:;
#ARTISTTRANSLIT:;
#CREDIT:;
#BANNER:Turn_of_the_time-bn.png;
#BACKGROUND:Turn_of_the_time-bg.png;
#LYRICSPATH:Turn_of_the_time.lrc;
#CDTITLE:NAOKI_cdtitle.png;
#MUSIC:Turn of the time.ogg;
#OFFSET:-0.560;
#SAMPLESTART:27.147;
#SAMPLELENGTH:12.000;
#SELECTABLE:YES;
#BPMS:0.000=144.000;
#STOPS:;
#BGCHANGES:;

//---------------dance-single - NAOKI----------------
#NOTES:
     dance-single:
     NAOKI:
     Beginner:
     2:
     0.191,0.197,0.000,0.018,0.000:
0000
0000
0000
0000
,
0000
0000
0000
0000
,
0000
0000
0000
0000
,
0000
0000
0000
0000
,
1000
0000
0000
0000
,
1000
0000
0000
0000
,
0001
0000
0000
0000
,
0001
0000
0000
0000
,
0010
0000
0010
0000
,
0100
0000
0100
0000
,
1000
0000
1000
0000
,
0001
0000
0001
0000
,
0100
0000
0100
0000
,
0010
0000
0010
0000
,
1000
0000
1000
0000
,
0002
0000
2000
3003
,
0010
0010
0100
0000
,
0001
0001
1000
0000
,
0100
0100
0010
0000
,
0001
1000
0010
0000
,
0100
0100
0010
0000
,
1000
1000
0001
0000
,
0010
0010
0100
0000
,
1000
0000
0001
0000
,
0100
0001
1000
0000
,
0100
1000
0001
0000
,
0100
0010
1000
0000
,
0100
0010
0001
0000
,
0010
0001
1000
0000
,
0010
1000
0001
0000
,
0010
0100
1000
0000
,
0010
0100
0001
0000
,
1000
0000
1000
0000
,
0001
0010
0100
1000
,
0001
0000
0001
0000
,
1000
0000
0010
0000
,
0100
0100
0000
0000
,
0001
0001
0000
0000
,
1000
1000
0000
0000
,
0010
0010
0010
0000
,
1000
0000
0001
0100
,
0010
0000
1000
0100
,
0010
0000
0001
0100
,
0010
0000
1000
0001
,
0010
0000
0100
1000
,
0001
0000
0100
0010
,
1000
0000
0100
0010
,
0001
0000
1000
0000
,
0010
0000
0100
0001
,
1000
0000
0100
0010
,
0001
0000
0100
0010
,
1000
0000
0001
0010
,
0100
0000
1000
0010
,
0100
0000
0001
0010
,
0100
0000
1000
0010
,
0100
0000
0001
0010
,
0100
0000
0100
0000
,
1000
0000
1000
0000
,
0001
0000
0001
0000
,
0100
0000
0100
0000
,
0010
0000
0010
0000
,
1000
0000
1000
0000
,
0001
0000
0001
0000
,
0010
0000
0100
0000
,
1000
0000
0000
0000
;

//---------------dance-single - NAOKI----------------
#NOTES:
     dance-single:
     NAOKI:
     Easy:
     7:
     0.279,0.309,0.035,0.141,0.000:
0000
0000
0000
0000
,
0000
0000
0000
0000
,
0000
0000
0000
0000
,
0000
0000
0000
0000
,
0010
1000
0001
0000
,
0010
0100
0000
0100
,
0010
0001
1000
0000
,
0010
0100
0000
0100
,
0001
0010
0100
1000
,
0001
0001
1000
1000
,
0100
0010
0100
1000
,
0001
0100
0000
0010
,
1000
0100
0010
0001
,
1000
1000
0001
0001
,
0100
0010
0100
0001
,
1000
0100
0000
0010
,
0002
1000
0103
0010
,
2000
0001
3100
0010
,
0001
0000
1000
0000
,
0010
0100
0001
0000
,
2000
0001
3100
0010
,
0002
1000
0103
0010
,
1000
0000
0001
0000
,
0010
0100
1000
0001
,
0200
0010
0301
1000
,
0020
0100
1030
0001
,
0100
0010
1000
0001
,
0010
0100
0000
0100
,
0020
0100
0031
1000
,
0200
0010
1300
0001
,
0010
0100
1000
0001
,
0100
0000
0000
0000
,
0100
0010
0010
1000
,
0001
0010
0010
0100
,
1000
0001
0100
0100
,
0010
1000
0100
0100
,
0010
0010
0001
1000
,
0010
0010
0100
0001
,
1000
0100
0010
0001
,
1000
0010
0100
0001
,
1001
0000
0010
0000
,
0100
1000
0001
0100
,
0010
0010
1000
0001
,
0010
0010
0100
1000
,
1001
0000
0010
0000
,
0100
0001
1000
0100
,
0010
0010
0001
1000
,
0010
0010
0100
0001
,
1001
0000
0100
0000
,
0010
1000
0001
0010
,
0100
0100
1000
0001
,
0100
0100
0010
1000
,
1001
0000
0100
0000
,
0010
0001
1000
0010
,
0100
0100
0001
1000
,
0100
0100
0010
0010
,
0002
0000
1003
0000
,
2000
0000
3010
0000
,
0020
0000
0130
0000
,
0200
0000
0301
0000
,
2000
0000
3001
0000
,
0002
0000
0013
0000
,
0020
0000
0130
0000
,
0200
0000
1300
0000
,
0001
0000
0000
0000
;

//---------------dance-single - NAOKI----------------
#NOTES:
     dance-single:
     NAOKI:
     Medium:
     10:
     0.443,0.505,0.018,0.237,0.000:
0000
0000
0000
0000
,
0000
0000
0000
0000
,
0000
0000
0000
0000
,
0000
0000
0000
0000
,
0002
1003
0010
0000
,
2000
3001
0010
0000
,
0002
1003
0100
0000
,
2000
3001
0100
0000
,
0001
0000
1000
0000
0010
0100
0001
0000
,
1000
0000
0001
0000
0010
0100
1000
0001
,
0100
0000
0010
0000
1000
0001
0010
0000
,
0100
0000
1000
0000
0001
0100
0010
1000
,
0001
0000
1000
0000
0100
0010
0001
0000
,
1000
0000
0001
0000
0100
0010
1000
0001
,
0010
0000
0100
0000
1000
0001
0100
0000
,
0020
0000
0130
1001
,
0010
1000
0100
0000
0010
0001
0100
0010
,
1000
0100
0010
0000
0001
0100
0010
0000
,
1000
0001
0010
0000
0100
1000
0001
0100
,
0010
1000
0010
0000
0100
0001
1000
0100
,
0010
0001
0100
0000
0010
1000
0100
0010
,
0001
0100
0010
0000
1000
0100
0010
0000
,
0001
1000
0010
0000
0100
0001
1000
0100
,
0010
0001
0100
0000
0010
1000
0001
0010
,
0100
1000
0010
0000
0100
0001
0010
0100
,
1000
0010
0100
0000
0001
0010
0100
0000
,
1000
0001
0100
0000
0010
1000
0001
0010
,
0100
1000
0100
0000
0010
0001
1000
0010
,
0100
0001
0010
0000
0100
1000
0010
0100
,
0001
0010
0100
0000
1000
0010
0100
0000
,
0001
0010
0100
1000
0001
1000
0010
0100
,
0220
0000
0330
0000
0001
0000
1000
0100
,
0020
0001
1000
0031
,
0100
0000
0010
1000
0001
0010
0100
1000
,
0001
0100
0001
0100
0000
0010
1000
0000
,
1000
0100
1000
0100
0000
0010
0001
0100
,
0020
1000
0001
1030
,
0100
0000
0010
0001
0000
1000
0010
0100
,
0001
0010
0100
1000
0001
0100
0010
0010
,
1000
0100
0010
0001
1000
0010
0100
0001
,
0020
0000
1030
0000
0010
0001
0100
0000
,
0010
1000
0100
0000
0010
0001
1000
0010
,
0100
0001
1000
0100
,
0010
0001
0100
0000
0010
1000
0001
0010
,
0200
0000
0301
0000
0100
1000
0010
0000
,
0100
0001
0010
0000
0100
1000
0001
0100
,
0010
1000
0001
0010
,
0200
2300
3002
0203
0320
2030
3001
0000
,
0200
0000
1300
0000
0100
0001
0010
0000
,
0100
1000
0010
0000
0100
0001
1000
0100
,
0010
0001
1000
0010
,
0100
0001
0010
0000
0100
1000
0001
0100
,
0020
0000
0031
0000
0010
1000
0100
0000
,
0010
0001
0100
0000
0010
1000
0001
0010
,
0100
1000
0001
0100
,
0020
2030
3002
0023
0230
2300
3001
0000
,
0200
0010
0000
1000
,
0000
0301
0000
1000
,
0200
0010
0000
0001
,
0000
1300
0000
0001
,
0100
0010
0000
1000
,
0001
0010
0000
0100
,
1000
0001
0000
0100
,
0010
0000
1000
0000
0000
0000
0001
1000
;

//---------------dance-single - NAOKI----------------
#NOTES:
     dance-single:
     NAOKI:
     Hard:
     13:
     0.581,0.589,0.000,0.114,0.325:
0000
0000
0000
0000
,
0000
0000
0000
0000
,
0000
0000
0000
0000
,
0000
0000
0000
0000
,
0010
0001
1000
0010
0100
0100
0000
0001
,
0000
1000
0100
0000
0010
0001
0000
0100
,
0000
0010
1000
0001
0010
0100
0000
1000
,
0000
0001
0100
0000
0010
1000
0000
0001
,
0010
0100
0010
0001
0000
1000
0010
0100
,
0002
0000
1000
0000
0013
0100
1000
0000
,
0001
0100
0010
1000
0000
0100
0010
0000
,
0001
1000
0010
0100
0000
0100
0001
1000
,
0100
0010
0100
1000
0000
0001
0100
0010
,
2000
0000
0001
0000
3100
0010
0001
0000
,
1000
0010
0100
0001
0000
0010
0100
0000
,
1000
0001
0100
0010
0000
0010
1000
0001
,
0010
0100
1000
0000
0001
0100
0010
0000
,
1000
0000
0001
0010
0000
0010
0000
0000
0001
0000
1000
0000
0010
0000
0000
0000
,
0100
0010
1000
0000
0100
0010
0001
0000
,
1000
0000
0001
0100
0000
0010
0000
0000
0010
0000
1000
0000
0001
0000
0010
0000
,
0100
0010
0001
0000
1000
0010
0100
0000
,
0001
0000
1000
0100
0000
0100
0000
0000
1000
0000
0001
0000
0100
0000
0000
0000
,
0010
0100
0001
0000
0010
0100
1000
0000
,
0001
0000
1000
0010
0000
0100
0000
0000
0100
0000
0001
0000
1000
0000
0100
0000
,
0010
0000
0001
0000
0100
0000
0010
1000
0000
0010
0100
0000
0002
0000
1003
0000
,
0100
0000
0010
0001
0000
0010
0100
0000
1000
0000
0001
0000
0200
0000
0310
0000
,
1000
0000
0001
0000
0010
0000
0100
1000
0000
0100
0020
0000
0031
0000
1000
0000
,
0010
0000
0100
0001
0000
0100
0010
0000
1000
0000
0001
0000
0010
0000
0100
0000
,
1000
0001
0100
0000
0010
0000
1000
0001
0000
0010
0100
0000
0020
0000
0030
0000
,
0100
0000
1000
0001
0000
0100
0010
0000
1000
0000
0100
0000
0010
0000
0001
0000
,
0100
0010
0000
0100
0001
0000
1000
0000
0100
0010
0000
0100
1000
0000
0001
0100
,
0020
0030
0000
0000
0100
0000
0010
1000
,
0001
0000
0010
0100
1000
0001
0100
0010
,
1000
0000
0001
0010
1000
0010
0001
0100
,
1000
0100
0010
1000
0000
0001
0010
0100
,
1000
0001
0100
0010
0000
1000
0100
0010
,
0001
1000
0010
0100
0000
0010
1000
0100
,
0010
0001
0100
0010
0000
1000
0100
0010
,
0001
0100
1000
0100
0001
0010
1000
0010
,
0100
1000
0010
0001
0010
1000
0100
0010
,
0002
0000
0000
0000
1003
0000
0000
0010
0100
0000
0001
0000
1000
0100
0000
0000
,
0010
0001
0000
1000
0000
0010
0000
0100
0001
0000
1000
0000
0100
0010
0001
0000
,
1000
0000
0010
0000
0100
0000
0000
0100
0010
0000
1000
0000
0001
0010
0000
0000
,
0100
1000
0000
1000
0001
0000
0001
0100
0000
0100
0010
0000
1000
0000
0100
0000
,
0020
0000
0000
0000
0031
0000
0000
0010
0100
0000
1000
0001
0000
1000
0001
0000
,
0100
0010
0000
1000
0000
0100
0000
0000
0010
0001
0000
0100
0000
0010
0000
0000
,
1000
0001
0000
0010
0000
0100
0000
1000
0001
0000
0100
0000
0010
0000
0000
0000
,
1000
1000
0001
0001
0010
0100
1000
0001
,
0200
0000
0310
0000
1000
0001
0000
0010
0100
0000
1000
0001
0100
0000
0010
0000
,
0100
0001
0000
1000
0000
0100
0000
0010
0001
0000
1000
0000
0010
0000
0000
0000
,
0100
0001
0000
0001
1000
0000
1000
0100
0000
0100
0010
0000
0001
0000
1000
0000
,
0010
0000
0100
0000
0001
0000
1000
0000
0100
0000
0010
0000
0001
0000
1000
0010
,
0200
0000
0301
0000
1000
0000
0100
0000
0010
0000
0001
0000
1000
0010
0000
0100
,
0010
0000
1000
0001
0000
0010
0000
0000
0100
0000
1000
0000
0001
0100
0010
0000
,
1000
0000
1000
0000
0001
0000
0001
0000
0100
0010
0000
0100
0001
0000
1000
0100
,
0020
0000
0030
0001
0100
0020
0000
0030
1000
0000
0100
0000
0010
0000
0001
0000
,
1000
0010
0100
0100
0000
0010
0010
1000
,
0001
0010
0100
0100
0000
0010
0010
0001
,
0100
0010
1000
1000
0000
0001
0001
0010
,
0100
1000
0010
0100
0000
0010
0100
0001
,
1000
0100
0010
0010
0000
0100
0100
1000
,
0001
0100
0010
0010
0000
0100
0001
1000
,
0100
0010
0001
0001
0000
1000
1000
0010
,
0100
0001
0010
0010
0000
0100
1000
0010
;

//---------------dance-single - NAOKI----------------
#NOTES:
     dance-single:
     NAOKI:
     Challenge:
     15:
     0.783,0.815,0.123,0.211,0.830: // measure 1
0000
0000
0000
0000
,  // measure 2
0000
0000
0000
0000
,  // measure 3
0000
0000
0000
0000
,  // measure 4
0000
0000
0000
0000
,  // measure 5
0010
0001
1000
0010
0100
0100
0000
0010
,  // measure 6
0000
1000
0100
0000
0010
0001
0000
0100
,  // measure 7
0000
0010
1000
0001
0010
0100
0000
1000
,  // measure 8
0000
0000
0001
0000
0100
0000
0000
0000
0010
0000
1000
0000
0000
0000
0001
1000
,  // measure 9
0001
0010
0100
1000
0000
0001
0100
0010
,  // measure 10
2000
0001
3002
1000
0000
0013
0100
1000
,  // measure 11
0001
0100
0010
1000
0000
0100
0010
0001
,  // measure 12
1000
0000
0010
0000
0100
0000
0001
0000
0000
0000
0100
0010
1000
0001
0010
0100
,  // measure 13
1000
0001
0100
0010
0000
1000
0100
0010
,  // measure 14
0002
1000
2003
0001
0000
3010
0100
0001
,  // measure 15
1000
0100
0010
0001
0000
0100
0010
1000
,  // measure 16
0001
0000
0010
0000
0100
0000
1000
0000
0000
0000
0100
0010
0001
1000
0010
0100
,  // measure 17
0001
0010
0000
0010
0100
0000
1000
0010
0000
0100
0001
1000
0200
0000
0310
0000
,  // measure 18
0001
0000
1000
0010
0000
0100
0001
0000
0010
0100
1000
0001
0200
0000
0310
0000
,  // measure 19
1000
0001
0000
0010
0100
0000
1000
0001
0000
0100
0010
1000
0200
0000
0310
0000
,  // measure 20
0001
0000
0100
0010
0000
0010
1000
0000
0100
0000
0011
0000
1010
0000
0101
0000
,  // measure 21
0001
0100
0010
0100
0001
0000
1000
0100
0000
0010
0001
1000
0020
0000
0130
0001
,  // measure 22
1000
0000
0100
0010
0000
0010
0001
0000
0100
0010
1000
0001
0020
0000
0130
1000
,  // measure 23
0001
0000
0100
0010
0000
0010
1000
0000
0100
0000
0010
0001
0200
0000
0310
1000
,  // measure 24
0001
0000
0010
0100
0000
0100
1000
0000
0010
0000
0101
0000
1010
0000
0011
0000
,  // measure 25
0100
1000
0001
0100
0010
0000
1000
0001
0000
0010
0100
1000
0020
0000
0130
0001
,  // measure 26
1000
0000
0010
0100
0000
0100
0001
0000
0010
0100
1000
0001
0200
0000
0310
0000
,  // measure 27
0100
0001
1000
0100
0010
0000
0001
1000
0000
0010
0100
0001
0020
0000
0130
1000
,  // measure 28
0001
0000
0100
0010
0000
0010
1000
0000
0100
0000
0011
0000
1100
0000
0101
0000
,  // measure 29
0010
1000
0001
0010
0100
0000
1000
0001
0000
0100
0010
1000
0200
0000
0310
0000
,  // measure 30
0100
1000
0001
0100
0000
0100
0010
0000
1000
0001
0010
0100
2000
0000
3001
0000
,  // measure 31
0100
0010
1000
0010
0100
0001
0100
0010
1000
0100
0000
0100
0010
0000
0001
0100
,  // measure 32
0020
0030
0000
0000
0100
0000
0010
1000
,  // measure 33
0100
0000
0010
0010
0001
1000
0010
0100
,  // measure 34
0001
0000
0000
0000
0100
0010
0001
0010
0100
0001
1000
0100
0010
1000
0010
0100
,  // measure 35
1000
0100
0010
0001
1000
0010
0100
0100
,  // measure 36
0001
0000
1000
0000
0100
0010
1000
0010
0100
1000
0001
0100
0010
0001
0010
0100
,  // measure 37
0001
0100
0010
1000
0001
0010
0100
0100
,  // measure 38
1000
0001
0100
0010
0000
1000
0010
0100
,  // measure 39
0001
0010
1000
0010
0001
0100
1000
0100
,  // measure 40
0010
0000
0000
0000
0010
0100
1000
0100
0010
1000
0001
0010
0100
0001
0100
0010
,  // measure 41
0002
0000
1003
0000
0010
0100
0000
0100
0001
0000
1000
0000
0100
0010
0000
0010
,  // measure 42
0001
0000
1000
0010
0000
0100
0000
0001
0010
0000
0100
0000
1000
0001
0100
0010
,  // measure 43
1000
0001
0000
0010
0100
0000
1000
0001
0000
0100
0010
0000
1000
0100
0010
0001
,  // measure 44
1000
0010
0000
0010
0100
0000
0100
0001
0000
0001
0010
0100
1000
0001
0100
0010
,  // measure 45
2000
0000
3001
0000
0010
0100
0000
0100
1000
0000
0001
0100
0000
0100
0010
0000
,  // measure 46
1000
0100
0000
0010
0000
0001
0100
0000
0010
1000
0000
0100
0000
0010
0001
1000
,  // measure 47
0010
0200
0000
1000
0000
0301
0000
0100
0010
0000
0010
1000
0001
0010
0100
0000
,  // measure 48
1100
0000
0011
0000
1010
0000
0101
0000
0100
0010
1000
0010
0100
0001
0010
0100
,  // measure 49
2000
0000
3001
0000
0100
0010
0000
0010
1000
0000
0001
0000
0010
0100
0000
0100
,  // measure 50
1000
0001
0100
0010
0000
1000
0000
0100
0010
0000
0010
0000
0001
1000
0010
0100
,  // measure 51
0001
1000
0000
0100
0010
0000
0001
1000
0000
0010
0100
0000
0001
0010
0100
1000
,  // measure 52
0001
0100
0000
0100
0010
0000
0010
1000
0001
0010
0100
0010
0001
1000
0010
0100
,  // measure 53
0002
0000
1003
0000
0100
0010
0000
0010
0001
0000
1000
0000
0010
0100
0000
0100
,  // measure 54
0001
1000
0100
0010
0000
0001
0000
1000
0020
0000
0130
0000
0010
1000
0001
0010
,  // measure 55
0100
1000
0000
1001
0000
0001
0100
0010
1000
0100
0000
0010
0001
0000
0100
0010
,  // measure 56
2000
0000
3000
0100
0010
0002
0000
1003
0010
0100
0010
1000
0001
0010
0100
1000
,  // measure 57
0001
1000
0100
0100
0000
0010
0010
0001
,  // measure 58
1000
0010
0100
0100
0000
0010
1000
0001
,  // measure 59
0010
0100
1000
1000
0000
0001
0001
0100
,  // measure 60
0010
0000
1000
0000
0100
0000
0100
0000
0000
0000
0010
0001
1000
0010
0100
0010
,  // measure 61
1000
0001
0010
0010
0000
0100
0100
1000
,  // measure 62
0001
0100
0010
0010
0000
0100
0001
1000
,  // measure 63
0100
0010
0001
0001
0000
1000
1000
0010
,  // measure 64
0100
0000
0001
0000
0010
0000
0010
0000
0000
0000
0100
1000
0010
0100
0001
0010
;
