#TITLE:Time Jump Gear;
#SUBTITLE:( Berlin Edition );
#ARTIST:MetaHuman;
#TITLETRANSLIT:;
#SUBTITLETRANSLIT:;
#ARTISTTRANSLIT:;
#GENRE:;
#CREDIT:NAOKI;
#MUSIC:Knobs and Keys Music label - MetaHuman - Time Jump Gear ( Berlin Edition ).ogg;
#BANNER:Time-Jump-Gear-bn.png;
#BACKGROUND:Time-Jump-Gear-bg.png;
#CDTITLE:naokicdtitle.png;
#SAMPLESTART:302.287;
#SAMPLELENGTH:20.211;
#SELECTABLE:YES;
#OFFSET:-1.655;
#BPMS:0.000=190.000;
#STOPS:;
#BGCHANGES:;
#FGCHANGES:;

//--------------- dance-single - NAOKI 41*/49*|86** ----------------
#NOTES:
     dance-single:
     NAOKI 41*/49*|86**:
     Challenge:
     17:
     0,0,0,0,0:
0000
0000
0000
0000
,
0000
0000
0000
0000
,
0000
0000
0000
0000
,
0000
0000
0000
0000
,
0000
0000
0000
0000
,
0000
0000
0000
0000
,
0000
0000
0000
0000
,
0000
0000
0000
0000
,
0000
0000
0000
0000
,
0000
0000
0000
0000
,
1000
0100
1000
0001
0100
0010
0100
0001
1000
0100
0010
0001
1000
0010
0100
0001
,
1000
0010
1000
0001
0010
0100
0010
0001
1000
0010
0100
0001
1000
0100
0010
0001
,
1000
0100
1000
0010
1000
0001
0100
0001
0010
0001
1000
0010
1000
0100
1000
0001
,
0010
0001
1000
0001
0100
0010
0100
0001
1000
0100
0010
0001
1000
0010
0100
0010
,
1000
0001
1000
0100
1000
0001
0100
0001
0010
0001
1000
0100
1000
0001
0100
0001
,
0010
0001
1000
0100
1000
0001
0100
0001
0010
0001
1000
0100
1000
0001
0100
0001
,
0010
0001
1000
0100
1000
0001
0100
0001
0010
0001
1000
0100
1000
0001
0100
0001
,
0010
0001
1000
0010
1000
0100
1000
0001
0100
0010
0100
0001
1000
0001
0010
0001
,
0100
0010
1000
0001
1000
0100
1000
0001
0010
0001
1000
0001
0100
0010
1000
0001
,
1000
0100
1000
0001
0100
0010
0100
0001
1000
0001
0010
0001
1000
0010
0100
0010
,
1000
0001
1000
0100
1000
0001
0100
0010
0100
0001
1000
0001
0010
0100
1000
0100
,
0010
0001
1000
0001
0100
0010
1000
0010
0100
0001
1000
0010
1000
0100
0010
0001
,
0100
0001
1000
0100
1000
0010
1000
0001
0100
0001
1000
0100
1000
0010
1000
0001
,
0100
0001
1000
0100
1000
0010
1000
0001
0100
0001
1000
0100
1000
0010
1000
0001
,
0100
0001
1000
0100
1000
0010
1000
0001
0100
0001
1000
0100
1000
0010
1000
0001
,
0100
0010
0100
0001
1000
0001
0010
0100
2000
0000
3000
0000
0002
0000
0003
0000
,
0100
0001
1000
0100
0010
0001
0010
0001
1000
0010
0100
0001
0010
0001
1000
0010
,
0100
0001
0100
0010
1000
0001
0010
0100
1000
0100
0010
0001
1000
0010
0100
0001
,
0010
0001
1000
0010
0100
0010
1000
0001
0010
0001
1000
0100
0010
0100
1000
0001
,
0100
0001
0100
0010
1000
0001
1000
0100
1000
0100
0010
0001
0100
0001
1000
0100
,
0010
0001
0010
0100
1000
0001
0100
0010
1000
0010
0100
0001
1000
0001
0010
0100
,
1000
0001
0010
0001
0100
0001
1000
0100
1000
0010
1000
0001
0010
0001
1000
0100
,
0010
0001
0100
0001
1000
0100
1000
0001
0100
0010
1000
0001
0010
0001
1000
0010
,
0100
0001
1000
0100
0010
0001
0100
0001
1000
0100
1000
0100
0010
0000
0001
1000
,
0010
1000
0100
1000
0001
0100
0001
1000
0010
1000
0100
1000
0001
0010
0001
0100
,
0010
0100
0001
1000
0001
0010
0100
1000
0001
0100
0001
1000
0100
0010
0100
1000
,
0001
0010
0001
1000
0010
0100
0001
1000
0010
0100
0010
1000
0001
0010
0001
0100
,
0001
1000
0010
1000
0100
1000
0001
0100
0001
1000
0100
1000
0010
0100
0010
1000
,
0001
0010
0001
0010
0100
1000
0001
0100
0001
1000
0100
1000
0001
1000
0010
0100
,
0001
1000
0001
0010
0100
1000
0001
0100
0010
1000
0001
1000
0100
0010
0001
1000
,
0010
0100
0001
0100
0010
1000
0001
1000
0100
0010
0001
0010
0100
1000
0001
0200
,
0300
0000
0000
0000
0010
0000
0000
0000
1000
0000
0000
0000
0001
0000
0000
0000
1000
0000
0000
0000
0100
0000
0000
0000
0010
0000
0000
0000
0001
0000
0000
0000
1000
0000
0000
0000
0001
0000
0000
0000
0100
0000
0000
0000
0001
0000
0000
0000
0020
0030
0000
0000
0000
0000
0000
0000
0000
0000
0000
0000
0000
0000
0000
0000
,
0100
1000
0010
1000
0001
0010
0001
0100
0010
1000
0100
1000
0001
0100
0001
0010
,
0100
1000
0010
1000
0001
0010
0001
0100
0010
1000
0100
1000
0001
0100
0001
1000
,
0100
0010
0100
1000
0001
0010
0100
1000
0010
1000
0001
0010
0001
1000
0100
1000
,
0001
0100
0010
0100
0001
0100
0010
1000
0001
0010
0001
1000
0010
0100
0001
0100
,
0010
1000
0001
1000
0100
0010
0100
1000
0001
0100
0001
0010
0100
1000
0001
1000
,
0010
0100
0010
1000
0100
1000
0010
0100
0001
0010
0001
1000
0010
0100
0001
0010
,
0100
1000
0010
0100
0001
0010
0100
1000
0010
0100
0001
0100
0010
1000
0001
0010
,
0100
1000
0100
1000
0001
0100
0010
1000
0001
0100
0001
0100
0010
0000
1000
0001
,
0010
0100
0010
0001
1000
0010
0100
0001
1000
0010
0100
0001
1000
0001
0010
0001
,
1000
0100
0010
0001
1000
0001
0100
0001
1000
0010
0100
0001
1000
0001
0010
0001
,
1000
0100
0010
0001
1000
0010
1000
0001
0010
0100
2000
3000
0001
0000
0200
0300
,
0001
0000
1000
0010
1000
0100
0010
0001
1000
0100
1000
0001
0200
0300
0010
1000
,
0001
0010
0100
1000
0001
0100
0010
1000
0100
1000
0001
1000
0010
0100
0010
1000
,
0001
0010
0001
0100
0010
1000
0001
0010
0001
0100
0010
1000
0001
0010
0100
1000
,
0002
0000
0000
0003
0100
0000
0010
0000
1000
0000
0001
0010
0200
0300
1000
0002
,
0003
0100
0040
0030
1000
0100
0040
0030
0001
1000
0010
1000
0100
0000
0000
0000
,
0020
0030
0002
0003
2000
3000
0020
0030
,
0200
0300
0002
0003
2000
3000
0200
0300
,
0020
0000
0030
0000
0200
0000
0300
0000
2000
0000
3001
0100
0000
0000
0010
0000
,
2000
3000
0002
0003
0020
0030
0100
1000
,
0002
0000
0003
0000
0200
0000
0300
0000
0010
0000
1000
0001
0020
0000
0030
0000
,
0200
0300
2000
3001
0200
0300
0020
0030
,
2000
0000
3000
0000
0002
0000
0013
0000
0200
0300
2000
3000
0002
0003
0200
0300
,
0020
0000
0030
0000
0200
0000
0300
0000
0010
0000
1000
0000
1001
0000
0001
0100
,
0010
0000
0000
0000
1000
0010
0100
0001
1000
0010
1000
0001
1000
0100
0010
0001
,
1000
0010
1000
0001
1000
0100
0010
0001
1000
0100
1000
0001
1000
0010
0100
0001
,
1000
0100
1000
0001
1000
0010
0100
0001
0100
0010
1000
0001
0010
0100
1000
0001
,
1000
0010
0100
0001
0010
0001
1000
0010
0100
0010
1000
0001
0010
0001
0100
0001
,
1000
0010
0100
0001
1000
0100
1000
0010
1000
0001
0010
0001
1000
0100
0010
0001
,
1000
0001
0100
0001
1000
0100
1000
0010
1000
0001
0010
0001
1000
0001
0100
0010
,
0100
0001
1000
0100
1000
0001
0010
0100
1000
0010
1000
0001
0010
0001
1000
0010
,
0100
0001
0100
0001
1000
0000
0100
0010
0001
0000
1000
0000
1001
0000
0001
1000
,
0010
1000
0100
1000
0001
0100
0010
1000
0001
0010
0001
1000
0001
0100
0010
1000
,
0001
0010
0001
1000
0001
0100
0010
1000
0001
0010
0001
1000
0001
0100
0010
1000
,
0100
1000
0001
1000
0010
0100
0010
1000
0001
0100
0001
1000
0001
0010
0100
1000
,
0010
1000
0100
0010
0001
0100
0001
0010
0100
1000
0010
1000
0100
1000
0100
0010
,
0001
0100
0001
0100
0010
1000
0100
1000
0001
0100
0010
1000
0001
0010
0100
1000
,
0100
1000
0010
1000
0001
0010
0001
0100
0010
1000
0100
1000
0010
0100
0001
0010
,
0001
0100
0040
0030
1000
0100
0040
0030
0001
1000
0010
0100
0010
0100
0001
0100
,
0001
1000
0100
1000
0100
0010
0001
0100
0001
1000
0010
1000
0100
0000
0000
0000
,
0010
0001
0100
0001
1000
0010
1000
0100
0010
0001
0010
0001
0100
0001
1000
0010
,
0100
0001
1000
0100
0010
0001
0100
0001
1000
0100
1000
0010
0100
0010
1000
0001
,
0010
0001
0100
0001
1000
0010
1000
0100
1000
0001
0100
0001
0010
0001
1000
0100
,
1000
0010
1000
0001
0100
0010
1000
0001
0010
0100
1000
0001
0100
0010
0100
0001
,
1000
0100
1000
0001
0100
0010
1000
0001
1000
0100
0010
0001
1000
0001
0100
0001
,
1000
0100
1000
0001
1000
0010
0100
0001
1000
0100
1000
0001
0100
0010
0100
0001
,
1000
0100
1000
0010
1000
0001
0010
0001
0100
0001
1000
0100
0010
0100
1000
0001
,
1000
0100
1000
0010
0100
0001
0010
0001
1000
0100
0040
0030
0001
0000
4000
3000
,
0010
0100
0010
0100
0001
0100
0010
1000
0001
0010
0001
0010
0100
1000
0001
0100
,
0040
4000
0030
3000
0001
0010
0100
1000
0001
0100
0001
0100
0010
1000
0100
0010
,
0001
1000
0010
1000
0001
0010
0100
1000
0001
0100
0001
1000
0001
0100
0010
1000
,
0100
0010
0001
1000
0100
0010
0001
1000
0001
0010
0001
0100
0010
1000
0400
0300
,
0010
0001
1000
0010
0100
0010
1000
0001
0010
0001
1000
0001
0010
0100
1000
0001
,
0100
0001
0010
0001
1000
0010
1000
0001
0010
0001
1000
0010
1000
0001
0010
0100
,
1000
0001
0100
0001
1000
0100
1000
0001
0100
0001
1000
0100
0010
0001
1000
0001
,
0100
0010
4000
3000
0100
0010
0004
0003
0100
0010
1000
0001
0020
0000
0030
0000
,
0200
0000
0300
0000
1000
0010
0100
0001
1000
0010
1000
0001
1000
0100
0010
0001
,
0100
0001
1000
0001
0010
0100
1000
0001
0100
0010
0100
0010
1000
0001
1000
0100
,
0010
0001
0010
0001
0100
0001
1000
0100
0010
0001
0010
0001
0100
0010
1000
0010
,
1000
0100
1000
0001
0100
0010
1000
0010
1000
0100
1000
0001
0100
0010
1000
0001
,
0010
0100
1000
0001
0010
0100
1000
0100
1000
0010
1000
0001
0010
0100
1000
0100
,
1000
0001
1000
0010
0100
0001
0100
0001
0010
0001
1000
0010
1000
0100
1000
0100
,
0010
0001
1000
0010
0400
0000
0300
0000
0002
0003
0040
0030
0200
0300
4000
3000
,
0001
0000
0000
0000
0000
0000
0000
0000
0200
0000
0000
0000
0000
0000
0000
0000
0040
0030
0000
0000
0000
0000
0000
0000
0301
0000
0000
0000
0000
0000
0000
0000
2000
0000
0000
0000
3000
0000
0000
0000
0200
0000
0000
0000
0300
0000
0000
0000
0010
0000
0000
0000
0001
0000
0000
0000
0010
0000
0000
0000
0001
0000
0000
0000
,
1000
0100
0010
0001
1000
0100
0010
0001
1000
0010
0100
0001
1000
0010
0100
0001
,
0010
0001
1000
0001
0100
0010
1000
0001
1000
0100
1000
0001
0100
0010
0100
0001
,
1000
0100
0010
0100
1000
0100
0010
0001
1000
0010
0100
0001
0010
0001
1000
0001
,
0100
0010
0100
0001
1000
0100
1000
0010
1000
0001
0010
0001
1000
0010
1000
0100
,
0010
0001
0010
0001
1000
0001
0100
0010
0100
0001
1000
0001
0100
0010
1000
0010
,
1000
0001
0010
0001
1000
0010
0100
0010
1000
0001
0010
0001
1000
0100
0010
0001
,
1000
0100
1000
0001
1000
0010
0100
0001
0010
0001
1000
0001
0100
0010
1000
0001
,
0010
0001
0100
0001
1000
0100
1000
0010
0100
0001
0100
0010
1000
0100
1000
0100
,
0010
0001
1000
0001
0100
0010
1000
0010
0100
0001
1000
0001
0010
0100
0010
0001
,
1000
0010
0100
0001
1000
0100
1000
0001
0100
0010
0100
0001
1000
0100
0010
0001
,
1000
0100
1000
0001
1000
0010
0100
0001
1000
0100
1000
0001
1000
0010
0100
0010
,
1000
0001
0010
0100
0010
0001
1000
0010
1000
0001
0100
0001
1000
0100
1000
0010
,
0100
0001
0100
0010
1000
0001
1000
0100
0010
0001
1000
0010
0100
0010
1000
0001
,
0010
0100
1000
0010
1000
0001
0010
0100
1000
0001
0100
0010
0100
0001
1000
0100
,
0010
0100
1000
0001
0100
0010
0100
0001
1000
0100
1000
0001
0010
0100
1000
0001
,
0100
0001
1000
0100
0010
0001
1000
0001
0100
0001
1000
0100
0010
0100
1000
0001
,
0100
0000
0000
0000
,
0001
0100
0010
4000
3000
0000
0001
0010
0100
4000
3000
0000
0001
0000
0100
0000
0010
0000
1000
0000
0001
0000
0010
0000
,
0200
0300
0000
0000
0000
0000
0000
0000
0000
0000
0000
0000
1000
0000
0000
0000
0010
0000
0000
0000
1000
0000
0000
0000
0001
0000
0000
0000
0010
0000
0000
0000
0001
0000
0000
0000
1000
0000
0000
0000
0100
0000
0000
0000
1000
0000
0000
0000
,
0001
0100
0001
0010
0001
1000
0010
1000
0001
0100
0001
1000
,
0100
1000
0001
0100
0010
1000
0001
0010
0001
1000
0010
1000
,
0001
1000
0100
0010
0001
0100
0010
1000
0100
0010
0001
0010
,
0001
0100
0010
1000
0001
0010
0100
1000
0100
1000
0001
1000
,
0010
0100
0001
1000
0100
1000
0001
0100
0001
0010
0001
1000
,
0010
1000
0100
1000
0010
0100
0001
0010
0001
0100
0001
1000
,
0100
0000
0000
0000
1000
0000
0000
0000
0010
0000
0000
0000
1000
0000
0000
0000
0001
0000
0000
0000
0010
0000
0000
0000
0001
0000
0000
0000
1000
0000
0000
0000
0010
0000
0000
0000
0200
0300
0000
0000
0000
0000
0000
0000
0000
0000
0000
0000
,
0010
1000
0001
0010
0100
1000
0001
0100
0001
1000
0100
0010
,
0004
0003
0000
0000
1000
0000
0000
0000
0004
0003
0000
0000
0100
0000
0000
0000
0010
0000
0000
0000
0100
0000
0000
0000
0002
0003
0000
0000
1000
0000
0000
0000
0002
0003
0000
0000
0010
0000
0000
0000
0100
0000
0000
0000
1000
0000
0000
0000
,
0010
1000
0100
1000
0010
0100
0001
0010
0001
0100
0001
1000
,
0100
1000
0001
0100
0010
1000
0001
0010
0001
1000
0010
1000
,
0100
0010
0100
1000
0001
1000
0010
0100
0001
0010
0001
0100
,
0010
0000
0000
0000
1000
0000
0000
0000
0100
0000
0000
0000
1000
0000
0000
0000
0001
0000
0000
0000
0100
0000
0000
0000
0010
0000
0000
0000
1000
0000
0000
0000
0010
0000
0000
0000
2000
3000
0000
0000
0200
0300
0000
0000
1000
0000
0000
0000
,
0001
0000
0000
0000
0200
0300
0000
0000
0001
0000
0000
0000
0020
0030
0000
0000
0002
0003
0000
0000
0010
0000
0000
0000
0100
0000
0000
0000
1000
0000
0000
0000
0001
0000
0000
0000
0100
0000
0000
0000
0040
0030
0000
0000
1000
0000
0000
0000
,
0010
1000
0001
1000
0100
0010
0100
2000
3000
0002
0003
2000
,
3010
0100
0001
1000
0100
1000
0001
0010
0100
1000
0010
1000
,
0002
0003
0000
0000
0010
0000
0000
0000
0002
0003
0000
0000
1000
0000
0000
0000
0100
0000
0000
0000
0010
0000
0000
0000
0001
0000
0000
0000
0100
0000
0000
0000
0001
0000
0000
0000
2000
3000
0000
0000
0100
0000
0000
0000
2000
3000
0000
0000
,
0001
0000
0000
0000
0100
0000
0000
0000
0010
0000
0000
0000
1000
0000
0000
0000
0100
0000
0000
0000
0010
0000
0000
0000
0002
0003
0000
0000
0100
0000
0000
0000
0002
0003
0000
0000
1000
0000
0000
0000
0002
0003
0000
0000
0010
0000
0000
0000
,
0100
1000
0001
0100
0001
1000
0100
1000
0001
0100
0010
0100
,
0001
0000
0000
0000
1000
0000
0000
0000
0001
0000
0000
0000
0010
0000
0000
0000
0100
0000
0000
0000
1000
0000
0000
0000
0010
0000
0000
0000
1000
0000
0000
0000
0004
0003
0000
0000
0010
0000
0000
0000
0004
0003
0000
0000
1000
0000
0000
0000
,
0004
0003
0000
0000
0100
0000
0000
0000
0020
0030
0000
0000
1000
0000
0000
0000
0200
0300
0000
0000
1000
0000
0000
0000
0002
0003
0000
0000
0100
0000
0000
0000
0002
0003
0000
0000
2000
3000
0000
0000
0200
0300
0000
0000
0020
0030
0000
0000
,
0001
0100
0001
1000
0100
1000
0001
0010
0100
1000
0010
1000
,
0001
0000
0010
0000
0001
0000
0100
0000
0010
0000
1000
0000
0100
0000
1000
0000
0001
0000
0200
0000
0000
0300
0000
0000
,
0010
0100
0001
1000
0100
0010
0001
0100
0001
1000
0100
1000
,
0001
0000
0000
0000
0100
0000
0000
0000
0010
0000
0000
0000
0100
0000
0000
0000
0001
0000
0000
0000
1000
0000
0000
0000
0100
0000
0000
0000
0010
0000
0000
0000
0001
0000
0000
0000
0200
0300
0000
0000
0001
0000
0000
0000
1000
0000
0000
0000
,
0200
0300
0000
0000
1000
0000
0000
0000
0010
0000
0000
0000
0100
0000
0000
0000
0001
0000
0000
0000
1000
0000
0000
0000
0100
0000
0000
0000
0010
0000
0000
0000
0001
0000
0000
0000
1000
0000
0000
0000
0010
0000
0000
0000
1000
0000
0000
0000
,
0001
0010
0001
0100
0010
1000
0001
0010
0100
1000
0001
0100
,
0010
1000
0001
0010
0001
0100
0010
1000
0001
0010
0100
1000
,
0001
0010
0001
0100
0010
1000
0001
0010
0100
1000
0100
0010
,
0002
0003
0000
0000
0200
0300
0000
0000
0020
0030
0000
0000
2000
3000
0000
0000
0200
0300
0000
0000
0020
0030
0000
0000
0002
0000
0003
0000
0200
0000
0300
0000
0020
0000
0030
0000
2000
0000
3000
0000
0200
0000
0300
0000
0020
0000
0030
0000
,
0002
0000
0003
0000
0000
0000
0000
0000
2000
0000
3000
0000
0000
0000
0000
0000
0002
0000
0003
0000
0000
0000
0000
0000
0200
0000
0300
0000
0000
0000
0000
0000
0020
0000
0030
0000
0000
0000
0000
0000
2000
0000
3000
0000
0000
0000
0000
0000
0002
0003
0000
0000
0000
0000
0000
0000
2000
3000
0000
0000
0000
0000
0000
0000
0200
0300
0000
0000
0000
0000
0000
0000
0040
0000
0000
0000
0000
0000
0000
0000
0000
0000
0000
0000
0030
0000
0000
0000
0000
0000
0000
0000
0000
0000
0000
0000
,
1001
0000
0000
0000
,
0000
0000
0000
0000
,
1000
0001
0100
0010
,
1000
0100
0010
0001
,
0100
0010
1000
0100
,
0010
0000
0001
0000
0200
0300
0010
0000
,
1000
0100
0010
0001
1000
0010
0100
0010
,
1000
0001
0010
0100
1000
0001
0100
0010
,
0100
0001
1000
0100
1000
0001
1000
0010
,
0100
0001
1000
0001
0010
0001
1000
0010
,
1000
0000
0001
0100
0000
0010
1000
0001
0000
0010
0100
1000
0000
0001
0100
0010
,
0000
1000
0001
0010
0000
0100
0010
0001
0000
1000
0010
0100
0000
0001
1000
0100
,
0000
0010
0001
1000
0000
0001
0100
0010
0000
1000
0001
0010
0000
0100
1000
0001
,
0000
0100
0010
1000
0000
0001
0010
0100
0000
1000
0001
0100
0000
0010
1000
0001
,
0000
0010
0100
1000
0000
0001
0100
0010
0000
1000
0001
0010
0000
0100
1000
0001
,
0000
0100
0010
1000
0000
0001
0010
0100
0000
1000
0001
0100
0000
0010
1000
0001
,
0000
0010
0100
1000
0000
0001
0100
0010
0000
1000
0100
0010
0000
0001
1000
0010
,
0000
0100
0001
1000
0000
0100
0010
0001
0000
1000
0010
0100
0001
0000
0000
0000
,
1000
0100
0010
0001
0100
0001
1000
0010
0100
0001
1000
0100
0010
0100
1000
0001
,
0100
0010
1000
0001
0010
0001
1000
0100
0010
0001
1000
0010
0100
0010
1000
0001
,
0010
0100
1000
0001
0100
0001
1000
0010
0100
0001
1000
0100
0010
0100
1000
0001
,
0100
0010
1000
0001
0010
0001
1000
0100
0010
0001
1000
0010
0100
0010
1000
0001
,
0010
0100
1000
0010
0100
0001
0010
0001
1000
0010
0100
0010
1000
0001
0010
0001
,
0100
0001
1000
0010
1000
0001
0010
0001
0100
0001
1000
0010
1000
0001
0010
0001
,
0100
0001
1000
0010
1000
0001
0010
0001
0100
0001
1000
0010
1000
0001
0010
0001
,
0100
0001
1000
0010
1000
0001
0010
0001
0100
0001
1000
0100
1000
0001
0100
0000
,
0001
1000
0100
1000
0001
0100
0010
1000
0001
0010
0001
1000
0010
0100
0010
1000
,
0001
0010
0100
1000
0001
0100
0010
1000
0001
0010
0001
1000
0010
1000
0001
1000
,
0010
0100
0010
1000
0001
0010
0001
1000
0100
1000
0010
0100
0001
0010
0001
1000
,
0100
1000
0001
0100
0001
0010
0100
1000
0010
1000
0100
0010
0001
1000
0010
0100
,
0001
0010
0001
0100
0010
1000
0100
1000
0001
0100
0001
1000
0010
1000
0100
0010
,
0001
0100
0001
0010
0100
1000
0010
1000
0001
0010
0001
0100
0010
1000
0001
0010
,
0100
0000
4000
3000
0001
0000
4000
3000
0001
0100
0010
0000
1000
0000
0000
0000
,
0002
0000
0003
0000
0010
0000
0400
0300
1000
0000
0001
0100
0020
0000
0030
0000
,
1000
0001
0010
0001
1000
0001
0010
0100
1000
0001
0100
0001
1000
0001
0100
0010
,
1000
0100
1000
0001
0100
0001
0010
0001
1000
0100
1000
0001
0100
0001
0010
0001
,
1000
0010
1000
0001
1000
0010
0100
0001
1000
0100
1000
0001
1000
0100
0010
0001
,
0100
0010
1000
0001
0010
0100
1000
0001
0100
0010
0100
0001
1000
0100
0010
0100
,
1000
0001
0100
0001
1000
0001
0100
0010
1000
0001
0010
0001
1000
0001
0010
0100
,
1000
0010
1000
0001
0010
0001
1000
0010
1000
0100
1000
0100
0010
0001
0100
0001
,
1000
0010
1000
0001
1000
0010
0100
0001
1000
0100
1000
0001
1000
0100
0010
0001
,
2000
0000
0000
0000
0000
0000
0000
0000
3000
0000
0000
0000
0000
0000
0000
0000
0002
0000
0000
0000
0000
0000
0000
0000
0003
0000
0000
0000
0000
0000
0000
0000
0400
0000
0000
0000
0000
0000
0000
0300
0000
0000
0000
0000
0000
0000
0000
0000
0020
0030
0000
0000
0000
0000
0000
0000
4000
0000
0000
0000
3000
0000
0000
0000
,
0001
0010
0001
1000
0001
0100
0010
1000
0100
1000
0001
1000
0100
0010
0100
1000
,
0001
0100
0001
1000
0001
0010
0100
1000
0010
1000
0001
0010
0001
1000
0100
1000
,
0001
0100
0001
1000
0001
0100
0010
1000
0001
1000
0100
1000
0010
0100
0010
1000
,
0001
0010
0100
1000
0001
0100
0010
1000
0100
1000
0001
1000
0010
0100
0001
0100
,
0010
0000
0000
0000
1000
0000
0000
0000
0001
0000
0000
0000
1000
0000
0000
0000
0400
0000
0000
0000
0000
0000
0000
0300
0000
0000
0000
0000
0000
0000
0000
0000
0040
0000
0000
0000
0000
0000
0000
0030
0000
0000
0000
0000
0000
0000
0000
0000
0002
0000
0000
0000
0003
0000
0000
0000
0000
0000
0000
0000
2000
0000
0000
0000
,
3000
0000
0002
0003
0100
0000
0010
1000
0001
0000
0020
0030
0400
0300
1000
0000
,
0001
0100
0040
0030
1000
0000
0000
0000
0002
0000
0003
0000
2000
0000
3000
0000
,
0001
0000
0010
0000
0001
0000
1000
0010
0400
0000
0300
0000
1001
0000
0000
0000
,
0001
0010
0100
1000
0001
0010
0001
1000
0010
1000
0001
1000
0100
0010
0001
1000
,
0100
1000
0001
0100
0010
0100
0001
1000
0100
0010
0001
1000
0010
1000
0001
1000
,
0010
0100
0001
0100
0010
1000
0100
1000
0001
0010
0100
1000
0001
0100
0010
1000
,
0001
1000
0100
1000
0001
0100
0001
1000
0100
0010
0100
1000
0001
0100
0010
1000
,
0100
1000
0001
0100
0001
0010
0100
1000
0001
0100
0010
0100
0001
1000
0100
0010
,
0001
1000
0010
1000
0001
1000
0100
0010
0001
1000
0001
0100
0010
0100
0001
1000
,
0100
1000
0001
0010
0100
1000
0001
0100
0010
1000
0010
1000
0001
0010
0100
1000
,
0001
0010
0001
0010
0100
1000
0001
0100
0010
1000
0001
1000
0100
1000
0001
0010
,
0100
1000
0001
1000
0100
1000
0001
0100
0010
0100
0001
1000
0001
0100
0001
1000
,
0010
1000
0001
1000
0010
0100
0010
1000
0001
0010
0001
1000
0001
0010
0100
1000
,
0001
0100
0001
0100
0010
1000
0001
1000
0100
0010
0100
1000
0001
0100
0010
1000
,
0001
0010
0001
0100
0010
1000
0100
1000
0001
0000
0100
0010
0100
0000
0001
1000
,
0001
0100
0010
1000
0001
0010
0100
1000
0001
0100
0010
1000
0100
1000
0001
0100
,
0010
1000
0001
1000
0100
1000
0001
0100
0010
1000
0001
1000
0100
1000
0001
0100
,
0010
1000
0001
1000
0010
1000
0004
0000
0003
0000
1000
0100
0020
0000
0030
0000
,
0001
0100
0040
0030
1000
0001
1000
0001
0040
0030
0001
0000
1001
0000
0000
0000
,
1000
0010
0100
0001
1000
0100
0010
0001
1000
0010
0100
0001
1000
0001
0010
0100
,
1000
0001
0100
0010
1000
0001
0010
0001
1000
0010
0100
0001
1000
0100
0010
0001
,
1000
0010
0100
0001
1000
0100
1000
0001
0100
0010
1000
0001
0010
0100
1000
0001
,
1000
0010
0100
0001
1000
0100
0010
0100
1000
0001
0100
0001
1000
0100
0010
0001
,
0100
0010
1000
0001
0010
0100
1000
0001
1000
0010
0100
0001
1000
0100
0010
0001
,
1000
0010
0100
0010
1000
0001
0010
0100
1000
0001
0100
0001
1000
0100
0010
0001
,
1000
0010
0100
0001
1000
0100
1000
0001
0100
0010
1000
0001
0010
0001
1000
0010
,
0100
0001
1000
0100
0010
0001
1000
0010
1000
0001
0010
0100
1000
0001
0100
0001
,
1000
0100
0010
0001
1000
0010
0100
0010
1000
0001
0010
0100
1000
0001
0100
0010
,
1000
0001
0010
0100
1000
0001
0100
0010
1000
0001
1000
0100
0010
0001
0100
0010
,
1000
0001
0010
0100
1000
0001
0100
0001
1000
0100
0010
0100
1000
0001
0100
0010
,
0100
0001
1000
0100
0010
0001
1000
0010
0100
0001
1000
0100
1000
0001
0100
0001
,
1000
0100
0010
0001
1000
0010
0100
0010
1000
0001
0010
0100
1000
0001
0100
0010
,
1000
0001
0010
0001
1000
0010
0100
0010
1000
0001
0010
0100
1000
0001
0100
0010
,
1000
0001
0010
0100
1000
0001
0100
0001
1000
0100
0010
0001
1000
0010
0100
0001
,
1000
0100
0010
0001
0100
0000
0001
0000
0010
0100
1000
0000
1001
0000
0000
0000
,
0001
0100
0010
1000
0001
0010
0001
1000
0100
0010
0001
1000
0010
0100
0010
1000
,
0001
0010
0100
0010
0001
1000
0010
0100
0001
1000
0100
1000
0001
0010
0100
1000
,
0001
0100
0010
0100
0001
1000
0100
0010
0001
1000
0010
1000
0001
0100
0010
1000
,
0001
0010
0100
0010
0001
1000
0010
0100
0001
1000
0100
1000
0001
0100
0010
1000
,
0001
0010
0001
0100
0001
1000
0100
1000
0001
0100
0010
0100
0001
1000
0100
0010
,
0001
1000
0010
1000
0001
0010
0100
0010
0001
1000
0010
1000
0100
1000
0001
0100
,
0001
1000
0100
1000
0001
0100
0010
1000
0001
1000
0100
1000
0001
0100
0010
0100
,
0001
1000
0100
0010
0001
1000
0010
1000
0001
0010
0001
1000
0010
0100
0001
1000
,
0100
0010
0001
1000
0010
1000
0001
0010
0001
0100
0010
1000
0001
0100
0010
1000
,
0001
0010
0001
1000
0001
0100
0010
1000
0100
0010
0001
1000
0100
0010
0001
1000
,
0100
1000
0010
1000
0001
0100
0010
1000
0001
0010
0001
1000
0100
0010
0001
1000
,
0010
0100
0010
1000
0001
0010
0100
1000
0001
0100
0001
1000
0100
0010
0001
1000
,
0010
1000
0100
1000
0001
0100
0001
1000
0100
0010
0100
1000
0001
0100
0010
1000
,
0001
0010
0001
1000
0010
0100
0010
1000
0001
0010
0001
0100
0001
1000
0100
1000
,
0001
0100
0001
1000
0100
0010
0001
1000
0001
0100
0001
1000
0100
0010
0100
1000
,
0001
0100
0010
1000
0001
0010
0001
1000
0010
0100
0010
0100
0001
0000
1000
0100
,
1000
0001
0100
0010
1000
0001
0100
0001
1000
0100
0010
0001
1000
0100
1000
0001
,
0100
0010
0100
0001
1000
0010
0100
0001
1000
0100
0010
0100
1000
0001
0010
0001
,
1000
0001
0010
0100
1000
0001
1000
0100
1000
0001
0100
0010
1000
0001
0100
0001
,
1000
0001
0100
0010
1000
0001
1000
0010
1000
0001
0010
0001
1000
0001
0010
0100
,
1000
0010
1000
0001
0010
0001
1000
0010
1000
0001
0010
0001
1000
0100
1000
0001
,
0100
0001
0010
0001
1000
0010
1000
0001
0010
0001
1000
0100
1000
0001
1000
0100
,
0010
0001
0010
0001
1000
0010
1000
0001
0100
0001
1000
0010
1000
0001
0100
0001
,
1000
0100
1000
0001
0010
0001
1000
0100
1000
0001
0010
0001
1000
0010
0100
0001
,
1000
0100
0010
0001
1000
0100
0010
0001
1000
0010
0100
0010
1000
0001
0010
0001
,
1000
0010
0100
0001
1000
0010
0100
0001
1000
0100
1000
0001
0100
0001
1000
0001
,
0010
0100
1000
0001
0010
0100
1000
0001
0100
0001
1000
0100
0010
0100
1000
0001
,
0100
0010
1000
0001
0100
0010
1000
0001
0010
0001
1000
0010
0100
0001
0100
0010
,
1000
0001
0010
0001
1000
0100
0010
0001
1000
0001
0100
0001
1000
0010
1000
0001
,
0010
0100
1000
0001
0100
0010
1000
0010
0100
0001
1000
0100
0010
0001
1000
0010
,
0100
0001
1000
0001
0100
0010
1000
0001
0010
0001
1000
0001
0100
0010
1000
0001
,
1000
0100
0010
0001
1000
0100
1000
0001
1000
0010
0100
0001
1000
0000
0000
0000
;
