#TITLE:The bearish inside;
#SUBTITLE:;
#ARTIST:TOMOYUKI;
#TITLETRANSLIT:;
#SUBTITLETRANSLIT:;
#ARTISTTRANSLIT:;
#GENRE:;
#CREDIT:;
#MUSIC:The bearish inside.ogg;
#BANNER:The_bearish_inside-bn.png;
#BACKGROUND:The_bearish_inside-bg.png;
#CDTITLE:NAOKI_cdtitle.png;
#SAMPLESTART:83.037;
#SAMPLELENGTH:12.000;
#SELECTABLE:YES;
#OFFSET:0.927;
#BPMS:0.000=140.000;
#STOPS:;
#BGCHANGES:;
#FGCHANGES:;

//--------------- dance-single - NAOKI ----------------
#NOTES:
     dance-single:
     NAOKI:
     Beginner:
     2:
     0.183,0.288,0.009,0.134,0:
0000
0000
0000
0000
,
0010
0000
0000
0000
,
0010
0000
0000
0000
,
1000
0000
0000
0000
,
1000
0000
0000
0000
,
0001
0000
0000
0000
,
0001
0000
0000
0000
,
0010
0000
0000
0000
,
0010
0000
0000
0000
,
0100
0000
0000
0000
,
0100
0000
0000
0000
,
1000
0000
0000
0000
,
1000
0000
0000
0000
,
0001
0000
0000
0000
,
0001
0000
0000
0000
,
0100
0000
0000
0000
,
0100
0000
0000
0000
,
0010
0000
1000
0000
,
0001
0000
0010
0000
,
0100
0000
1000
0000
,
0001
0000
0100
0010
,
0100
0000
0001
0000
,
1000
0000
0100
0000
,
0010
0000
0001
0000
,
1000
0000
0010
0100
,
0010
0000
1000
0000
,
0001
0000
0010
0000
,
0100
0000
1000
0000
,
0001
0000
0100
0010
,
0100
0000
0001
0000
,
1000
0000
0100
0000
,
0010
0000
0001
0000
,
1000
0000
0000
0000
,
0020
0000
0030
0000
,
2000
0000
3000
0000
,
0002
0000
0003
0000
,
0020
0000
0030
0000
,
0200
0000
0300
0000
,
2000
0000
3000
0000
,
0002
0000
0003
0000
,
0200
0000
0300
0000
,
0010
1000
0100
0100
,
0000
0000
0010
0000
,
0002
0023
0230
2300
,
3010
0000
0100
0000
,
0001
1000
0001
0000
,
1000
0001
1000
0000
,
0010
0000
0100
0000
,
0220
0000
0000
0330
,
0001
0010
0001
0000
,
1000
0010
1000
0000
,
0001
0100
0001
0000
,
1000
0100
1000
0001
,
1000
0010
1000
0000
,
0001
0010
0001
0000
,
1000
0100
1000
0000
,
0001
0100
0001
1000
,
0001
0010
0001
0000
,
1000
0010
1000
0000
,
0001
0100
0001
0000
,
1000
0100
1000
0001
,
1000
0010
1000
0000
,
0001
0010
0001
0000
,
1000
0100
0000
0100
,
0010
0000
0000
0000
,
0001
0000
0001
0000
,
0100
0000
0100
0000
,
0010
0000
0010
0000
,
1000
0000
1000
0000
,
0100
0000
0100
0000
,
0010
0000
0010
0000
,
0001
0000
0001
0000
,
1000
0000
0001
0000
,
1000
0000
1000
0000
,
0010
0000
0010
0000
,
0100
0000
0100
0000
,
0001
0000
0001
0000
,
0010
0000
0010
0000
,
0100
0000
0100
0000
,
1000
0000
1000
0000
,
0010
0000
0000
0000
,
0200
0000
0300
0000
,
0002
0000
0003
0000
,
2000
0000
3000
0000
,
0200
0000
0300
0000
,
0020
0000
0030
0000
,
0002
0000
0003
0000
,
2000
0000
3000
0000
,
0020
0000
0130
0001
,
0020
0000
0030
0000
,
0002
0000
0003
0000
,
2000
0000
3000
0000
,
0020
0000
0030
0000
,
0200
0000
0300
0000
,
0002
0000
0003
0000
,
2000
0000
3000
0000
,
0200
0000
0310
0001
,
0100
0000
0100
0000
,
0010
0000
0010
0000
,
1000
0000
1000
0000
,
0001
0000
0001
0000
,
0010
0000
0010
0000
,
0100
0000
0100
0000
,
1000
0000
1000
0000
,
0001
0000
0001
0000
,
0100
0000
0100
0000
,
0010
0000
0010
0000
,
1000
0000
1000
0000
,
0100
0000
0100
0000
,
0010
0000
0010
0000
,
0001
0000
0001
0000
,
1000
0000
1000
0000
,
0010
0000
0000
0000
,
0100
0001
0000
0001
,
0010
0100
0000
0100
,
1000
0010
0000
0010
,
0100
0000
0100
0000
,
0010
1000
0000
1000
,
0100
0010
0000
0010
,
0001
0100
0000
0100
,
0010
0000
0010
0000
,
1000
0100
0000
0100
,
0010
0001
0000
0001
,
0100
0010
0000
0010
,
1000
0000
1000
0000
,
0001
0100
0000
0100
,
0010
1000
0000
1000
,
0100
0010
0000
0010
,
0001
0000
1000
1001
;

//--------------- dance-single - NAOKI ----------------
#NOTES:
     dance-single:
     NAOKI:
     Easy:
     7:
     0.34,0.403,0.223,0.17,0:
0000
0000
0000
0000
,
0010
1000
0001
0100
,
0010
1000
0001
0010
,
0100
1000
0001
0010
,
0100
1000
0001
0100
,
0100
0001
1000
0010
,
0100
0001
1000
0100
,
0010
0001
1000
0100
,
0010
0001
1000
0010
,
0110
0100
0001
0001
,
0010
0100
1000
1000
,
0100
0010
0001
0001
,
0100
0010
1000
1000
,
0001
0100
0010
0010
,
1000
0001
0100
0100
,
0010
1000
0100
0100
,
0010
0000
0000
0000
,
0001
0010
0001
0100
,
0001
0010
0100
0100
,
1000
0010
1000
0100
,
1000
0010
0100
0100
,
0001
0100
0001
0010
,
0001
0100
0010
0010
,
1000
0100
1000
0010
,
1000
0100
0010
0010
,
0001
0100
0001
0010
,
0001
0100
0010
0010
,
1000
0100
1000
0010
,
1000
0100
0010
0010
,
0001
0010
0001
0100
,
0001
0010
0100
0100
,
1000
0010
1000
0100
,
1000
0000
0001
0000
,
0200
0000
0320
0000
,
2030
0000
3002
0000
,
0023
0000
0230
0000
,
2300
0000
3001
1000
,
0020
0000
0230
0000
,
0302
0000
2003
0000
,
3200
0000
0320
0000
,
0032
0000
1003
0001
,
0100
0100
0010
0010
,
0000
0000
1000
0000
,
0002
0023
0230
2300
,
3010
0000
0100
0000
,
0001
1000
0100
0010
,
0001
0000
1000
0000
,
0010
0010
0100
0100
,
0220
0000
0000
0330
,
0010
1000
0100
0100
,
0010
0001
0100
0100
,
0010
0100
0110
1001
,
0100
0010
0110
1001
,
0100
0001
0010
0010
,
0100
1000
0010
0010
,
0100
0010
0110
1001
,
0010
0100
0110
1001
,
0010
0001
0100
0100
,
0010
1000
0100
0100
,
0010
0100
0110
1001
,
0100
0010
0110
1001
,
0100
1000
0010
0010
,
0100
0001
0010
0010
,
0100
0010
0110
1001
,
2100
3002
0103
0000
,
1010
1000
1001
1000
,
1100
0100
0010
0010
,
0002
0100
1000
0010
,
2003
0010
0001
3100
,
0011
0001
1001
0001
,
0101
0100
0010
0010
,
2000
0100
0001
0010
,
3002
0010
1000
0103
,
1010
0010
0110
0010
,
0011
0001
1000
0010
,
0200
1000
0010
0301
,
0020
1000
0100
0031
,
0101
0100
0110
0100
,
1100
1000
0001
0100
,
0010
1000
0001
0010
,
0110
0000
0000
0000
,
0002
0000
0010
0000
,
1000
0000
0103
0000
,
2000
0000
0010
0000
,
0001
0000
3100
0000
,
0002
0000
0100
0000
,
1000
0000
0013
0000
,
2000
0000
0100
0000
,
0001
0000
3010
0000
,
0002
0000
0010
0000
,
1000
0000
0103
0000
,
2000
0000
0010
0000
,
0001
0000
3100
0000
,
0002
0000
0100
0000
,
1000
0000
0013
0000
,
2000
0000
0100
0000
,
3001
0000
0010
0000
,
0100
1000
0010
0010
,
0100
0001
0010
0010
,
0100
1000
0001
0100
,
0010
1000
0001
1001
,
0010
0001
0100
0100
,
0010
1000
0100
0100
,
0010
0001
1000
0010
,
0100
0001
1000
0010
,
0110
1000
0100
0100
,
0010
0001
0100
0100
,
0010
1000
0001
0010
,
0100
1000
0001
0001
,
0100
0001
0010
0010
,
0100
1000
0010
0010
,
0100
0001
1000
0100
,
0010
0000
0000
0000
,
0010
0100
1000
0001
,
0100
0010
1100
0101
,
0010
0100
0001
1000
,
0100
0010
0101
1100
,
0100
0010
0001
1000
,
0010
0100
0011
1010
,
0100
0010
1000
0001
,
0010
0100
1010
0011
,
1100
0010
0001
1000
,
0010
0100
0011
1010
,
0100
0010
1000
0001
,
0010
0100
1010
0011
,
0010
0100
1000
0001
,
0100
0010
1100
0101
,
1000
1010
0001
0011
,
1000
0000
0100
0000
0010
0000
2002
3003
;

//--------------- dance-single - NAOKI ----------------
#NOTES:
     dance-single:
     NAOKI:
     Medium:
     10:
     0.443,0.46,0.147,0.125,0.002:
0000
0000
0000
0000
,
0010
0010
1000
0100
,
0010
0000
0001
0000
0100
0010
1000
0001
,
0010
0010
0001
0100
,
0010
0000
1000
0000
0100
0010
0001
1000
,
0010
0100
0001
0010
,
0100
0000
1000
0000
0010
0100
0001
1000
,
0100
0100
1000
0010
,
0100
0000
0001
0000
0010
0100
1000
0001
,
0100
0100
0010
0000
1000
0001
0010
0000
,
0001
0000
1000
0000
0100
0010
0001
1000
,
0010
0000
0100
0000
0001
1000
0100
0000
,
1000
0000
0001
0000
0100
0010
1000
0001
,
0010
0010
0100
0000
1000
0001
0010
0000
,
0001
0000
1000
0000
0010
0100
0001
1000
,
0100
0000
0010
0000
0001
1000
0010
0100
,
0000
0000
0000
0000
0000
0000
0000
0000
0000
0000
0000
0100
0000
0000
0100
0000
,
0010
1000
0100
0000
0010
0001
1000
0000
,
0100
1000
0010
0000
0100
0000
0001
0000
,
0010
0001
0100
0000
0010
1000
0001
0000
,
0100
0001
0010
0000
0100
0000
1000
0000
,
0010
0100
0010
0000
1000
0100
1000
0000
,
0001
0100
0001
0000
0010
0000
0100
0000
,
0010
0100
0010
0000
0001
0100
0001
0000
,
1000
0100
1000
0000
0010
0000
0010
0000
,
0100
0001
0010
0000
0100
1000
0001
0000
,
0010
0001
0100
0000
0010
0000
1000
0000
,
0100
1000
0010
0000
0100
0001
1000
0000
,
0010
1000
0100
0000
0010
0000
0001
0000
,
0100
0010
0100
0000
0001
0010
0001
0000
,
1000
0010
1000
0000
0100
0000
0010
0000
,
0100
0010
0100
0000
1000
0010
1000
0000
,
0001
0010
0001
0000
0100
0000
0010
0000
,
2000
0100
3001
0000
,
0002
0100
1003
0000
,
2000
0010
3001
0000
,
0002
0010
1003
0000
,
0010
1000
0100
0000
0020
0000
0130
0000
,
0010
0001
0100
0000
0020
0000
0130
0000
,
0010
1000
0001
0000
0200
0000
0310
0000
,
1000
0100
0010
0001
,
0100
0100
0010
0010
,
0000
0000
1000
0001
0000
0000
0000
0000
,
0100
0010
1000
0010
0100
0001
0010
0100
,
2000
0000
0010
3010
,
0100
0001
1000
0000
0100
0010
0001
0000
,
0100
0000
0000
0000
0010
1000
0100
0000
,
0010
0001
1000
0010
0100
0001
1000
0100
,
0020
0000
0200
0330
,
0011
0000
1001
0000
0100
0010
1000
0000
,
1100
0000
1010
0000
0010
0100
0001
0000
,
0101
0000
0011
0000
0010
0100
1000
0000
,
1010
0000
1100
0000
0100
0010
0001
1000
,
0010
0000
0110
0000
0100
0001
0010
0000
,
0110
0000
1001
0000
0010
1000
0100
0000
,
0011
0000
1010
0000
0001
1000
0010
0000
,
1100
0000
0101
0000
1000
0001
0100
0010
,
1000
0000
1100
0000
0100
0010
0001
0000
,
0101
0000
0011
0000
0010
0100
1000
0000
,
1100
0000
1010
0000
0010
0100
0001
0000
,
0011
0000
0101
0000
0100
0010
1000
0001
,
0010
0000
0110
0000
0100
1000
0010
0000
,
0110
0000
1001
0000
0100
0001
0010
0000
,
1100
0000
0101
0000
1000
0001
0100
0000
,
2010
3002
0013
0000
,
0001
0100
0001
0000
0100
1000
0100
0000
,
1000
0010
1000
0000
0010
0001
0010
0000
,
0001
0100
1000
0000
0100
0001
0010
0000
,
0001
0010
1000
0000
0010
0000
0100
0000
,
1000
0100
1000
0000
0100
0001
0100
0000
,
0001
0010
0001
0000
0010
1000
0010
0000
,
1000
0100
0001
0000
0100
1000
0010
0000
,
1000
0010
0001
0000
0010
0000
0100
0000
,
0001
0010
0001
0000
0010
1000
0010
0000
,
1000
0100
1000
0000
0100
0001
0100
0000
,
0001
0010
1000
0000
0010
0001
0100
0000
,
0001
0100
1000
0000
0100
0000
0010
0000
,
1000
0100
1000
0000
0100
0001
0100
0000
,
0001
0010
0001
0000
0010
1000
0010
0000
,
1000
0100
0001
0000
0100
1000
0010
0000
,
1000
0010
0001
0000
0010
0000
0100
0000
,
0002
0000
0013
0100
,
2000
0000
3001
0100
,
0020
0000
1030
0200
,
0001
1000
0301
0000
,
2000
0000
3010
0100
,
0002
0000
1003
0100
,
0020
0000
0031
0200
,
1000
0001
1300
0000
,
0002
0000
0103
0010
,
2000
0000
3001
0010
,
0200
0000
1300
0020
,
0001
1000
0031
0000
,
2000
0000
3100
0010
,
0002
0000
1003
0010
,
0200
0000
0301
0020
,
1000
0001
1030
0000
,
0010
0010
0001
0001
,
0100
0000
0100
0000
0010
1000
0001
0010
,
0100
0100
1000
1000
,
0010
0000
0010
0000
0100
0001
1000
0010
,
0100
0100
0001
0001
,
0010
0000
0010
0000
0100
1000
0001
0100
,
0010
0010
1000
1000
,
0100
0000
0100
0000
0010
0001
1000
0100
,
0010
0000
0001
0000
0100
0010
1000
0000
,
0100
0000
1000
0000
0010
0100
0001
0010
,
0100
0000
1000
0000
0001
0100
0001
0000
,
1000
0100
1000
0010
0100
0000
1001
0000
,
0001
0010
0100
0000
0010
0001
0100
0000
,
0010
1000
0001
0000
0010
0100
1000
0001
,
0100
0100
0010
0010
,
1001
0000
0000
0000
,
1000
0000
0001
0100
0000
0100
0000
0010
,
0000
1000
0000
0100
0010
0001
0100
0000
,
0010
0000
1000
0100
0000
0100
0000
0010
,
0001
0100
0010
0000
1000
0100
0010
0000
,
0001
0000
1000
0010
0000
0010
0000
0100
,
0000
0001
0000
0010
0100
1000
0010
0000
,
0100
0000
0001
0010
0000
0010
0000
0100
,
1000
0010
0100
0000
0001
0010
0100
1000
,
0010
0000
0010
0100
0000
0100
0000
1001
,
0000
0110
0000
0100
0001
1000
0100
0000
,
0010
0000
0010
0100
0000
0100
0000
1000
,
0001
0010
0000
0100
1000
0001
0100
0000
,
0010
1000
0100
1000
0010
1000
0100
0010
,
0001
0100
0001
0010
0100
1000
0010
0000
,
0100
0001
0010
0001
0100
0001
0010
0100
,
1000
0010
1000
0100
0010
0000
1001
0000
;

//--------------- dance-single - NAOKI ----------------
#NOTES:
     dance-single:
     NAOKI:
     Hard:
     12:
     0.665,0.72,0.313,0.384,0.194:
0000
0000
0000
0000
,
0010
1000
0100
0100
0010
0001
1000
0010
,
0100
0001
0010
0010
0100
2000
0010
3010
,
0100
0001
0010
0010
0100
1000
0001
0100
,
0010
1000
0100
0100
0010
0002
0100
0103
,
0010
1000
0100
0100
0010
0001
0100
0100
,
0001
1000
0010
0010
0100
0002
0010
0013
,
0100
1000
0010
0010
0100
0001
1000
0100
,
0010
0001
0100
0100
0010
2000
0100
3100
,
1001
0000
0010
0000
0001
0000
0100
0000
0010
0000
0000
0010
1000
0000
0100
0000
,
0010
0001
1000
0010
0200
0001
0301
1000
,
0100
0000
0100
0000
0010
0000
0001
0000
0100
0000
0000
0100
0001
0000
0010
0000
,
0100
1000
0001
0100
0020
1000
1030
0001
,
0100
0000
0010
0000
1000
0000
0100
0000
0010
0000
0000
0010
0001
0000
0100
0000
,
0010
1000
0001
0010
0200
1000
1300
0010
,
0100
0000
0100
0000
0001
0000
0010
0000
0100
0000
0000
0100
1000
0000
0002
0000
,
0000
0000
0100
0000
0000
0000
0103
0000
0000
0000
0000
1010
0000
0000
0011
0000
,
0001
0100
0001
0010
0100
1000
0010
1000
,
0100
0010
0001
0100
0010
1000
0001
0010
,
0100
0010
0001
0100
0010
1000
0100
1000
,
0010
0100
0001
0010
0100
1000
0001
0010
,
0100
1000
0010
1000
0100
0010
0001
0100
,
0001
0010
0100
1000
0010
0001
1000
0001
,
0010
1000
0100
1000
0010
0100
0001
0010
,
0100
0000
1000
0000
0010
0000
0100
0000
0001
0000
0000
0001
0010
0000
0100
0000
,
1000
0010
1000
0100
0010
0001
0100
0001
,
0010
0100
1000
0010
0100
0001
1000
0100
,
0010
0100
1000
0010
0100
0001
0010
0001
,
0100
0010
1000
0100
0010
0001
1000
0100
,
0010
0001
0100
0001
0010
0100
1000
0010
,
1000
0100
0010
0001
0100
1000
0001
1000
,
0100
0001
0010
0001
0100
0010
1000
0100
,
0000
0010
0000
0001
0000
0000
0000
0000
,
0012
0000
1000
0000
0103
0010
1000
0000
,
2010
0000
0001
0000
3100
0010
0001
0000
,
0020
0000
0100
0000
0031
1000
0010
0000
,
0200
0000
0010
0000
0301
0010
0100
1000
,
0020
0000
0100
0000
1030
0001
0010
0000
,
0200
0000
0010
0000
1300
0001
0100
0000
,
0102
0000
1000
0000
0013
0100
1000
0000
,
2100
0000
0001
0000
3010
0100
0001
0000
,
1100
0000
0101
0000
1000
0001
1000
0000
,
0000
0000
0000
0000
0000
0001
1000
0001
0000
0000
0000
0000
0000
0000
0000
0000
,
1000
0010
0100
0001
1000
0001
0010
0100
,
2000
0000
0000
0000
3000
0010
1000
0000
0100
0000
0010
0000
0100
0000
1000
0000
,
0010
0000
0100
0001
0000
0010
0000
0100
0000
1000
0010
0000
0100
0000
0001
0000
,
0020
0000
0030
0100
1000
0001
0100
0100
,
0010
0000
1000
0000
0001
0000
0010
0100
0000
1000
0000
0001
0000
0100
0000
0010
,
0200
0000
0020
0330
,
1001
0000
1000
0100
0000
0100
0000
0010
0001
0000
0100
0000
0010
0000
1000
0000
,
1001
0000
0001
0100
0000
0100
0000
0010
1000
0000
0100
0000
0010
0000
0001
0000
,
1001
0000
1000
0010
0000
0010
0000
0100
0001
0000
0010
0000
0100
0000
1000
0000
,
1001
0000
0001
0010
0000
0010
0000
0100
1000
0000
0010
0000
0100
0000
0001
0000
,
1001
0000
1000
0100
0000
0100
0000
0010
0001
0000
0100
0000
0010
0000
1000
0000
,
1001
0000
0001
0100
0000
0100
0000
0010
1000
0000
0100
0000
0010
0000
0001
0000
,
1001
0000
1000
0010
0000
0010
0000
0100
0001
0000
0010
0000
0100
0000
1000
0000
,
1001
0000
0001
0010
0000
0010
0000
0100
1000
0000
0010
0000
0100
0000
0001
0000
,
0011
0000
0010
0100
0000
1100
0000
1000
0010
0000
0100
0000
0001
0000
1000
0000
,
1010
0000
0010
0100
0000
0101
0000
0001
0010
0000
0100
0000
1000
0000
0001
0000
,
0101
0000
0100
0010
0000
1010
0000
1000
0100
0000
0010
0000
0001
0000
1000
0000
,
1100
0000
0100
0010
0000
0011
0000
0001
0100
0000
0010
0000
1000
0000
0001
0000
,
0011
0000
0010
0100
0000
1100
0000
1000
0010
0000
0100
0000
0001
0000
1000
0000
,
1010
0000
0010
0100
0000
0101
0000
0001
0010
0000
0100
0000
1000
0000
0001
0000
,
0101
0000
0100
0010
0000
1010
0000
1000
0100
0000
0010
0000
0001
0000
0100
0000
,
0102
2003
3100
0000
,
2001
0100
3100
0010
0002
0100
0103
0000
,
1002
0010
0013
0100
2000
0010
3010
0000
,
1010
0000
1000
0100
0000
0010
0000
0001
1000
0000
0010
0000
0100
0000
0000
0000
,
0101
0000
0001
0010
0000
0100
0000
1000
0001
0000
0100
0000
0010
0000
0000
0000
,
2000
0010
3010
0100
0002
0010
0013
0000
,
1002
0100
0103
0010
2000
0100
3100
0000
,
1100
0000
1000
0010
0000
0100
0000
0001
1000
0000
0100
0000
0010
0000
0000
0000
,
0011
0000
0001
0100
0000
0010
0000
1000
0001
0000
0010
0000
0100
0000
0000
0000
,
1002
0100
0103
0010
2000
0100
3100
0000
,
2001
0010
3010
0100
0002
0010
0013
0000
,
0011
0000
0001
0100
0000
0010
0000
1000
0001
0000
0010
0000
0100
0000
0000
0000
,
1100
0000
1000
0010
0000
0100
0000
0001
1000
0000
0100
0000
0010
0000
0000
0000
,
1002
0010
0013
0100
2000
0010
3010
0000
,
2001
0100
3100
0010
0002
0100
0103
0010
,
2010
0000
0000
3100
0010
0000
0001
0000
0012
0000
0000
0103
0010
0000
1000
0000
,
2002
3003
0000
0000
,
2020
0030
0010
0001
,
0200
0000
3000
0000
0310
0001
0100
0000
,
0020
0000
1000
0000
0130
0001
0010
0000
,
0100
1000
0010
0000
0100
0000
0001
0000
,
0022
0030
0010
1000
,
0200
0000
0003
0000
0310
1000
0100
0000
,
0020
0000
0001
0000
0130
1000
0010
0000
,
0100
0001
0010
0000
0100
0000
1000
0000
,
2200
0300
0100
0001
,
0020
0000
3000
0000
0130
0001
0010
0000
,
0200
0000
1000
0000
0310
0001
0100
0000
,
0010
0000
1000
0000
0100
0010
0001
0000
,
0202
0300
0100
1000
,
0020
0000
0003
0000
0130
1000
0010
0000
,
0200
0000
0001
0000
0310
1000
0100
0000
,
2100
3002
0103
0000
,
0001
0010
0001
0100
0010
1000
0100
1000
,
0010
0100
0001
0010
0100
1000
0001
0100
,
0010
0100
0001
0010
0100
1000
0010
1000
,
0100
0010
0001
0100
0010
1000
0001
0100
,
0010
1000
0100
1000
0010
0100
0001
0010
,
0001
0100
0010
1000
0100
0001
1000
0001
,
0100
1000
0010
1000
0100
0010
0001
0100
,
0010
0000
1000
0000
0100
0000
0010
0000
0001
0000
0000
0001
0100
0000
0010
0000
,
1000
0100
1000
0010
0100
0001
0010
0001
,
0100
0010
1000
0100
0010
0001
1000
0010
,
0100
0010
1000
0100
0010
0001
0100
0001
,
0010
0100
1000
0010
0100
0001
1000
0010
,
0100
0001
0010
0001
0100
0010
1000
0100
,
1000
0010
0100
0001
0010
1000
0001
1000
,
0010
0001
0100
0001
0010
0100
1000
0002
,
0000
0000
0010
0000
0000
0000
0013
0000
0000
0000
0000
0011
0000
0000
1010
0000
,
0102
0000
0013
0200
0000
1300
0001
0200
,
0010
0310
1000
0100
0010
0001
0101
0000
,
2010
0000
3100
0020
0000
0031
1000
0020
,
0100
0130
0001
0010
0100
1000
1001
0000
,
0012
0000
0103
0020
0000
1030
0001
0020
,
0100
0130
1000
0010
0100
0001
0011
0000
,
2100
0000
3010
0200
0000
0301
1000
0200
,
0010
0310
0001
1000
0010
0100
0010
1000
,
0002
0000
0013
0200
0000
1300
0010
0200
,
0001
0301
0010
0100
1000
0010
0110
0000
,
2001
0000
3010
0200
0000
0301
0010
0200
,
1000
1300
0010
0100
0001
0010
0110
0000
,
1002
0000
0103
0020
0000
1030
0100
0020
,
0001
0031
0100
0010
1000
0100
0110
0000
,
0012
0000
0000
0103
0010
0000
1000
0000
2010
0000
0000
3100
0010
0000
0001
0000
,
0100
0100
0010
1000
0100
0010
2002
3003
;

//--------------- dance-single - NAOKI ----------------
#NOTES:
     dance-single:
     NAOKI:
     Challenge:
     16:
     0.918,0.95,0.42,0.349,0.95:
0000
0000
0000
0000
,
0010
0001
0100
0100
0010
1000
0001
0010
,
0100
0000
1000
0000
0010
0000
0010
0000
0100
0001
1000
0100
0010
0000
0010
0000
,
0100
0000
1000
0000
0001
0000
0100
0010
0100
0000
0001
0000
1000
0000
0100
0000
,
0010
0000
0001
0000
0100
0000
0100
0000
0010
1000
0100
0010
0001
0000
0100
0000
,
0010
0000
1000
0000
0001
0000
0010
0100
0010
0000
0001
0000
1000
0000
0010
0000
,
0100
0000
0001
0000
0010
0000
0010
0000
0100
1000
0001
0100
0010
0000
0010
0000
,
0100
0000
0001
0000
1000
0000
0100
0010
0100
0000
1000
0000
0001
0000
0100
0000
,
0010
0000
1000
0000
0100
0000
0100
0000
0010
0001
0100
0010
1000
0000
0100
0000
,
0110
0000
0010
0000
0001
0000
0100
0000
0010
0000
0000
0010
1000
0000
0100
0000
,
0010
0000
0001
0000
1000
0000
0010
0000
0100
0001
0010
0100
1000
0000
0001
0000
,
0100
0000
0010
0000
1000
0000
0100
0000
0010
0000
0000
0010
0001
0000
0100
0000
,
0010
0000
1000
0000
0001
0000
0010
0000
0100
1000
0010
0100
0001
0000
0100
0000
,
0010
0000
1000
0000
0001
0000
0010
0000
0100
0000
0000
0100
1000
0000
0001
0000
,
0100
0000
0010
0000
1000
0000
0100
0000
0010
0001
0100
0010
1000
0000
0100
0000
,
0010
0000
0001
0000
1000
0000
0010
0000
0100
0000
0000
0100
0001
0000
0010
0000
,
0000
0000
0011
0000
0000
0000
1010
0000
0000
0000
0000
0011
0000
0000
1010
0000
,
0100
0001
1000
0001
0010
0100
1000
0001
1000
0010
0100
0001
1000
0010
0100
0001
,
1000
0001
1000
0010
1000
0001
0010
0001
0100
0010
1000
0100
0010
0001
1000
0100
,
0010
0001
1000
0001
0100
0010
0100
0001
1000
0010
0100
0010
1000
0001
1000
0100
,
0010
0001
0100
0001
1000
0100
1000
0010
0100
0001
0010
0100
1000
0001
0010
0100
,
1000
0010
0100
0010
1000
0001
1000
0100
0010
0001
1000
0001
0100
0010
0100
0001
,
1000
0001
1000
0010
1000
0001
0010
0001
1000
0010
0100
0001
1000
0010
0100
0001
,
1000
0100
0010
0100
1000
0001
1000
0010
0100
0001
1000
0001
0010
0100
0010
0001
,
1000
0001
1000
0100
1000
0001
0100
0001
0010
0100
1000
0002
0100
0000
0103
0000
,
0010
1000
0001
1000
0100
0010
0001
1000
0001
0100
0010
1000
0001
0100
0010
1000
,
0001
1000
0001
0100
0001
1000
0100
1000
0010
0100
0001
0010
0100
1000
0001
0010
,
0100
1000
0001
0100
0010
1000
0010
0100
0001
0100
0010
1000
0001
0010
0100
1000
,
0010
1000
0001
0010
0001
0100
0010
0100
0001
1000
0100
0010
0001
1000
0100
0010
,
0001
0100
0010
0100
0001
1000
0001
0010
0100
1000
0001
1000
0010
0100
0010
1000
,
0001
1000
0001
0100
0001
1000
0100
1000
0001
0100
0010
1000
0001
0100
0010
1000
,
0001
0010
0100
0010
0001
1000
0001
0100
0010
1000
0001
1000
0100
0010
0100
1000
,
0001
0000
0100
0000
0000
0000
0010
0000
0000
0100
0001
1000
0100
0000
1000
0000
,
2010
0000
0001
0000
3100
0010
0001
0000
,
0102
0000
1000
0000
0013
0100
1000
0001
,
0200
0000
1000
0000
0301
1000
0100
0000
,
0020
0000
1000
0000
0031
1000
0100
0010
,
0002
0000
1000
0000
0103
0010
1000
0000
,
2100
0000
0001
0000
3010
0100
0001
0000
,
0020
0000
1000
0000
0031
1000
0010
0000
,
0200
0000
1000
0000
0301
0010
0100
1000
,
0110
0000
1001
0000
0010
0100
0020
0000
,
0030
0000
0000
0000
0000
0100
0010
0100
0000
0000
0000
0000
0000
0000
0000
0000
,
0001
0010
0001
0100
0010
1000
0100
1000
0010
0100
0001
0100
0010
1000
0100
0010
,
0002
0000
0000
0000
0003
0100
0001
1000
0100
0000
0010
0000
0001
0000
0100
0000
,
0010
0000
1000
0100
0000
0100
0000
0010
0000
0010
0001
0000
0100
0000
0010
0000
,
2000
0000
3000
0100
1000
0001
0100
0010
,
1000
0000
0100
0000
0010
0000
0001
0100
0000
0100
0000
0010
0000
0010
0000
1000
,
0002
0000
0200
0303
,
2010
0000
3010
0100
0000
0101
0000
0001
0010
0100
1000
0010
0100
0000
0101
0000
,
1002
0000
0013
0100
0000
1100
0000
1000
0010
0100
0001
0000
0011
0000
1010
0000
,
2100
0000
3100
0010
0000
0011
0000
0001
0100
0010
1000
0100
0010
0000
0011
0000
,
1002
0000
0103
0010
0000
1010
0000
1000
0100
0010
0001
0100
0010
0000
1010
0000
,
2001
0000
3100
0010
0000
0011
0000
0001
0100
0010
1000
0000
1100
0000
0101
0000
,
2010
0000
3010
0100
0000
0101
0000
0001
0010
0100
1000
0000
1010
0000
0011
0000
,
0102
0000
0103
0010
0000
1010
0000
1000
0100
0010
0001
0100
0010
0000
1010
0000
,
2001
0000
3100
0010
0000
0011
0000
0002
1000
0000
0000
0103
0010
0000
1000
0000
,
2100
0000
3100
0010
0000
0011
0000
0001
0100
0010
1000
0100
0010
0000
0011
0000
,
1002
0000
0103
0010
0000
1010
0000
1000
0100
0010
0001
0000
0101
0000
1100
0000
,
0012
0000
0013
0100
0000
1100
0000
1000
0010
0100
0001
0010
0100
0000
1100
0000
,
2001
0000
3010
0100
0000
0101
0000
0001
0010
0000
1100
0000
0011
0000
1010
0000
,
0102
0000
0103
0010
0000
1010
0000
1000
0100
0010
0001
0100
0010
0000
1010
0000
,
2001
0000
3100
0010
0000
0011
0000
0001
0100
0010
1000
0000
1100
0000
0101
0000
,
2010
0000
0000
3100
0010
0000
0001
0000
0101
0000
0100
0010
1000
0000
0100
0000
,
0012
0000
0203
0000
0310
1000
0100
0010
,
0001
0100
0010
0100
0001
0000
0010
0000
0100
1000
0010
1000
0100
0000
0010
0000
,
0001
1000
0100
1000
0001
0000
0100
0000
0010
1000
0100
1000
0010
0000
0100
0001
,
0010
0000
0100
2000
0000
3010
0100
0001
0010
0000
0100
2000
0000
3100
0010
0001
,
0100
0000
0010
2000
0000
3100
0010
0001
0100
0000
0010
1000
0001
0000
0011
0000
,
1000
0100
0010
0100
1000
0000
0010
0000
0100
0001
0010
0001
0100
0000
0010
0000
,
1000
0001
0100
0001
1000
0000
0100
0000
0010
0001
0100
0001
0010
0000
0100
1000
,
0010
0000
0100
0002
0000
0013
0100
1000
0010
0000
0100
0002
0000
0103
0010
1000
,
0100
0000
0010
0002
0000
0103
0010
1000
0100
0000
0010
0001
1000
0000
1010
0000
,
0001
0010
0100
0010
0001
0000
0100
0000
0010
1000
0100
1000
0010
0000
0100
0000
,
0001
1000
0010
1000
0001
0000
0010
0000
0100
1000
0010
1000
0100
0000
0010
0001
,
0100
0000
0010
2000
0000
3100
0010
0001
0100
0000
0010
2000
0000
3010
0100
0001
,
0010
0000
0100
2000
0000
3010
0100
0001
0010
0000
0100
1000
0001
0000
0101
0000
,
1000
0010
0100
0010
1000
0000
0100
0000
0010
0001
0100
0001
0010
0000
0100
0000
,
1000
0001
0010
0001
1000
0000
0010
0000
0100
0001
0010
0001
0100
0000
0010
0000
,
2010
0000
0000
3100
0010
0000
0001
0000
0012
0000
0103
0010
1000
0000
0100
0000
,
0220
0330
1001
0110
,
2020
0030
0010
0001
,
0200
0000
3000
0000
0310
0001
1000
0010
,
0200
0000
1000
0000
0301
1000
0100
0000
,
0010
0001
0100
0010
1000
0001
0010
0000
,
0022
0030
0010
1000
,
0200
0000
0003
0000
0310
1000
0001
0010
,
0200
0000
0001
0000
1300
0001
0100
0000
,
0010
1000
0010
0100
0001
1000
0100
0000
,
2200
0300
0100
0001
,
0020
0000
3000
0000
0130
0001
1000
0100
,
0020
0000
1000
0000
0031
1000
0010
0000
,
0100
0001
0010
0100
1000
0001
0100
0000
,
0202
0300
0100
1000
,
0020
0000
0003
0000
0130
1000
0001
0100
,
0020
0000
0001
0000
1030
0001
0010
0000
,
0000
0000
0000
0000
0000
0000
0000
0010
,
0100
1000
0001
1000
0010
0100
0001
1000
0001
0010
0100
1000
0001
0010
0100
1000
,
0001
1000
0001
0010
0001
1000
0010
1000
0100
0010
0001
0100
0010
1000
0001
0100
,
0010
1000
0001
1000
0100
0010
0100
1000
0001
0010
0100
0010
0001
1000
0001
0100
,
0010
1000
0100
1000
0001
0100
0001
0010
0100
1000
0010
0100
0001
1000
0010
0100
,
0001
0010
0100
0010
0001
1000
0001
0100
0010
1000
0001
1000
0100
0010
0100
1000
,
0001
1000
0001
0010
0001
1000
0010
1000
0001
0010
0100
1000
0001
0010
0100
1000
,
0001
0100
0010
0100
0001
1000
0001
0010
0100
1000
0001
1000
0010
0100
0010
1000
,
0001
1000
0001
0100
0001
1000
0100
1000
0010
0100
0001
2000
0100
0000
3100
0000
,
0010
0001
1000
0001
0100
0010
1000
0001
1000
0100
0010
0001
1000
0100
0010
0001
,
1000
0001
1000
0100
1000
0001
0100
0001
0010
0100
1000
0010
0100
0001
1000
0010
,
0100
0001
0100
0010
1000
0001
0010
0100
1000
0001
0100
0010
1000
0010
0100
0001
,
0010
0001
1000
0010
1000
0100
0010
0100
1000
0001
0100
0010
1000
0001
0100
0010
,
1000
0100
0010
0100
1000
0001
1000
0010
0100
0001
1000
0001
0010
0100
0010
0001
,
1000
0001
1000
0100
1000
0001
0100
0001
1000
0100
0010
0001
1000
0100
0010
0001
,
1000
0010
0100
0010
1000
0001
1000
0100
0010
0001
1000
0001
0100
0010
0100
0001
,
1000
0000
1100
0000
0000
0000
0101
0000
0000
0000
0000
1100
0000
0000
0101
0000
,
2010
0000
0100
3100
0020
1000
0000
0031
,
0100
0010
1000
0100
0010
0001
1100
0000
,
0012
0000
0100
0103
0020
0001
0000
1030
,
0100
0000
0010
0000
0100
1000
0001
0100
0010
0000
1000
0000
0101
0000
0000
0000
,
2100
0000
0010
3010
0200
1000
0000
0301
,
0010
0100
1000
0010
0100
0001
1010
0000
,
0102
0000
0010
0013
0200
0001
0000
1300
,
0010
0000
0100
0000
0010
1000
0001
0010
0100
0000
1000
0000
1010
0000
0001
0000
,
0012
0000
0100
0103
0020
0001
0000
1030
,
0100
0010
0001
0100
0010
1000
0101
0000
,
2010
0000
0100
3100
0020
1000
0000
0031
,
0100
0000
0010
0000
0100
0001
1000
0100
0010
0000
0001
0000
0101
0000
0000
0000
,
1100
0010
0001
1000
0010
0100
0001
0010
,
0100
1000
0001
0100
0010
1000
1100
0001
,
0102
0000
0000
0013
0100
0000
1000
0000
2100
0000
3001
0100
0020
0000
0130
0000
,
0010
1000
0001
0010
0100
0000
0110
0000
0010
0001
1000
0010
0200
0000
0300
0000
;
