#VERSION:0.83;
#TITLE:The 90's Decision;
#SUBTITLE:;
#ARTIST:MYUKKE.;
#TITLETRANSLIT:;
#SUBTITLETRANSLIT:;
#ARTISTTRANSLIT:;
#GENRE:;
#CREDIT:Sefirot & NAOKI;
#MUSIC:The 90's Decision.ogg;
#BANNER:The-90's-Decision-bn.png;
#BACKGROUND:The-90's-Decision-169-bg.png;
#CDTITLE:cdtitlenaokisefirot.png;
#SAMPLESTART:61.846;
#SAMPLELENGTH:15.020;
#SELECTABLE:YES;
#OFFSET:0.009;
#BPMS:0.000=128.000
,224.750=192.000
,225.000=128.000
;
#STOPS:224.750=0.020
,224.875=0.020
;
#WARPS:216.000=3.000;
#SPEEDS:0.000=1.000=0.000=0,
215.688=0.000=0.313=0,
216.000=0.000=0.000=0,
219.000=0.250=0.500=0,
220.000=1.000=4.000=0
;
#SCROLLS:0.000=1.000,
219.000=0.000,
220.000=1.000
;
#TICKCOUNTS:0.000=4;
#TIMESIGNATURES:0.000=4=4;
#LABELS:4.000=イントロ;
#ATTACKS:TIME=101.280:LEN=0.142:MODS=Confusion;
#COMBOS:0.000=1;
#DISPLAYBPM:128.000;
#ORIGIN:;
#PREVIEWVID:;
#JACKET:The-90's-Decision-jacket.png;
#CDIMAGE:;
#DISCIMAGE:;
#BGCHANGES:4.000=lua=1.000=1=0=1===CrossFade==,
279.500=The-90's-Decision-169-bg.png=1.000=1=0=1===CrossFade==,
99999.000=-nosongbg-=1.000=0=0=0=StretchNoLoop====
;
#FGCHANGES:;

//--------------- dance-single - NAOKI vs Sefirot FS BR XO- ----------------
#NOTEDATA:;
#STEPSTYPE:dance-single;
#DESCRIPTION:NAOKI vs Sefirot FS BR XO-;
#DIFFICULTY:Challenge;
#METER:12;
#RADARVALUES:0.83189,0.989893,0.432455,0.708331,1.144515,781,723,58,95,12,1,6,0,1,0.83189,0.989893,0.432455,0.708331,1.144515,781,723,58,95,12,1,6,0,1;
#DISPLAYBPM:128.000;
#CHARTNAME:;
#CHARTSTYLE:;
#CREDIT:;
#NOTES:
0000
0000
0000
0000
,
0000
0000
0000
0000
,
0000
0000
0000
0000
0000
0000
0000
1000
,
1001
0000
0000
0000
,
0001
0000
1000
0000
0100
0000
0010
0001
0000
1000
0010
0000
2010
0000
0001
0000
,
3100
1000
0001
0010
0100
0002
0003
0200
0300
1000
0001
0000
0100
0010
1000
0001
,
1010
0000
0001
1000
0010
0200
0300
2000
3000
0100
0001
1000
0200
0300
0020
0030
,
0001
0000
0000
0000
0000
0000
0001
0000
0000
0000
0000
0000
1000
0000
0000
0000
0000
0000
1000
0000
0000
0010
0000
0000
0000
0000
0000
0100
0000
0000
0001
0000
0000
1000
0000
0000
0100
0000
0010
0000
0100
0000
0010
0000
0000
0001
0000
0000
,
1000
0000
0010
0100
0001
0000
1000
0100
0000
0001
0100
1000
0011
0000
1000
0001
,
1020
0000
0100
0000
0031
0100
0010
1000
0000
0001
0010
0000
0100
00M0
0100
0000
,
0001
0000
1000
0000
0001
0000
0100
0010
0000
0100
0100
0000
0010
0000
1001
0000
,
1001
0000
1000
0000
0001
0100
0010
1000
0000
0001
0010
0000
0100
00M0
0100
0000
,
0001
0000
0000
0000
1000
0000
0000
0000
0010
0000
0000
0000
0100
0000
0000
0000
0001
0000
0000
0000
0010
0000
0000
0000
0000
0000
0000
0000
0100
0000
0000
0000
0000
0000
0000
0000
0002
0003
0000
0000
0200
0300
0000
0000
2000
3000
0000
0000
0002
0003
0000
0000
0200
0300
0000
0000
0020
0030
0000
0000
2000
3000
0000
0000
,
0202
0000
0303
0000
1000
0100
0010
0001
0000
1000
0010
0000
0100
00M0
0100
0000
,
1000
0000
0101
0000
1000
0000
0101
1000
0001
0000
1100
0001
1000
0000
1001
0000
,
0004
0010
0003
1000
0101
0000
1000
0010
0000
0100
0001
0000
0020
0000
0130
0000
,
0010
0001
1000
0000
0010
0100
0000
1000
0000
0100
0010
0000
1100
0000
0001
1000
,
0020
0000
0000
0000
0130
0000
0001
0000
1000
0000
0100
0000
0000
0000
0010
0000
0000
0000
0001
0000
0000
0000
1000
0000
0010
0000
0100
0000
0001
0000
1000
0100
,
1000
0001
0100
0010
1000
0100
0000
0002
0003
0100
1000
0001
1100
0000
0011
0000
,
2000
0000
0000
0000
3100
0000
0010
0000
0001
0000
0100
0000
0000
0000
0010
0000
0000
0000
1000
0000
0000
0000
0001
0000
0010
0000
0100
0000
1000
0000
0001
0100
,
0001
1000
0100
0010
0001
0100
0000
0020
0030
0100
0001
1000
0101
0000
1010
0000
,
0001
0000
1000
0000
0010
0000
0100
0000
1000
0000
0100
0000
0010
0000
1000
0000
0000
0000
0001
0000
0000
0000
0010
0000
0100
0000
1000
0000
0001
0000
0100
0010
,
0400
0000
0310
0000
1000
0001
0010
0100
0000
0010
0001
0000
1000
0010
0100
0001
,
0010
0000
0100
2000
0000
0010
0000
3002
0000
0010
0000
1003
0020
0030
0200
0300
,
0001
0010
0100
1000
0001
0100
0000
0011
0000
0100
0001
1000
0100
00M0
0100
0000
,
0001
0000
1000
0000
0100
0000
0000
0010
0000
0001
2000
0000
0000
3000
0020
0000
,
0230
0000
0000
0000
0302
0000
0013
0200
0000
0300
2000
3000
0020
0030
0200
0300
,
0002
0000
0000
0003
0020
0000
0130
2000
0000
3000
0002
0003
0200
0300
0020
0030
,
1000
0000
0001
0000
1000
0000
0001
0000
0000
0000
0000
0000
0010
0000
0000
0000
0000
0000
0100
0000
0000
1000
0000
0000
0000
0000
0000
0001
0000
0000
0100
0000
0000
0010
0000
0000
1000
0000
0000
0000
0000
0000
0001
0000
0000
0000
0000
0000
,
2000
0000
0100
0000
3002
0000
0103
0010
0000
1000
0001
0000
0010
0000
0010
0000
,
0002
0000
0100
0000
2003
0000
3100
0010
0000
0001
1000
0000
0010
0000
0010
0000
,
1000
0000
0000
0000
0000
0000
0000
0000
0000
0000
0000
0000
0000
0000
0000
0000
0000
0000
0000
0000
0000
0000
0000
0000
1000
0000
0000
0000
0000
0000
0000
0000
0000
0000
0000
0000
0000
0000
0000
0000
0000
0000
0000
0000
0000
0000
0000
0000
0001
0000
0000
0000
0000
0000
0000
0000
0000
0000
0000
0000
0000
0000
0000
0000
0000
0000
0000
0000
0000
0000
0000
0000
0001
0000
0000
0000
0000
0000
0000
0000
0000
0000
0000
0000
0010
0000
0000
0000
0000
0000
0000
0000
0000
0000
0000
0000
0000
0000
0000
0000
0000
0000
0000
0000
0000
0000
0000
0000
0100
0000
0000
0000
0000
0000
0000
0000
0000
1000
0000
0000
0000
0000
0000
0000
0000
0001
0000
0000
0000
0000
0000
0000
0000
0000
0100
0000
0000
0000
0000
0000
0000
0000
0010
0000
0000
0000
0000
0000
0000
0000
0000
1000
0000
0000
0000
0000
0000
0000
0000
0001
0000
0000
0000
0000
0000
0000
0000
0000
0010
0000
0000
0000
0000
0000
0000
0000
0000
0000
0000
0000
0000
0000
0000
0000
0000
0000
0000
0000
0000
0000
0000
0000
,
0100
1000
0001
0100
0011
1000
0100
0010
0001
0100
0010
1000
0101
0000
0000
0000
,
1002
0000
0000
0203
0000
0000
2000
3000
0000
0000
0320
0000
2030
0000
3200
0000
,
0000
0000
0302
0000
0000
0000
0203
0000
0320
0000
0032
0000
2003
0000
3020
0230
,
0000
0000
0302
0000
1013
0000
0001
1100
0010
1100
0001
1100
0020
0000
0130
0001
,
1000
0100
0010
0001
1100
0001
0100
0010
1000
0100
0100
0001
1000
0000
0001
0000
,
2001
0000
0000
3200
0000
0000
0002
0003
0000
0000
0320
0000
0032
0000
0203
0000
,
0000
2300
0000
3200
0320
2030
3002
0023
,
0230
0000
1000
0000
0310
0000
0100
1000
0001
0100
0100
1000
0040
0100
0030
1000
,
0001
0010
0100
1000
0101
0010
0010
1100
0010
0010
0101
1000
0022
0000
0033
0000
,
1000
0010
0100
0001
0010
2000
0000
3020
0000
0100
0130
0000
0010
0001
1000
0010
,
0200
0000
1300
0100
0001
1000
0100
0010
0000
0001
0100
00M0
0100
0000
1000
0000
,
0010
0100
0001
1000
0100
0002
0000
0203
0000
0010
0310
0000
0100
1000
0001
0100
,
0011
0000
1000
0001
1010
0001
1000
0100
0000
0010
0001
0000
0200
0000
0310
1000
,
0001
0010
0100
1000
0010
0002
0000
0023
0000
0100
0130
0000
0010
1000
0001
0010
,
2000
0000
3010
0100
1000
0001
0100
0010
0000
1000
0100
00M0
0100
0000
0001
0000
,
0010
0100
1000
0001
0100
2000
0000
3200
0000
0010
0310
0000
0100
0001
1000
0100
,
1010
0000
0001
1000
0011
1000
0001
0100
0000
0010
1000
0000
0200
0000
0310
0000
,
0001
0000
0001
0000
1000
0000
1000
0010
0000
0100
0001
1000
0200
0000
0010
0000
,
1300
0000
1000
0000
0001
0000
0001
0100
0000
0010
1000
0000
0001
0010
0100
1000
,
0001
0000
0000
0000
0000
0000
0000
0000
0000
0000
0000
0000
1000
0000
0000
0000
0000
0000
0000
0000
0000
0000
0000
0000
0010
0000
0000
0000
0000
0000
0000
0000
0000
0000
0000
0000
0100
0000
0000
0000
0000
0000
0000
0000
0000
0000
0000
0000
0001
0000
0000
0000
0000
0000
0000
0000
0000
0000
0000
0000
1000
0000
0000
0000
0000
0000
0000
0000
0000
0000
0000
0000
0100
0000
0000
0000
0000
0000
0000
0000
0000
0000
0000
0000
0010
0000
0000
0000
0000
0000
0000
0000
0000
0001
0000
0000
0000
0000
0000
0000
0000
1000
0000
0000
0000
0000
0000
0000
0000
0000
0010
0000
0000
0000
0000
0000
0000
0000
0100
0000
0000
0000
0000
0000
0000
0000
0000
0001
0000
0000
0000
0000
0000
0000
0000
1000
0000
0000
0000
0000
0000
0000
0000
0000
0100
0000
0000
0000
0000
0000
0000
0000
0000
0000
0000
0000
0000
0000
0000
0000
0000
0000
0000
0000
0000
0000
0000
0000
0010
0000
0000
0000
0000
0000
0000
0000
0000
0000
0000
0000
0000
0000
0000
0000
0000
0000
0000
0000
0000
0000
0000
0000
,
0001
0100
0010
1000
0001
0000
0010
0100
0000
1000
0001
0000
1100
0000
0011
0000
,
0200
0000
0000
0000
0000
0000
0000
0000
0010
0000
0000
0000
0000
0000
0000
0000
0301
0000
0000
0000
1000
0000
0000
0000
0100
0000
0000
0000
0010
0000
0000
0000
0000
0000
0000
0000
0001
0000
0000
0000
1000
0000
0000
0000
0000
0000
0000
0000
0010
0000
0000
0000
0000
0000
0000
0000
0000
0000
0000
0200
0000
0000
0000
0000
,
00M0
0000
0000
0000
,
0000
0010
0000
0010
,
0302
0000
0000
0000
0000
0000
0000
0000
0000
0000
0000
0000
0000
0M00
0000
0000
0040
0030
0000
0000
0000
0000
0000
0000
0000
0000
0000
0000
0000
0000
0000
0000
0000
0000
0000
0000
0000
0000
0000
0000
1003
0000
0000
0000
0000
0000
0000
0000
0100
0000
0000
0000
00M0
0000
0000
0000
0100
0000
0000
0000
0000
0000
0000
0000
,
0021
0000
0100
0000
1030
0100
0010
0001
0000
1000
0010
0000
0100
00M0
0100
0000
,
1000
0000
0000
0000
0000
0000
0000
0000
0001
0000
0000
0000
0000
0000
0000
0000
0100
0000
0000
0000
0001
0000
0000
0000
1000
0000
0000
0000
0100
0000
0000
0000
0000
0000
0000
0000
0010
0000
0000
0000
0001
0000
0000
0000
0000
0000
0000
0000
0200
0000
0000
0000
0300
0000
0000
0000
0040
0000
0000
0030
0000
0000
0000
0000
,
1000
0000
0000
0000
0100
0000
0000
0000
0010
0000
0000
0000
0001
0000
0000
0000
2000
0000
0000
0000
0000
0000
0000
0000
3001
0000
0000
0000
0100
0000
0000
0000
0000
0000
0000
0000
0010
0000
0000
0000
1000
0000
0000
0000
0000
0000
0000
0000
0200
0000
0000
0000
0300
0000
0000
0000
0040
0000
0000
0030
0000
0000
0000
0000
,
0001
0100
0010
0000
1000
0001
0000
0010
0000
0001
1000
0000
0011
0000
0100
0001
,
1000
0100
0010
0001
1100
0010
0100
0001
1000
0100
0100
0001
1010
0100
0010
0001
,
1000
0010
0010
0001
1100
0010
1000
0001
0100
0100
0020
0000
0130
1000
0011
0100
,
0011
1000
0100
0010
0101
1000
0010
0100
0001
0010
0010
1000
0101
1000
0010
0100
,
0001
0010
0010
1000
0100
0100
0001
1000
0000
0001
1000
0000
1001
0000
0004
0000
,
1003
0010
0100
0001
1010
0100
0010
0001
1000
0010
0010
0001
1100
0010
0100
0001
,
1000
0100
0100
0001
1010
0100
1000
0001
0010
0010
0200
0000
0310
1000
0100
0010
,
0001
0000
0001
0000
1000
0000
1000
0010
0000
0100
0001
1000
0400
0000
0310
0001
,
1000
0000
0010
0100
0011
0000
1000
0100
0000
0001
0100
1000
0022
0000
0033
0000
,
1100
0000
0001
1000
0101
0010
0000
0001
1100
0010
0000
1100
0001
1000
0101
0000
;
