#TITLE:The 89's Momentum;
#SUBTITLE:;
#ARTIST:MYUKKE.;
#TITLETRANSLIT:;
#SUBTITLETRANSLIT:;
#ARTISTTRANSLIT:;
#GENRE:;
#CREDIT:NAOKI;
#MUSIC:The 89's Momentum.ogg;
#BANNER:The-89's-Momentum-bn.png;
#BACKGROUND:The-89's-Momentum-bg.png;
#CDTITLE:naokicdtitle.png;
#SAMPLESTART:60.983;
#SAMPLELENGTH:14.531;
#SELECTABLE:YES;
#OFFSET:-0.983;
#BPMS:0.000=128.000;
#STOPS:;
#JACKET:The-89's-Momentum-jacket.png;
#BGCHANGES:;
#FGCHANGES:;

//--------------- dance-single - NAOKI FS JA BR XO 32nds ----------------
#NOTES:
     dance-single:
     NAOKI FS JA BR XO 32nds:
     Challenge:
     11:
     0,0,0,0,0:
0000
0000
0000
0000
,
0000
0000
0000
0000
0000
0000
0000
0110
,
1001
0000
0000
0000
,
0001
0000
0000
0000
0000
0000
0000
0000
1000
0000
0000
0000
0000
0000
0000
0000
0001
0000
0000
0000
0000
0000
0000
0000
1000
0000
0000
0000
0000
0000
0000
0000
0000
0000
0000
0000
0010
0000
0000
0000
0000
0000
0000
0000
0000
0000
0000
0000
0100
0000
0000
0000
0000
0000
0000
0000
0000
0000
0000
0000
0001
0000
0000
0000
0000
0000
0000
0000
0000
0000
0000
0000
1000
0000
0000
0000
0000
0000
0000
0000
0000
0000
0000
0000
0100
0000
0000
0000
0000
0000
0000
0000
0000
0000
0000
0000
0000
0000
0000
0000
0000
0000
0000
0000
0000
0000
0000
0000
0010
0000
0000
0000
0000
0000
0000
0000
0000
0000
0000
0000
0001
0000
0000
0000
0000
0000
0000
0000
0000
0000
0000
0000
1000
0000
0000
0000
0000
0000
0000
0000
0000
0000
0000
0000
0020
0000
0000
0030
0000
0000
0000
0000
0000
0000
0000
0000
0000
0000
0000
0000
0000
0000
0000
0000
0000
0000
0000
0000
0100
0000
0000
0000
0000
0000
0000
0000
0000
0000
0000
0000
0000
0000
0000
0000
0000
0000
0000
0000
0000
0000
0000
0000
,
0001
0010
0100
1000
0001
0100
0000
0010
0000
1000
0100
0010
0001
0100
0000
0010
,
2000
0000
0100
0000
3002
0000
0103
0010
0000
0100
0001
1000
0100
0000
0010
0000
,
0001
0000
0000
0000
0000
0000
0001
0000
0000
0000
0000
0000
1000
0000
0000
0000
0000
0000
1000
0000
0000
0010
0000
0000
0000
0000
0000
0100
0000
0000
0010
0000
0000
1000
0000
0000
0001
0000
0010
0000
0001
0000
1000
0000
0000
0000
0000
0000
,
0020
0030
0200
0300
0001
0010
0100
1000
0000
0010
0100
0001
0020
0000
0000
0000
,
0130
0000
1000
0000
0001
0100
0010
1000
0000
0100
0100
0000
0010
0000
0001
0000
,
1000
0010
1000
0000
0001
0010
0100
1000
0000
0010
0010
0000
0200
0000
0310
1000
,
0001
0000
0000
0000
0010
0000
0000
0000
0400
0300
0000
0000
0000
0000
0000
0000
1000
0000
0000
0000
0010
0000
0000
0000
0400
0300
0000
0000
0001
0000
0000
0000
0000
0000
0000
0000
1000
0000
0000
0000
0400
0300
0000
0000
0000
0000
0000
0000
0020
0000
0000
0000
0000
0000
0000
0000
0130
0000
0000
0000
0000
0000
0000
0000
,
1000
0010
0100
0000
0001
0100
0010
1000
0001
0010
0010
0000
0100
0000
1000
0001
,
0200
0000
0310
0000
1000
0100
0010
0001
0000
1000
0010
0000
1100
0000
0011
0000
,
1000
0100
1000
0000
0001
0100
0010
1000
0000
0001
0010
0000
0101
0000
1010
0000
,
0002
0000
1003
0000
0100
0010
0001
0000
0100
0010
1000
0000
0100
00M0
0100
0000
,
0001
0000
0000
0000
0000
0000
0000
0000
1000
0000
0000
0000
0000
0000
0000
0000
0100
0000
0000
0000
0000
0000
0000
0000
0010
0000
0000
0000
0001
0000
0000
0000
0000
0000
0000
0000
1000
0000
0000
0000
0020
0000
0000
0000
0000
0000
0000
0000
0200
0300
0000
0000
0000
0000
0000
0000
1030
0000
0000
0000
0000
0000
0000
0000
,
0100
0000
0010
0000
0001
0000
1000
0010
1000
0000
0001
0000
0000
0000
1000
0000
0000
0000
0100
0000
0010
0000
0001
0000
0100
0000
0010
0000
1000
0000
0001
0000
,
2020
3030
0000
0000
0000
0000
0000
0000
0001
0000
0000
0000
1000
0000
0000
0000
0022
0033
0000
0000
0000
0000
0000
0000
1000
0000
0000
0000
0100
0000
0000
0000
0000
0000
0000
0000
0010
0000
0000
0000
0001
0000
0000
0000
1000
0000
0000
0000
0010
0000
0000
0000
0000
0000
0000
0000
0100
0000
0000
0000
0000
0000
0000
0000
,
0010
0000
0000
0000
1000
0000
0001
0010
0001
0000
1000
0000
0001
0000
0100
0000
0010
0000
0001
0000
0000
0000
0010
0000
1000
0000
0000
0000
0001
0000
0000
0000
,
0010
0000
0100
0000
1000
0000
0001
0100
0001
0000
1000
0000
0000
0000
0001
0000
0000
0000
1000
0000
0100
0000
0010
0000
0001
0000
0000
0000
1000
0000
0000
0000
,
1010
0000
1100
0000
0100
0010
0001
0000
1000
0010
0100
0000
0010
1000
0001
0000
,
0011
0000
0101
0000
0100
0000
0010
0000
1000
0010
1000
0001
0010
0000
0100
0000
,
1000
0010
0100
0001
1000
0100
0010
0002
0003
0100
0010
1000
0001
0010
0100
1000
,
0001
0100
0001
1000
0100
0010
0001
2000
3000
0010
0100
0001
1000
0100
0010
0000
,
0001
0100
0010
1000
0200
0310
0001
0200
,
0300
0000
0010
0000
1000
0000
0001
0010
0001
0000
1000
0000
0010
0000
0000
0000
,
1000
0010
0100
0001
0020
0130
1000
0020
,
0030
0000
0100
0000
0001
0000
1000
0100
1000
0000
0001
0000
0100
0010
1000
0001
,
0010
0000
0100
1000
0001
0000
0100
0010
1000
0000
0001
0010
0100
0000
1000
0000
,
0000
0001
0100
0010
1000
0001
0010
0001
1000
0010
0100
0001
1000
0000
0001
0000
,
0010
0100
1000
0001
0100
0001
1000
0100
0010
0001
1000
0010
0100
0000
0002
0000
,
0003
0000
0000
0000
0000
0000
0000
0000
0000
0000
0000
0000
0000
0000
0000
0000
0000
0000
0000
0000
0000
0000
0000
0000
0101
0000
0000
0000
0000
0000
0000
0000
0000
0000
0000
0000
0000
0000
0000
0000
0000
0000
0000
0000
0000
0000
0000
0000
1010
0000
0000
0000
0000
0000
0000
0000
0000
0000
0000
0000
0000
0000
0000
0000
0000
0000
0000
0000
0000
0000
0000
0000
1100
0000
0000
0000
0000
0000
0000
0000
0000
0000
0000
0000
0000
0000
0000
0000
0000
0000
0000
0000
0000
0000
0000
0000
0100
0000
0000
0000
0000
0000
0000
0000
0000
0000
0010
0000
0000
0000
0000
0000
0000
0000
0000
0001
0000
0000
0000
0000
0000
0000
0000
0000
0000
1000
0000
0000
0000
0000
0000
0000
0000
0000
0010
0000
0000
0000
0000
0000
0000
0000
0000
0000
0200
0000
0000
0000
0000
0000
0000
0000
0000
0000
0000
0000
0000
0000
0000
0000
0000
0000
0000
0000
0000
0000
0000
0000
0310
0000
0000
0000
0000
0000
0000
0000
0000
0000
0000
0000
0000
0000
0000
0000
0000
0000
0000
0000
0000
0000
0000
0000
,
1020
0000
0130
0001
0010
0000
1000
0010
0001
0000
2000
3000
0002
0003
0200
0000
,
0010
0000
0302
0003
2000
3000
0200
0300
0010
0001
1000
0010
0100
0001
1000
0000
,
0200
0300
0020
0030
0200
0300
1000
0001
0100
0000
0010
1000
0001
0010
0100
0000
,
2000
0000
3001
0100
0010
0000
1000
0100
0010
0000
0001
0000
0102
0000
1003
0100
,
0020
0000
0130
1000
0010
0000
0001
0010
1000
0000
0002
0003
2000
3000
0200
0000
,
0010
0000
1300
0001
0000
0100
0010
1000
0100
1000
0001
0100
0001
1000
0100
0000
,
1000
0000
0010
0000
0100
0000
0001
0000
1000
0000
0100
0000
1000
0000
0001
0000
0100
0000
0010
0000
1000
0000
0001
0000
0040
0030
0000
0000
0001
0000
0100
00M0
,
0100
0000
0000
0000
1000
0000
0000
0000
0020
0030
0000
0000
0000
0000
0000
0000
1000
0000
0000
0000
0100
0000
00M0
0000
0100
0000
0000
0000
0001
0000
0000
0000
0020
0030
0000
0000
0000
0000
0000
0000
0001
0000
0000
0000
0000
0000
0000
0000
2100
0000
0000
0000
0000
0000
0000
0000
0000
0000
0000
0000
0000
0000
0000
0000
,
3001
0000
0000
0000
1000
0000
0010
0M00
0010
0000
0001
0000
0010
0M00
0010
0000
1000
0000
0001
0000
0010
0000
0000
0000
0100
0000
0000
0000
2000
0000
0000
0000
,
0000
0000
3001
0000
0100
00M0
0100
0000
1000
0000
0100
00M0
0100
0000
0001
0000
1000
0000
0100
0000
0010
0000
0000
0000
0002
0000
0000
0000
0000
0000
0000
0000
,
1003
0000
0000
0000
0001
0000
0100
00M0
0100
0000
1000
0000
0100
00M0
0100
0000
0001
0000
1000
0000
0100
0000
0000
0000
0010
0000
0000
0000
0001
0000
0000
0000
,
0000
0000
1000
0000
0010
0M00
0010
0000
0001
0000
0100
00M0
0100
0000
1000
0000
0010
0000
0100
0000
0001
0000
0000
0000
0102
0000
0000
0000
0000
0000
0000
0000
,
1003
0000
0000
0000
0001
0000
0010
0M00
0010
0000
1000
0000
0010
0M00
0010
0000
0001
0000
1000
0000
0010
0000
0000
0000
0100
0000
0000
0000
0002
0000
0000
0000
,
0000
0000
1003
0000
0100
00M0
0100
0000
0001
0000
0100
00M0
0100
0000
1000
0000
0001
0000
0100
0000
0010
0000
0000
0000
2000
0000
0000
0000
0000
0000
0000
0000
,
3001
0000
0000
0000
1000
0000
0100
00M0
0100
0000
0001
0000
0100
00M0
0100
0000
1000
0000
0001
0000
0100
0000
0000
0000
0010
0000
0000
0000
1000
0000
0000
0000
,
0000
0000
0001
0000
0010
0M00
0010
0000
1000
0000
0100
00M0
0100
0000
0001
0000
0010
0000
0100
0000
1000
0000
0000
0000
2002
0000
0000
0000
3003
0000
0000
0000
,
0001
0000
1000
0000
0010
0000
0100
0001
0000
1000
0100
0000
0010
0000
0001
0000
,
1000
0000
0010
0000
0100
0000
0001
0010
0000
0100
1000
0000
0001
0000
0101
0000
,
1010
0000
1000
0000
0100
0000
0010
0001
0000
1000
0010
0000
0100
0000
0001
0000
,
1000
0100
0010
0100
1000
0000
0001
0100
0000
0010
1000
0000
0001
0000
1000
0000
,
1100
0000
0001
0000
0011
0000
1000
0000
0010
0100
0001
1000
0100
0010
0001
0000
,
0101
0000
1000
0000
1010
0000
0010
0100
0001
1000
0001
0010
0100
1000
0001
0000
,
0100
0000
0100
0000
0010
0000
0010
0000
1000
0100
0010
0001
0100
0010
1000
0001
,
0020
0000
0000
0000
0000
0000
0000
0000
0100
0000
0000
0000
0000
0000
0000
0000
0031
0000
0000
0000
0000
0000
0000
0000
1000
0000
0000
0000
0010
0000
0000
0000
0000
0000
0000
0000
0000
0000
0000
0000
0100
0000
0000
0000
0000
0000
0000
0000
0002
0003
0000
0000
0000
0000
0000
0000
0002
0003
0000
0000
0000
0000
0000
0000
,
2000
0100
0000
3010
,
2020
3000
0000
0000
0000
0000
0000
0000
0000
0000
0000
0000
0000
0000
0000
0000
0004
0003
0000
0000
0000
0000
0000
0000
0000
0000
0000
0000
0000
0000
0000
0000
2030
3000
0000
0000
0000
0000
0000
0000
0000
0000
0000
0000
0000
0000
0000
0000
1010
0000
0000
0000
0000
0000
0000
0000
0101
0000
0000
0000
0000
0000
0000
0000
,
0100
0000
0001
0000
1000
0100
0010
0001
0000
0100
0100
0000
0010
0000
1000
0000
,
0001
0010
0001
0000
1000
0010
0100
0001
0000
0010
0010
0000
0100
0000
0010
0001
,
1000
0000
0000
0000
0010
0000
0000
0000
0400
0300
0000
0000
0000
0000
0000
0000
0001
0000
0000
0000
0010
0000
0000
0000
0400
0300
0000
0000
1000
0000
0000
0000
0000
0000
0000
0000
0001
0000
0000
0000
0400
0300
0000
0000
0000
0000
0000
0000
0011
0000
0000
0000
0000
0000
0000
0000
1100
0000
0000
0000
0000
0000
0000
0000
,
0001
0000
0000
0000
0000
0000
0000
0000
1000
0000
0000
0000
0010
0000
0000
0000
0100
0000
0000
0000
0000
0000
0000
0000
0010
0000
0000
0000
1000
0000
0000
0000
0000
0000
0000
0000
0001
0000
0000
0000
0020
0000
0000
0000
0000
0000
0000
0000
0200
0300
0000
0000
0000
0000
0000
0000
0031
0000
0000
0000
0000
0000
0000
0000
,
0100
0000
0010
0000
1000
0000
0001
0000
0010
0000
0100
0000
0000
0000
1000
0000
0000
0000
0001
0100
0001
0000
1000
0000
0100
0000
0010
0000
0001
0000
1000
0000
,
0022
0033
0000
0000
0000
0000
0000
0000
1000
0000
0000
0000
0001
0000
0000
0000
2020
3030
0000
0000
0000
0000
0000
0000
0001
0000
0000
0000
0100
0000
0000
0000
0000
0000
0000
0000
0010
0000
0000
0000
1000
0000
0000
0000
0001
0000
0000
0000
0010
0000
0000
0000
0000
0000
0000
0000
0100
0000
0000
0000
0000
0000
0000
0000
,
0010
0000
0001
1000
0010
1000
0001
0010
0100
1000
0000
0001
0100
0000
0010
0000
,
0100
0001
1000
0001
0010
1000
0000
0110
0000
0001
1000
0000
0010
0000
0100
0000
,
0010
1000
0001
0010
0100
0000
0010
0001
0000
1000
0010
0000
0100
0000
0001
0000
,
1000
0100
0010
0001
1000
0000
0001
0100
0000
0010
1000
0000
0001
0000
0010
0000
,
0011
0000
0000
0000
0000
0000
1100
0000
0000
0000
0000
0000
1010
0000
0000
0000
0000
0000
0010
0000
0000
0100
0000
0000
0000
0000
0000
0001
0000
0000
0010
0000
0000
0100
0000
0000
1000
0000
0001
0000
1000
0000
0001
0000
0000
0000
0000
0000
,
0100
0010
1000
0001
0010
0000
0100
1000
0000
0001
0100
0000
2001
0000
0000
0000
,
3200
0000
0000
0310
0000
0100
1000
0001
0200
0000
0000
0310
0000
0000
0000
0000
;
