#TITLE:TatsumiyaTEK #05;
#SUBTITLE:;
#ARTIST:Hayakore Tatsumi;
#TITLETRANSLIT:;
#SUBTITLETRANSLIT:;
#ARTISTTRANSLIT:;
#GENRE:;
#CREDIT:NAOKI;
#MUSIC:TatsumiyaTEK #05.ogg;
#BANNER:TatsumiyaTEK05-bn.png;
#BACKGROUND:TatsumiyaTEK05-bg.png;
#CDTITLE:naokicdtitle.png;
#SAMPLESTART:345.605;
#SAMPLELENGTH:14.012;
#SELECTABLE:YES;
#OFFSET:-0.223;
#BPMS:0.000=200.000
,22.792=6553600.000
,26.208=200.000
;
#STOPS:26.208=1.019;
#DISPLAYBPM:200.000;
#ORIGIN:;
#PREVIEWVID:;
#JACKET:TatsumiyaTEK05-jacket.png;
#CDIMAGE:;
#DISCIMAGE:;
#BGCHANGES:22.792=flash=1.000=0=0=1,
27.000=TatsumiyaTEK05_wide-bg.png=1.000=1=0=1===CrossFade==,
99999.000=-nosongbg-=1.000=0=0=0=StretchNoLoop====
;
#FGCHANGES:0.000=lua=1.000=0=0=1;

//--------------- dance-single - NAOKI 8th Stream ----------------
#NOTES:
     dance-single:
     NAOKI 8th Stream:
     Easy:
     11:
     0.682759,0.665187,0.107078,0.793941,0.013058,1830,1789,41,304,2,0,2,0,0,0.682759,0.665187,0.107078,0.793941,0.013058,1830,1789,41,304,2,0,2,0,0:
0000
0000
0000
0000
,
0000
0000
0000
0000
,
0000
0000
0000
0000
,
0000
0000
0000
0000
,
0000
0000
0000
0000
,
0000
0000
0000
0000
0000
0000
0000
0000
0000
0000
0000
0000
0000
0000
0000
0000
0000
0000
0000
0000
0000
0000
0000
0000
0000
0000
0000
0000
0000
0000
0000
0000
0000
0000
0000
0000
0000
0000
0000
0000
0000
0000
0000
0000
0000
0000
0000
0000
0000
0000
0000
0000
0000
0000
0000
0000
0000
0000
0000
0000
0000
0000
0000
0000
0000
0000
0000
M00M
0000
0000
0000
0000
0000
0000
0000
0000
0000
0000
0000
0000
0000
0000
0000
0000
0000
0000
0000
0000
0000
0000
0000
0000
0000
0000
0000
0000
,
0000
0000
0000
0000
,
0000
0000
0000
0000
,
1000
0100
1000
0001
,
0100
0001
0010
0100
,
2000
3002
0203
0320
,
2030
3002
0023
0230
,
1300
0010
1000
0001
,
0010
0001
0100
0010
,
2000
3200
0320
0032
,
0103
0000
0100
0000
0010
1000
0100
0010
,
0001
0100
0001
1000
,
0100
1000
0010
0100
,
0002
2003
3200
0320
,
0032
2003
3020
0230
,
0301
0010
0001
1000
,
0010
1000
0100
0010
,
0002
0203
0320
2030
,
3100
0000
0100
0000
0010
0001
0100
0010
,
1000
0100
1000
0001
0100
0001
0010
0100
,
1000
0010
1000
0001
0010
0001
0100
0010
,
1000
0100
1000
0001
0100
0001
0010
0100
,
1000
0010
1000
0001
0010
0001
1000
0001
,
0100
0001
1000
0100
1000
0010
0100
0001
,
0010
0001
1000
0010
1000
0100
0010
0001
,
0200
0000
0000
0000
0000
0000
0000
0300
0002
0000
0000
0000
0000
0000
0000
0003
2000
0000
0000
0000
0000
0000
3000
0000
0200
0000
0000
0000
0000
0000
0300
0000
2000
0000
0000
0000
0000
3000
0000
0000
0020
0000
0000
0000
0000
0030
0000
0000
0200
0000
0000
0000
0300
0000
0000
0000
0002
0000
0000
0000
0003
0000
0000
0000
,
0020
0000
0000
0030
0000
0000
0000
0000
0002
0000
0000
0003
0000
0000
0000
0000
2000
0000
3000
0000
0000
0000
0000
0000
0020
0000
0030
0000
0000
0000
0000
0000
2000
3000
0000
0000
0000
0000
0000
0000
0200
0300
0000
0000
0000
0000
0000
0000
0020
0030
0000
0000
0000
0000
0000
0000
0002
0003
0000
0000
0000
0000
0000
0000
,
1000
0010
1000
0001
0010
0001
0100
0010
,
1000
0100
1000
0001
0100
0001
0010
0100
,
1000
0010
1000
0001
0010
0001
0100
0010
,
1000
0100
1000
0001
0100
0001
1000
0001
,
0010
0001
1000
0010
1000
0100
0010
0001
,
0100
0001
1000
0100
1000
0010
0100
0001
,
0020
0000
0000
0000
0000
0000
0000
0030
0002
0000
0000
0000
0000
0000
0000
0003
2000
0000
0000
0000
0000
0000
3000
0000
0020
0000
0000
0000
0000
0000
0030
0000
2000
0000
0000
0000
0000
3000
0000
0000
0200
0000
0000
0000
0000
0300
0000
0000
0020
0000
0000
0000
0030
0000
0000
0000
0002
0000
0000
0000
0003
0000
0000
0000
,
0200
0000
0000
0300
0000
0000
0000
0000
0002
0000
0000
0003
0000
0000
0000
0000
2000
0000
3000
0000
0000
0000
0000
0000
0200
0000
0300
0000
0000
0000
0000
0000
2000
3000
0000
0000
0000
0000
0000
0000
0020
0030
0000
0000
0000
0000
0000
0000
0200
0300
0000
0000
0000
0000
0000
0000
0002
0003
0000
0000
0000
0000
0000
0000
,
0040
0000
0000
0000
0030
0100
1000
0001
,
0200
0000
0300
0000
,
0020
0000
0030
0000
,
2000
0000
0000
3002
0000
0023
0000
0230
,
0000
0300
2000
3002
,
0203
0000
0320
0230
0000
0302
0000
2003
,
0000
3000
0100
0020
0000
0031
0000
1000
,
0020
0000
0000
0130
0000
0010
0100
0002
,
0000
0000
0003
1000
,
0200
0000
0300
0000
,
0020
0000
0030
0000
,
0002
0000
0000
2003
0000
3020
0000
0230
,
0000
0000
0300
0000
0002
0003
2000
3000
,
0200
0000
0320
0230
0000
2300
0000
3002
,
0000
0003
0200
0000
0320
0000
2030
0000
,
3002
0000
0013
0200
0000
2300
0000
3020
,
0000
0000
0000
0030
,
1001
0000
0000
0000
,
1000
0100
0010
0001
1000
0010
0100
0001
,
0010
0000
0100
1000
0000
0001
0000
0100
,
0000
0010
0100
0000
0010
1000
0001
1000
,
0001
0010
0001
1000
0010
1000
0100
0010
,
0001
1000
0001
0100
0010
1000
0001
0010
,
0100
0010
0001
1000
0010
1000
0001
0010
,
0001
1000
0001
0100
0010
1000
0001
0010
,
0100
0010
0001
1000
0010
0100
0010
1000
,
0001
1000
0100
0010
0001
0100
0010
0100
,
0001
1000
0100
0010
0000
0001
0100
0010
,
0000
1000
0001
0000
0010
0100
0010
0001
,
1000
0010
1000
0001
0010
0001
0100
0010
,
1000
0001
1000
0100
0010
0001
1000
0010
,
0100
0010
1000
0001
0010
0001
1000
0010
,
1000
0001
1000
0100
0010
0001
1000
0010
,
0100
0010
1000
0001
0010
0100
0010
0001
,
1000
0001
0100
0010
1000
0100
0010
0100
,
1000
0001
0100
0010
0000
1000
0100
0010
,
0000
0001
1000
0000
0010
0100
0010
0100
,
0002
0000
0000
0000
,
0003
0000
0000
0000
0000
0000
1000
0100
,
0010
0000
0001
1000
0000
0010
0000
0100
,
0000
0001
1000
0000
0100
0010
0001
0000
,
1000
0010
1000
0001
1000
0100
0010
0001
,
1000
0100
1000
0001
1000
0010
0100
0001
,
1000
0010
1000
0001
1000
0100
0010
0001
,
1000
0100
1000
0001
1000
0010
0100
0001
,
0010
0001
1000
0001
0100
0010
1000
0001
,
0100
0001
1000
0001
0010
0100
1000
0001
,
0020
0230
2300
3002
0203
0320
2030
3002
,
0023
0230
2300
3002
0203
0320
0230
0301
,
1000
0100
1000
0010
1000
0001
0100
0001
,
0010
0001
1000
0010
1000
0100
1000
0001
,
0010
0001
0100
0001
1000
0100
0010
0100
,
1000
0001
0100
0010
0100
0001
1000
0010
,
0100
0010
1000
0001
0010
0100
0010
0001
,
1000
0010
0100
0001
0010
0001
0100
0010
,
1000
0100
0010
0001
0100
0001
0010
0100
,
1000
0001
0100
0010
1000
0100
1000
0010
,
0100
0000
0001
0000
0000
0001
0000
0000
0010
0000
0000
0010
0000
0000
0100
0000
,
0000
0000
1000
0000
0000
1000
0000
0000
0010
0000
0000
0010
0000
0000
0100
0000
,
0000
0000
0010
0000
0000
0010
0000
0000
1000
0000
0000
0001
0000
0000
0010
0000
,
0000
0000
0100
0000
0000
0100
0000
0000
1000
0000
0000
0001
0000
0000
0100
0000
,
0001
0010
0100
1000
0001
0100
0010
1000
,
0100
0010
0001
1000
0010
0100
0001
1000
,
0100
1000
0001
0100
0010
0100
0001
1000
,
0200
0000
0310
0000
,
0001
0100
0001
1000
0001
0010
0100
1000
,
0010
1000
0001
1000
0100
0010
0001
1000
,
0100
1000
0001
1000
0010
0100
0001
0010
,
0001
1000
0001
0100
0010
1000
0100
0010
,
0001
0100
0001
1000
0001
0010
0100
1000
,
0010
1000
0001
1000
0100
0010
0001
0010
,
0100
1000
0001
0100
0010
1000
0010
0100
,
0001
0010
0100
1000
0001
0100
0010
1000
,
0001
0010
0001
1000
0001
0100
0010
1000
,
0100
1000
0001
1000
0010
0100
0001
1000
,
0010
1000
0001
1000
0100
0010
0001
0100
,
0001
1000
0001
0010
0100
1000
0010
0100
,
0001
0010
0001
1000
0001
0100
0010
1000
,
0100
1000
0001
1000
0010
0100
0001
0100
,
0010
1000
0001
0010
0100
1000
0100
0010
,
0001
0100
0010
1000
0001
0010
0100
1000
,
0010
0000
0100
0001
0000
1000
0000
0100
,
0000
0000
0010
0000
0000
0000
0000
0000
0001
0000
0000
0100
0000
0000
0010
0000
,
1000
0100
1000
0001
1000
0010
0100
0001
,
0010
0001
1000
0001
0100
0010
1000
0001
,
0020
0100
0100
0130
,
1000
0000
0000
0000
0000
0000
0000
0000
0002
0003
0000
0000
0000
0000
0000
0000
1000
0000
0000
0000
0000
0000
0000
0000
0020
0030
0000
0000
0000
0000
0000
0000
1000
0000
0000
0000
0000
0000
0000
0000
0002
0003
0000
0000
0000
0000
0000
0000
1000
0000
0000
0000
0000
0000
0000
0000
0200
0300
0000
0000
0000
0000
0000
0000
,
1000
0000
0000
0000
0000
0000
0000
0000
0002
0003
0000
0000
0000
0000
0000
0000
1000
0000
0000
0000
0000
0000
0000
0000
0020
0030
0000
0000
0000
0000
0000
0000
1000
0000
0000
0000
0000
0000
0000
0000
0002
0003
0000
0000
0000
0000
0000
0000
1000
0000
0000
0000
0000
0000
0000
0000
0200
0300
0000
0000
0000
0000
0000
0000
,
1000
0000
0000
0000
0000
0000
0000
0000
0002
0003
0000
0000
0000
0000
0000
0000
1000
0000
0000
0000
0000
0000
0000
0000
0020
0030
0000
0000
0000
0000
0000
0000
1000
0000
0000
0000
0000
0000
0000
0000
0002
0003
0000
0000
0000
0000
0000
0000
1000
0000
0000
0000
0000
0000
0000
0000
0200
0300
0000
0000
0000
0000
0000
0000
,
0010
0000
0000
0000
0000
0000
0000
0000
0002
0003
0000
0000
0000
0000
0000
0000
1000
0000
0000
0000
0000
0000
0000
0000
0002
0003
0000
0000
0000
0000
0000
0000
0100
0000
0000
0000
0000
0000
0000
0000
0002
0003
0000
0000
0000
0000
0000
0000
1000
0000
0000
0000
0000
0000
0000
0000
0001
0000
0000
0000
0000
0000
0000
0000
,
0010
0100
1000
0001
1000
0010
1000
0001
,
0010
0001
1000
0001
0100
0001
1000
0001
,
0010
0100
1000
0001
1000
0010
1000
0001
,
0010
0100
1000
0100
0010
0001
1000
0010
,
0100
0001
0100
0010
1000
0001
1000
0100
,
0010
0100
1000
0001
0100
0010
1000
0100
,
1000
0010
0100
0001
1000
0100
0010
0001
,
0100
0001
0010
0100
1000
0001
0100
0010
,
1000
0100
1000
0001
1000
0010
0100
0001
,
0010
0001
0100
0001
1000
0100
0010
0001
,
0100
0000
0000
0000
0000
0000
0000
0000
0001
0000
0000
0000
0000
0000
0000
0000
0010
0000
0000
0000
0000
0000
0000
0000
0001
0000
0000
0000
0000
0000
0000
0000
1000
0000
0000
0000
0000
0000
0000
0000
0020
0030
0000
0000
0000
0000
0000
0000
0200
0300
0000
0000
0000
0000
0000
0000
0020
0030
0000
0000
0000
0000
0000
0000
,
1000
0100
1000
0001
1000
0010
0100
0001
,
1000
0100
1000
0001
1000
0010
0100
0001
,
1000
0010
1000
0001
1000
0100
0010
0001
,
1000
0010
1000
0001
1000
0100
0010
0001
,
0100
0001
1000
0001
0010
0100
1000
0001
,
0100
0001
1000
0001
0010
0100
1000
0001
,
2000
0000
0000
0000
0000
0000
0000
0000
0000
0000
0000
0000
0000
0000
0000
0000
0000
0000
3000
0000
0000
0000
0000
0000
0200
0000
0000
0000
0000
0000
0000
0000
0000
0000
0000
0000
0000
0000
0000
0000
0000
0000
0300
0000
0000
0000
0000
0000
0020
0000
0000
0000
0000
0000
0000
0000
0000
0000
0000
0000
0000
0000
0000
0000
0000
0030
0000
0000
0000
0000
0000
0000
0002
0000
0000
0000
0000
0000
0000
0000
0000
0000
0000
0000
0000
0000
0000
0000
0000
0000
0003
0000
0000
0000
0000
0000
0020
0000
0000
0000
0000
0000
0000
0000
0000
0000
0000
0000
0030
0000
0000
0000
0000
0000
0000
0000
0000
0000
0000
0000
0200
0000
0000
0000
0000
0000
0000
0000
0000
0000
0000
0000
0300
0000
0000
0000
0000
0000
0000
0000
0000
0000
0000
0000
2000
0000
0000
0000
0000
0000
0000
0000
0000
0000
0000
0000
3000
0000
0000
0000
0000
0000
0000
0000
0000
0000
0000
0000
0002
0000
0000
0000
0000
0000
0000
0000
0000
0003
0000
0000
0000
0000
0000
0000
0000
0000
0000
0000
0000
0000
0000
0000
,
0200
0000
0000
0300
0000
0000
0000
0000
0020
0000
0000
0030
0000
0000
0000
0000
2000
0000
3000
0000
0000
0000
0000
0000
0020
0000
0030
0000
0000
0000
0000
0000
0200
0000
0300
0000
0000
0000
0000
0000
0002
0003
0000
0000
0000
0000
0000
0000
2000
3000
0000
0000
0000
0000
0000
0000
0200
0300
0000
0000
0000
0000
0000
0000
,
0010
0001
1000
0001
0100
0010
1000
0001
,
0010
0001
1000
0001
0010
0100
1000
0001
,
2000
0000
0000
0000
0000
0000
0000
0000
0010
0000
0000
0000
0000
0000
0000
3000
2000
0000
0000
0000
0000
0000
0000
0000
0001
0000
0000
0000
0000
0000
0000
3000
2000
0000
0000
0000
0000
0000
0000
0000
0100
0000
0000
0000
0000
0000
0000
3000
1000
0000
0000
0000
0000
0000
0000
0000
0001
0000
0000
0000
0000
0000
0000
0000
,
0100
0010
1000
0001
0010
0100
0010
0001
,
1000
0010
0100
0001
1000
0100
0010
0100
,
1000
0001
0100
0010
1000
0100
1000
0001
,
0100
0000
0000
0000
0010
0000
0000
0000
0100
0000
0000
0000
0001
0000
0000
0000
1000
0000
0000
0000
0001
0000
0000
0000
0020
0000
0000
0030
0200
0000
0000
0300
,
2000
0000
0000
3000
0002
0000
0000
0003
0200
0000
0000
0300
0020
0000
0000
0030
2000
0000
0000
0000
0000
0000
0000
0000
3000
0000
0000
0000
0000
0000
0000
0000
,
0001
0010
0001
1000
0010
0100
0010
1000
,
0001
0010
0001
1000
0010
0100
0010
1000
,
0001
0010
0001
1000
0010
0100
0010
1000
,
0001
0010
0001
1000
0010
0100
0010
1000
,
0100
1000
0001
0100
0010
0100
0001
1000
,
0100
1000
0001
0100
0010
0100
0001
1000
,
0200
0000
0000
0000
0000
0000
0000
0300
2000
0000
0000
0000
0000
0000
0000
3000
0002
0000
0000
0000
0000
0000
0003
0000
0200
0000
0000
0000
0000
0000
0300
0000
0020
0000
0000
0000
0000
0030
0000
0000
0200
0000
0000
0000
0000
0300
0000
0000
0002
0000
0000
0000
0003
0000
0000
0000
2000
0000
0000
0000
3000
0000
0000
0000
,
0200
0000
0000
0300
0000
0000
0000
0000
2000
0000
0000
3000
0000
0000
0000
0000
0002
0000
0003
0000
0000
0000
0000
0000
0200
0000
0300
0000
0000
0000
0000
0000
0020
0030
0000
0000
0000
0000
0000
0000
2000
3000
0000
0000
0000
0000
0000
0000
0200
0300
0000
0000
0000
0000
0000
0000
0020
0030
0000
0000
0000
0000
0000
0000
,
0001
0100
0001
1000
0100
0010
0100
1000
,
0001
0100
0001
1000
0100
0010
0100
1000
,
0001
0100
0001
1000
0100
0010
0100
1000
,
0002
0003
0000
0000
0000
0000
0000
0000
0200
0300
0000
0000
0000
0000
0000
0000
0002
0003
0000
0000
0000
0000
0000
0000
2000
3000
0000
0000
0000
0000
0000
0000
0200
0000
0300
0000
0000
0000
0000
0000
0020
0000
0030
0000
0000
0000
0000
0000
0002
0000
0000
0003
0000
0000
0000
0000
2000
0000
0000
3000
0000
0000
0000
0000
,
0020
0000
0000
0000
0030
0000
0000
0000
2000
0000
0000
0000
3000
0000
0000
0000
0002
0000
0000
0000
0000
0003
0000
0000
0020
0000
0000
0000
0000
0030
0000
0000
0200
0000
0000
0000
0000
0000
0000
0300
0020
0000
0000
0000
0000
0000
0030
0000
0002
0000
0000
0000
0000
0000
0000
0000
2003
0000
0000
0000
0000
0000
0000
0000
,
3010
0000
0000
0200
0000
0300
0000
0000
0000
0001
0000
0000
0010
0000
0000
0100
0000
0000
0010
0000
0000
0001
0000
0000
,
0200
0000
0310
1000
0100
0010
0001
1000
,
0010
1000
0001
0010
0100
1000
0010
0100
,
0001
0010
0001
0100
0001
1000
0100
1000
,
0010
0100
0001
0010
0100
1000
0010
0100
,
0001
0010
0100
1000
0010
1000
0100
1000
,
0001
0100
0001
0010
0100
1000
0100
0010
,
0001
0100
0001
0010
0001
1000
0010
1000
,
0100
0010
0001
0100
0010
0100
0001
1000
,
0200
0000
0000
0000
0000
0000
0000
0300
2000
0000
0000
0000
0000
0000
0000
3000
0020
0000
0000
0000
0000
0000
0030
0000
2000
0000
0000
0000
0000
0000
3000
0000
0002
0000
0000
0000
0000
0003
0000
0000
0020
0000
0000
0000
0000
0030
0000
0000
0002
0000
0000
0000
0003
0000
0000
0000
2000
0000
0000
0000
3000
0000
0000
0000
,
0020
0000
0000
0030
0000
0000
0000
0000
0200
0000
0000
0300
0000
0000
0000
0000
0002
0000
0003
0000
0000
0000
0000
0000
0020
0000
0030
0000
0000
0000
0000
0000
0200
0300
0000
0000
0000
0000
0000
0000
2000
3000
0000
0000
0000
0000
0000
0000
0020
0030
0000
0000
0000
0000
0000
0000
0200
0300
0000
0000
0000
0000
0000
0000
,
0001
0010
0001
0100
0001
1000
0100
1000
,
0010
0100
0001
0010
0100
1000
0010
0100
,
0001
0010
0100
1000
0010
1000
0100
1000
,
0001
0100
0001
0010
0100
1000
0100
0010
,
0001
0100
0001
0010
0001
1000
0010
1000
,
0100
0010
0001
0100
0010
0100
0001
1000
,
0100
1000
0010
1000
0001
0010
0001
1000
,
0010
0100
0001
0100
0010
1000
0100
0010
,
0001
0010
0100
1000
0010
1000
0100
0010
,
0001
1000
0010
1000
0001
0010
0100
0010
,
0001
0000
0000
0000
0000
0000
0000
0000
1000
0000
0000
0000
0000
0000
0000
0000
0020
0030
0000
0000
0000
0000
0000
0000
0200
0300
0000
0000
0000
0000
0000
0000
0002
0003
0000
0000
0000
0000
0000
0000
2000
3000
0000
0000
0000
0000
0000
0000
0200
0000
0000
0000
0300
0000
0000
0000
0010
0000
0000
0000
0000
0000
0000
0000
,
0001
0100
0010
1000
0001
0010
0001
1000
,
0200
0300
0000
0000
0000
0000
0000
0000
1000
0000
0000
0000
0000
0000
0000
0000
0020
0030
0000
0000
0000
0000
0000
0000
1000
0000
0000
0000
0000
0000
0000
0000
0200
0300
0000
0000
0000
0000
0000
0000
0010
0000
0000
0000
0000
0000
0000
0000
0001
0000
0000
0000
0000
0000
0000
0000
1000
0000
0000
0000
0000
0000
0000
0000
,
0010
0100
0001
1000
0100
0010
0001
1000
,
0002
0000
0000
0000
0000
0000
0000
0000
0000
0000
0000
0000
0000
0000
0000
0000
0000
0000
0003
0000
0000
0000
0000
0000
0200
0000
0000
0000
0000
0000
0000
0000
0000
0000
0000
0000
0000
0000
0000
0000
0000
0000
0300
0000
0000
0000
0000
0000
0020
0000
0000
0000
0000
0000
0000
0000
0000
0000
0000
0000
0000
0000
0000
0000
0000
0030
0000
0000
0000
0000
0000
0000
2000
0000
0000
0000
0000
0000
0000
0000
0000
0000
0000
0000
0000
0000
0000
0000
0000
0000
3000
0000
0000
0000
0000
0000
0020
0000
0000
0000
0000
0000
0000
0000
0000
0000
0000
0000
0030
0000
0000
0000
0000
0000
0000
0000
0000
0000
0000
0000
0200
0000
0000
0000
0000
0000
0000
0000
0000
0000
0000
0000
0300
0000
0000
0000
0000
0000
0000
0000
0000
0000
0000
0000
0002
0000
0000
0000
0000
0000
0000
0000
0000
0000
0000
0000
0003
0000
0000
0000
0000
0000
0000
0000
0000
0000
0000
0000
2000
0000
0000
0000
0000
0000
0000
0000
0000
3000
0000
0000
0000
0000
0000
0000
0000
0000
0000
0000
0000
0000
0000
0000
,
0200
0000
0000
0300
0000
0000
0000
0000
0020
0000
0000
0030
0000
0000
0000
0000
0002
0000
0003
0000
0000
0000
0000
0000
0020
0000
0030
0000
0000
0000
0000
0000
0200
0000
0300
0000
0000
0000
0000
0000
2000
3000
0000
0000
0000
0000
0000
0000
0002
0003
0000
0000
0000
0000
0000
0000
0200
0300
0000
0000
0000
0000
0000
0000
,
0010
1000
0001
0010
0100
0010
0001
1000
,
0010
0100
0001
1000
0100
1000
0001
0100
,
0010
0100
0001
1000
0100
0010
0001
0100
,
0001
0000
0000
0000
0000
0000
0000
0000
0010
0000
0000
0000
0000
0000
0000
0000
0001
0000
0000
0000
0000
0000
0000
0000
1000
0000
0000
0000
0000
0000
0000
0000
0010
0000
0000
0000
0000
0000
0000
0000
0200
0300
0000
0000
0000
0000
0000
0000
0010
0000
0000
0000
0000
0000
0000
0000
1000
0000
0000
0000
0000
0000
0000
0000
,
0100
1000
0001
0100
0001
0010
0100
1000
,
0010
1000
0001
0010
0001
0100
0010
1000
,
0001
0010
0100
0000
1000
0010
0100
0000
,
0001
0100
0010
1000
0100
0000
0000
0000
,
0010
0001
1000
0000
0010
0100
0001
1000
,
0200
0000
0000
0000
0300
0020
0000
0000
,
0000
0000
0000
0000
0000
0030
0000
0000
,
0002
0000
0000
0003
2000
0000
0000
3000
0010
0000
0100
0000
0000
0000
0002
0000
,
0003
0010
0100
1000
0010
1000
0100
0010
,
0002
0000
0000
0003
2000
0000
0000
3000
0010
0000
0200
0000
0300
0000
0002
0000
,
0003
0010
0100
1000
0001
0100
0010
1000
,
0002
0000
0000
0003
2000
0000
0000
3000
0100
0000
0010
0000
0000
0000
0001
0000
,
0000
0100
0010
1000
0001
0010
0100
1000
,
0001
0100
0010
0100
0001
1000
0100
0010
,
0001
1000
0001
1000
0020
0000
0230
0000
,
0310
0000
1001
0000
0001
0010
1000
0000
,
1001
0000
0010
0000
1000
0010
0001
0000
,
0010
0000
0001
0000
0011
0100
1000
0000
,
1100
0000
0000
0000
0100
0100
0010
1001
,
0100
1000
1100
0001
,
0101
0000
0000
0000
0100
0100
0010
1001
,
0100
1001
0110
0000
,
0010
0000
0100
0000
0010
1001
0100
1000
,
0001
0010
0001
1000
0001
0100
0001
0010
,
0100
1000
0001
1000
0010
1000
0001
1000
,
0100
0010
0001
1000
0001
0100
0001
1000
,
0100
0010
0100
0010
0001
1000
0001
0010
,
0100
1000
0001
1000
0010
1000
0001
1000
,
0100
0010
0001
0100
0001
1000
0001
0010
,
0100
1000
0001
1000
0010
1000
0001
1000
,
0100
0010
0100
0010
0002
0003
2000
3000
,
0010
1000
0010
0100
0000
0001
0001
0000
,
1000
0100
1000
0000
0010
0000
1001
0000
,
0010
0100
0010
1000
0000
0001
0001
0000
,
0101
1100
1010
0011
,
0010
0001
0010
0100
0000
1000
1000
0000
,
0001
0100
0001
0000
0010
0000
1001
0000
,
0120
0000
0000
0000
0100
0000
0130
0100
,
0000
1000
0100
1000
0100
0000
1001
0000
,
0011
0101
1100
1010
,
1100
0101
0011
1001
,
1100
0101
1100
0101
,
0010
0100
0010
0100
,
1010
1100
0101
0011
,
0101
1100
1010
1001
,
0010
1000
0010
0000
0001
1000
0001
0100
,
0010
1000
0100
0000
2002
0000
3003
0000
,
0001
0100
0001
1000
,
0100
1000
0010
0100
,
0002
2003
3200
0320
,
0032
2003
3020
0230
,
0301
0010
0001
1000
,
0010
1000
0100
0010
,
0002
0203
0320
2030
,
3100
0000
0100
0000
0010
0001
0100
0010
,
1000
0100
1000
0001
,
0100
0001
0010
0100
,
2000
3002
0203
0320
,
2030
3002
0023
0230
,
1300
0010
1000
0001
,
0010
0001
0100
0010
,
2000
3200
0320
0032
,
0103
0000
0100
0000
0010
1000
0100
0010
,
0001
0100
0001
1000
0100
1000
0010
0100
,
0001
0010
0001
1000
0010
1000
0100
0010
,
0001
0100
0001
1000
0100
1000
0010
0100
,
0001
0010
0001
1000
0010
1000
0001
1000
,
0100
1000
0001
0100
0001
0010
0100
1000
,
0010
1000
0001
0010
0001
0100
0010
1000
,
0200
0000
0000
0000
0000
0000
0000
0300
2000
0000
0000
0000
0000
0000
0000
3000
0002
0000
0000
0000
0000
0000
0003
0000
0200
0000
0000
0000
0000
0000
0300
0000
0002
0000
0000
0000
0000
0003
0000
0000
0020
0000
0000
0000
0000
0030
0000
0000
0200
0000
0000
0000
0300
0000
0000
0000
2000
0000
0000
0000
3000
0000
0000
0000
,
0020
0000
0000
0030
0000
0000
0000
0000
2000
0000
0000
3000
0000
0000
0000
0000
0002
0000
0003
0000
0000
0000
0000
0000
0020
0000
0030
0000
0000
0000
0000
0000
0002
0003
0000
0000
0000
0000
0000
0000
0200
0300
0000
0000
0000
0000
0000
0000
0020
0030
0000
0000
0000
0000
0000
0000
2000
3000
0000
0000
0000
0000
0000
0000
,
0001
0010
0001
1000
0010
1000
0100
0010
,
0001
0100
0001
1000
0100
1000
0010
0100
,
0001
0010
0001
1000
0010
1000
0100
0010
,
0001
0100
0001
1000
0100
1000
0001
1000
,
0010
1000
0001
0010
0001
0100
0010
1000
,
0100
1000
0001
0100
0001
0010
0100
1000
,
0020
0000
0000
0000
0000
0000
0000
0030
2000
0000
0000
0000
0000
0000
0000
3000
0002
0000
0000
0000
0000
0000
0003
0000
0020
0000
0000
0000
0000
0000
0030
0000
0002
0000
0000
0000
0000
0003
0000
0000
0200
0000
0000
0000
0000
0300
0000
0000
0020
0000
0000
0000
0030
0000
0000
0000
2000
0000
0000
0000
3000
0000
0000
0000
,
0200
0000
0000
0300
0000
0000
0000
0000
2000
0000
0000
3000
0000
0000
0000
0000
0002
0000
0003
0000
0000
0000
0000
0000
0200
0000
0300
0000
0000
0000
0000
0000
0002
0003
0000
0000
0000
0000
0000
0000
0020
0030
0000
0000
0000
0000
0000
0000
0200
0300
0000
0000
0000
0000
0000
0000
2000
3000
0000
0000
0000
0000
0000
0000
,
0040
0000
0000
0000
0030
0100
0001
1000
,
0200
0000
0000
0000
,
0000
0000
0000
0000
,
0300
0000
0000
0000
;

//--------------- dance-single - NAOKI 2/6/6/2/4-2/3-2/2 ----------------
#NOTES:
     dance-single:
     NAOKI 2/6/6/2/4-2/3-2/2:
     Medium:
     14:
     0.895049,1.219509,0.010447,0.671194,0.535388,2399,2395,4,257,0,0,6,0,0,0.895049,1.219509,0.010447,0.671194,0.535388,2399,2395,4,257,0,0,6,0,0:
0000
0000
0000
0000
,
0000
0000
0000
0000
,
0000
0000
0000
0000
,
0000
0000
0000
0000
,
0000
0000
0000
0000
,
0000
0000
0000
0000
,
0000
0000
0000
0000
,
0000
0000
0000
0000
,
1000
0000
0000
0000
0000
0000
0000
0000
0010
0000
0000
0000
0000
0000
0000
0000
1000
0000
0000
0000
0000
0000
0000
0000
0001
0000
0000
0000
0000
0000
0000
0000
0010
0000
0000
0000
0000
0000
0000
0000
0001
0000
0000
0000
0000
0000
0000
0000
0200
0300
0000
0000
0000
0000
0000
0000
0001
0000
0000
0000
0000
0000
0000
0000
,
1000
0000
0000
0000
0000
0000
0000
0000
0100
0000
0000
0000
0000
0000
0000
0000
1000
0000
0000
0000
0000
0000
0000
0000
0001
0000
0000
0000
0000
0000
0000
0000
0100
0000
0000
0000
0000
0000
0000
0000
0020
0030
0000
0000
0000
0000
0000
0000
0100
0000
0000
0000
0000
0000
0000
0000
0001
0000
0000
0000
0000
0000
0000
0000
,
1000
0100
0010
0001
1000
0010
0100
0010
,
1000
0001
0010
0100
1000
0001
0100
0001
,
1000
0000
0000
0000
0000
0000
0000
0000
0100
0000
0000
0000
0000
0000
0000
0000
1000
0000
0000
0000
0000
0000
0000
0000
0001
0000
0000
0000
0000
0000
0000
0000
0100
0000
0000
0000
0000
0000
0000
0000
0001
0000
0000
0000
0000
0000
0000
0000
0020
0030
0000
0000
0000
0000
0000
0000
0001
0000
0000
0000
0000
0000
0000
0000
,
1000
0000
0000
0000
0000
0000
0000
0000
0010
0000
0000
0000
0000
0000
0000
0000
1000
0000
0000
0000
0000
0000
0000
0000
0001
0000
0000
0000
0000
0000
0000
0000
0010
0000
0000
0000
0000
0000
0000
0000
0200
0300
0000
0000
0000
0000
0000
0000
0010
0000
0000
0000
0000
0000
0000
0000
0001
0000
0000
0000
0000
0000
0000
0000
,
1000
0100
0010
0001
0100
0001
0010
0100
,
1000
0000
0010
0000
1000
0000
0100
0000
0010
0000
0001
0000
0100
0000
0001
1000
,
0001
0000
0000
0000
0000
0000
0000
0000
0010
0000
0000
0000
0000
0000
0000
0000
0001
0000
0000
0000
0000
0000
0000
0000
1000
0000
0000
0000
0000
0000
0000
0000
0010
0000
0000
0000
0000
0000
0000
0000
1000
0000
0000
0000
0000
0000
0000
0000
0200
0300
0000
0000
0000
0000
0000
0000
1000
0000
0000
0000
0000
0000
0000
0000
,
0001
0000
0000
0000
0000
0000
0000
0000
0100
0000
0000
0000
0000
0000
0000
0000
0001
0000
0000
0000
0000
0000
0000
0000
1000
0000
0000
0000
0000
0000
0000
0000
0100
0000
0000
0000
0000
0000
0000
0000
0020
0030
0000
0000
0000
0000
0000
0000
0100
0000
0000
0000
0000
0000
0000
0000
1000
0000
0000
0000
0000
0000
0000
0000
,
0001
0100
0010
1000
0001
0010
0100
0010
,
0001
1000
0010
0100
0001
1000
0100
1000
,
0001
0100
0010
1000
0100
1000
0010
0100
,
0001
0000
0010
0000
0001
0000
0100
0000
0010
0000
1000
0000
0100
0000
1000
0001
,
1000
0010
0100
0001
0010
0100
1000
0001
,
1000
0010
1000
0001
0010
0001
1000
0010
0100
0010
1000
0001
0010
0000
0100
0000
,
1000
0010
0100
0001
1000
0100
1000
0001
,
0010
0100
1000
0001
0100
0010
0100
0001
,
1000
0100
0010
0001
1000
0010
1000
0001
,
0100
0010
1000
0001
0010
0100
0010
0001
,
0100
0010
1000
0001
0100
0001
1000
0100
,
0010
0001
1000
0100
1000
0001
0100
0010
,
1000
0010
0100
0001
1000
0100
1000
0001
0010
0100
1000
0001
0100
0001
1000
0100
,
0010
0001
1000
0010
1000
0001
0100
0010
1000
0000
0001
0000
0010
0000
0001
0000
,
1000
0100
0010
0001
1000
0010
1000
0001
,
0100
0010
1000
0001
0010
0100
0010
0001
,
1000
0010
0100
0001
1000
0100
1000
0001
,
0010
0100
1000
0001
0100
0010
0100
0001
,
0010
0100
1000
0001
0010
0001
1000
0010
,
0100
0001
1000
0010
1000
0001
0010
0100
,
1000
0100
0010
0001
1000
0010
1000
0001
0100
0010
1000
0001
0010
0001
1000
0010
,
0100
0001
1000
0100
1000
0001
0010
0100
1000
0010
1000
0001
0010
0001
1000
0001
,
0200
0000
0000
0300
0000
0000
0000
0000
0000
0000
0000
0000
0000
0000
0000
0000
0000
0000
0000
0000
0000
0000
0000
0000
0020
0000
0000
0000
0030
0000
0000
0000
0000
0000
0000
0000
0000
0000
0000
0000
0000
0000
0000
0000
0000
0000
0000
0000
0200
0000
0000
0000
0000
0300
0000
0000
0000
0000
0000
0000
0000
0000
0000
0000
0000
0000
0000
0000
0000
0000
0000
0000
0002
0000
0000
0000
0000
0000
0003
0000
0000
0000
0000
0000
0000
0000
0000
0000
0000
0000
0000
0000
0000
0000
0000
0000
2000
0000
0000
0000
0000
0000
0000
3000
0000
0000
0000
0000
0000
0000
0000
0000
0000
0000
0000
0000
0000
0000
0000
0000
0400
0000
0000
0000
0000
0000
0000
0000
0300
0000
0000
0000
0000
0000
0000
0000
0000
0000
0000
0000
0000
0000
0000
0000
0040
0000
0000
0000
0000
0000
0000
0000
0000
0030
0000
0000
0000
0000
0000
0000
0000
0000
0000
0000
0000
0000
0000
0000
0400
0000
0000
0000
0000
0000
0000
0000
0000
0000
0300
0000
0000
0000
0000
0000
0000
0000
0000
0000
0000
0000
0000
0000
,
1002
0000
0203
0320
0000
2030
0000
3002
,
0000
0000
0000
0000
0003
2000
3200
0320
,
0032
0000
0203
0320
0000
2030
0000
3200
,
0000
0000
0000
0000
0000
0000
0000
0000
0300
0000
0000
0000
0000
0000
0000
0000
0020
0000
0000
0030
0000
0000
0000
0000
0020
0000
0000
0030
0000
0000
0000
0000
,
0002
0000
0203
0320
0000
2030
0000
3002
,
0000
0000
0023
0230
0000
2300
0000
3020
,
0000
0000
0230
0320
0000
2030
3002
0023
,
0000
0000
0000
0000
0000
0000
0000
0000
0000
0000
0000
0000
0000
0000
0000
0000
0030
0000
0000
0000
0000
0000
0000
0000
0200
0000
0000
0300
0000
0000
0000
0000
,
2001
0000
3200
0320
0000
0032
0000
2003
,
0000
0000
0000
0000
3000
0002
0203
0320
,
2030
0000
3200
0320
0000
0032
0000
0203
,
0000
0000
0000
0000
0000
0000
0000
0000
0300
0000
0000
0000
0000
0000
0000
0000
0020
0000
0000
0030
0000
0000
0000
0000
0020
0000
0000
0030
0000
0000
0000
0000
,
2000
0000
3200
0320
0000
0032
0000
2003
,
0000
3020
0230
0302
,
0023
0000
0230
0320
0000
0032
0000
2003
,
0000
0000
0000
0000
,
3010
0000
0100
0001
0000
1000
0000
0200
,
0000
0000
0000
0000
0000
0000
0000
0000
0000
0000
0000
0000
1300
0001
1000
0001
,
0100
0000
0000
0000
0010
0100
0002
0000
0000
0000
2003
0000
0000
0000
3200
0000
,
0000
0000
0310
0000
0001
0000
0000
0000
1000
0000
0010
0000
1000
0001
1000
0001
,
0010
0100
1000
0100
0010
0001
1000
0010
0100
0001
1000
0100
0010
0001
0100
0001
,
1000
0001
0010
0100
1000
0001
0100
0010
0100
0001
1000
0100
1000
0001
1000
0010
,
0100
0001
0100
0010
1000
0001
0010
0100
1000
0001
0100
0010
1000
0001
0020
0000
,
0030
0000
0100
0000
1000
0000
0001
0000
0100
0000
0001
0000
1000
0100
1000
0100
,
0010
0001
1000
0010
0100
0001
1000
0001
0010
0100
1000
0001
0010
0001
1000
0001
,
0100
0010
1000
0010
0100
0001
1000
0100
1000
0001
0010
0100
1000
0001
0010
0001
,
1000
0001
0100
0010
1000
0100
2000
0000
3000
0000
0001
0000
0100
0000
0020
0000
,
0030
0000
1000
0000
0002
0000
0003
0000
0010
0000
0100
0000
0010
0001
1000
0001
,
1000
0010
0100
0001
0100
0010
1000
0001
0010
0100
1000
0001
0100
0010
1000
0100
,
1000
0001
1000
0010
0100
0001
1000
0100
0010
0100
1000
0001
0100
0001
0010
0100
,
1000
0001
0100
0010
1000
0001
0020
0000
0030
0000
0200
0000
0300
0000
1000
0000
,
0100
0000
0010
0000
0002
0000
0003
0000
1000
0000
0010
0000
0100
0001
0100
0001
,
1000
0100
0010
0100
1000
0001
1000
0010
0100
0001
1000
0010
1000
0001
1000
0100
,
0010
0001
0010
0100
1000
0001
0100
0001
1000
0010
0100
0001
1000
0010
1000
0001
,
1000
0100
0010
0001
1000
0010
2000
0000
3000
0000
0200
0000
0300
0000
0020
0000
,
0030
0000
0001
0000
1002
0000
0000
0000
0103
0000
0010
0000
1000
0001
1000
0001
,
0020
0000
0000
0000
,
0000
0000
0000
0000
0000
0000
0000
0000
0000
0000
0000
0000
0130
1000
0001
0100
,
0020
0000
0000
0030
1000
0001
0020
0000
0030
0000
0200
0000
0300
0000
2000
0000
,
3000
0000
0001
0000
0200
0000
0000
0000
0310
0000
1000
0000
0001
0010
0100
1000
,
0001
0010
0001
1000
0010
0100
0001
1000
,
0100
0010
0001
1000
0010
0100
0010
1000
,
0001
0010
0001
1000
0100
0010
0001
0100
,
0010
1000
0001
0010
0100
1000
0010
1000
,
0001
0010
0100
0010
0001
1000
0010
0100
,
0001
1000
0100
1000
0001
0100
0010
1000
,
0002
0000
0000
0000
0000
0000
0000
0000
0000
0000
0000
0000
0000
0000
0000
0000
0000
0000
0003
0000
0000
0000
0000
0000
0020
0000
0000
0000
0000
0000
0000
0000
0000
0000
0000
0000
0000
0000
0000
0000
0000
0000
0030
0000
0000
0000
0000
0000
0200
0000
0000
0000
0000
0000
0000
0000
0000
0000
0000
0000
0000
0000
0000
0000
0000
0300
0000
0000
0000
0000
0000
0000
2000
0000
0000
0000
0000
0000
0000
0000
0000
0000
0000
0000
0000
0000
0000
0000
0000
0000
3000
0000
0000
0000
0000
0000
0200
0000
0000
0000
0000
0000
0000
0000
0000
0000
0000
0000
0300
0000
0000
0000
0000
0000
0000
0000
0000
0000
0000
0000
0020
0000
0000
0000
0000
0000
0000
0000
0000
0000
0000
0000
0030
0000
0000
0000
0000
0000
0000
0000
0000
0000
0000
0000
0002
0000
0000
0000
0000
0000
0000
0000
0000
0000
0000
0000
0003
0000
0000
0000
0000
0000
0000
0000
0000
0000
0000
0000
2000
0000
0000
0000
0000
0000
0000
0000
0000
3000
0000
0000
0000
0000
0000
0000
0000
0000
0000
0000
0000
0000
0000
0000
,
0020
0000
0000
0030
0000
0000
0000
0000
0200
0000
0000
0300
0000
0000
0000
0000
0002
0000
0003
0000
0000
0000
0000
0000
0200
0000
0300
0000
0000
0000
0000
0000
0020
0000
0030
0000
0000
0000
0000
0000
2000
3000
0000
0000
0000
0000
0000
0000
0002
0003
0000
0000
0000
0000
0000
0000
0020
0030
0000
0000
0000
0000
0000
0000
,
0100
0000
0000
0000
0000
0000
0000
0000
1000
0000
0000
0000
0000
0000
0000
0000
0010
0000
0000
0000
0000
0000
0000
0000
1000
0000
0000
0000
0000
0000
0000
0000
0002
0003
0000
0000
0000
0000
0000
0000
0010
0000
0000
0000
0000
0000
0000
0000
0100
0000
0000
0000
0000
0000
0000
0000
0010
0000
0000
0000
0000
0000
0000
0000
,
0001
0000
0000
0000
0000
0000
0000
0000
2000
3000
0000
0000
0000
0000
0000
0000
0010
0000
0000
0000
0000
0000
0000
0000
0100
0000
0000
0000
0000
0000
0000
0000
0010
0000
0000
0000
0000
0000
0000
0000
1000
0000
0000
0000
0000
0000
0000
0000
0002
0003
0000
0000
0000
0000
0000
0000
0010
0000
0000
0000
0000
0000
0000
0000
,
0100
0010
0001
1000
0001
0100
0010
1000
,
0001
1000
0100
0010
0001
0100
0001
0010
,
0100
1000
0010
1000
0100
0010
0001
1000
,
0100
1000
0010
0100
0001
0010
0001
1000
,
0010
0100
0001
1000
0100
1000
0001
0100
,
0010
0000
0000
0000
0000
0000
0000
0000
1000
0000
0000
0000
0000
0000
0000
0000
0001
0000
0000
0000
0000
0000
0000
0000
0010
0000
0000
0000
0000
0000
0000
0000
0001
0000
0000
0000
0000
0000
0000
0000
0200
0300
0000
0000
0000
0000
0000
0000
0010
0000
0000
0000
0000
0000
0000
0000
0000
0000
0000
0000
0000
0000
0000
0000
,
1000
0000
0002
0000
0000
0023
0000
0000
0230
0000
0000
0320
0000
0000
0031
0000
,
0000
0000
2000
0000
0000
3020
0000
0000
0230
0000
0000
0320
0000
0000
1030
0000
,
0001
0000
0020
0000
0000
0230
0000
0000
2300
0000
0000
3002
0000
0000
0103
0000
,
0000
0000
0020
0000
0000
2030
0000
0000
3002
0000
0000
0023
0000
0000
0130
0000
,
1000
0000
0010
0000
0100
0000
0001
0000
1000
0000
0100
0000
0010
0000
0001
1000
,
0010
0000
0100
0000
0010
0000
1000
0000
0001
0000
0010
0000
0100
0000
1000
0001
,
0100
0001
1000
0001
0100
0010
1000
0001
1000
0100
1000
0001
0100
0010
1000
0001
,
0020
0000
0000
0000
0130
1000
0000
0001
,
0100
0010
1000
0010
0100
0001
1000
0100
,
0010
0001
0010
0100
1000
0001
1000
0010
,
0100
0001
0100
0010
1000
0001
0010
0100
,
1000
0100
0010
0001
1000
0010
0100
0001
,
1000
0100
0010
0001
0010
0100
1000
0001
,
0100
0010
1000
0010
0100
0001
1000
0100
,
0010
0001
0100
0010
1000
0100
1000
0001
,
0100
0001
0010
0100
1000
0000
0001
1000
,
0100
0010
0001
0010
0100
1000
0001
0100
,
0010
1000
0010
0100
0001
1000
0001
0010
,
0100
1000
0100
0010
0001
1000
0010
0100
,
0001
0100
0010
1000
0001
0010
0100
1000
,
0001
0100
0010
1000
0010
0100
0001
1000
,
0100
0010
0001
0010
0100
1000
0001
0100
,
0010
1000
0100
0010
0001
0100
0001
1000
,
0100
1000
0010
0100
0001
0010
0001
0100
,
0010
1000
0001
0010
0000
0100
0000
0010
,
0000
0001
1000
0000
0000
0000
0010
0000
0100
0000
0000
0001
0000
0000
1000
0000
,
0001
0010
0100
1000
0100
0010
0001
1000
0010
1000
0001
0010
0001
1000
0010
0100
,
0001
0100
0010
1000
0001
1000
0100
0010
0001
0100
0001
1000
0100
1000
0001
0100
,
0020
0000
0000
0000
0100
0000
0000
0000
0100
0000
0000
0000
0130
0000
0002
0003
,
1000
0000
0000
0000
0000
0000
0000
0000
0002
0000
0000
0000
0003
0000
0000
0000
0010
0000
0000
0000
0000
0000
0000
0000
0002
0000
0000
0000
0003
0000
0000
0000
1000
0000
0000
0000
0000
0000
0000
0000
0002
0000
0000
0000
0003
0000
0000
0000
0100
0000
0000
0000
0000
0000
0000
0000
0002
0000
0000
0003
0000
0000
0000
0000
,
1000
0000
0000
0000
0000
0000
0000
0000
0002
0000
0000
0003
0000
0000
0000
0000
0010
0000
0000
0000
0000
0000
0000
0000
0002
0000
0000
0003
0000
0000
0000
0000
1000
0000
0000
0000
0000
0000
0000
0000
0002
0000
0000
0003
0000
0000
0000
0000
0100
0000
0000
0000
0000
0000
0000
0000
0002
0000
0000
0003
0000
0000
0000
0000
,
1000
0000
0000
0000
0020
0030
0000
0000
1000
0000
0000
0000
0002
0003
0000
0000
1000
0000
0000
0000
0200
0300
0000
0000
1000
0000
0000
0000
0002
0003
0000
0000
,
2000
3000
0000
0000
0000
0000
0000
0000
0000
0000
0000
0000
0000
0000
0000
0000
1000
0000
0000
0000
0000
0000
0000
0000
0001
0000
0000
0000
0000
0000
0000
0000
1000
0000
0000
0000
0000
0000
0000
0000
0100
0000
0000
0000
0000
0000
0000
0000
1000
0000
0000
0000
0000
0000
0000
0000
0001
0000
0000
0000
0000
0000
0000
0000
,
0100
0010
1000
0001
0010
0100
0010
0001
,
1000
0010
0100
0010
1000
0001
0010
0100
,
1000
0001
0100
0010
0100
0001
1000
0100
,
0010
0001
1000
0001
0100
0001
1000
0001
,
0010
0100
1000
0001
0100
0010
1000
0001
,
0010
0100
1000
0001
0100
0010
1000
0100
,
1000
0010
0100
0001
1000
0100
0010
0001
,
0100
0001
0010
0100
1000
0001
0100
0010
,
1000
0100
1000
0001
1000
0010
0100
0001
,
0010
0001
0100
0001
1000
0100
0010
0001
,
0100
0000
0000
0000
0000
0000
0000
0000
0001
0000
0000
0000
0000
0000
0000
0000
0010
0000
0000
0000
0000
0000
0000
0000
0001
0000
0000
0000
0000
0000
0000
0000
1000
0000
0000
0000
0000
0000
0000
0000
0020
0030
0000
0000
0000
0000
0000
0000
0200
0300
0000
0000
0000
0000
0000
0000
0020
0030
0000
0000
0000
0000
0000
0000
,
1000
0100
1000
0001
1000
0010
0100
0001
,
1000
0100
1000
0001
1000
0010
0100
0001
,
1000
0010
1000
0001
1000
0100
0010
0001
,
1000
0010
1000
0001
1000
0100
0010
0001
,
0100
0001
1000
0001
0010
0100
1000
0001
,
0100
0001
1000
0001
0010
0100
1000
0001
,
2000
0000
0000
0000
0000
0000
0000
0000
0000
0000
0000
0000
0000
0000
0000
0000
0000
0000
3000
0000
0000
0000
0000
0000
0200
0000
0000
0000
0000
0000
0000
0000
0000
0000
0000
0000
0000
0000
0000
0000
0000
0000
0300
0000
0000
0000
0000
0000
0020
0000
0000
0000
0000
0000
0000
0000
0000
0000
0000
0000
0000
0000
0000
0000
0000
0030
0000
0000
0000
0000
0000
0000
0002
0000
0000
0000
0000
0000
0000
0000
0000
0000
0000
0000
0000
0000
0000
0000
0000
0000
0003
0000
0000
0000
0000
0000
0020
0000
0000
0000
0000
0000
0000
0000
0000
0000
0000
0000
0030
0000
0000
0000
0000
0000
0000
0000
0000
0000
0000
0000
0200
0000
0000
0000
0000
0000
0000
0000
0000
0000
0000
0000
0300
0000
0000
0000
0000
0000
0000
0000
0000
0000
0000
0000
2000
0000
0000
0000
0000
0000
0000
0000
0000
0000
0000
0000
3000
0000
0000
0000
0000
0000
0000
0000
0000
0000
0000
0000
0002
0000
0000
0000
0000
0000
0000
0000
0000
0003
0000
0000
0000
0000
0000
0000
0000
0000
0000
0000
0000
0000
0000
0000
,
0200
0000
0000
0300
0000
0000
0000
0000
0020
0000
0000
0030
0000
0000
0000
0000
2000
0000
3000
0000
0000
0000
0000
0000
0020
0000
0030
0000
0000
0000
0000
0000
0200
0000
0300
0000
0000
0000
0000
0000
0002
0003
0000
0000
0000
0000
0000
0000
2000
3000
0000
0000
0000
0000
0000
0000
0200
0300
0000
0000
0000
0000
0000
0000
,
0010
0001
1000
0001
0100
0010
1000
0001
,
0010
0001
1000
0001
0010
0100
1000
0001
,
2000
0000
0000
0000
0000
0000
0000
0000
0010
0000
0000
0000
0000
0000
0000
3000
2000
0000
0000
0000
0000
0000
0000
0000
0001
0000
0000
0000
0000
0000
0000
3000
2000
0000
0000
0000
0000
0000
0000
0000
0100
0000
0000
0000
0000
0000
0000
3000
1000
0000
0000
0000
0000
0000
0000
0000
0001
0000
0000
0000
0000
0000
0000
0000
,
0100
0010
1000
0001
0010
0100
0010
0001
,
1000
0010
0100
0001
1000
0100
0010
0100
,
1000
0001
0100
0010
1000
0100
1000
0001
,
0100
0000
0000
0000
0010
0000
0000
0000
0100
0000
0000
0000
0001
0000
0000
0000
1000
0000
0000
0000
0001
0000
0000
0000
0020
0000
0000
0030
0200
0000
0000
0300
,
2000
0000
0000
3000
0002
0000
0000
0003
0200
0000
0000
0300
0020
0000
0000
0030
2000
0000
0000
0000
0000
0000
0000
0000
3000
0000
0000
0000
0000
0000
0000
0000
,
0001
0000
0100
0010
1000
0000
0001
0000
0010
0100
1000
0000
0001
0100
0010
0100
,
0001
0000
1000
0100
0010
0000
0100
0000
1000
0001
0100
0000
0010
1000
0010
0100
,
0001
0000
1000
0100
0010
0000
0001
0000
1000
0010
0100
0000
0010
1000
0001
1000
,
0100
0000
0010
0001
1000
0000
0010
0000
0100
0010
1000
0000
0001
0010
0100
1000
,
0001
0000
0100
0010
1000
0000
0001
0000
1000
0100
0010
0000
0001
0100
0010
1000
,
0001
0000
0010
0100
1000
0000
0001
0000
0100
0010
1000
0000
0001
0010
0100
1000
,
0001
0100
0001
1000
0001
0010
0100
0010
0001
1000
0010
1000
0001
0100
0010
1000
,
0001
0010
0001
1000
0100
0000
0010
0000
0100
0000
0010
0000
0001
0000
1000
0000
,
0010
0100
0000
0001
1000
0000
0100
0000
0010
0001
1000
0000
0010
0100
0001
0100
,
0010
1000
0000
0001
0010
0000
0100
1000
0001
0000
0100
0010
1000
0010
0100
0001
,
1000
0000
0100
0000
0010
0001
0010
0100
1000
0000
0001
0000
0100
0010
1000
0001
,
0020
0030
0000
0000
0000
0000
0000
0000
0200
0300
0000
0000
0000
0000
0000
0000
2000
3000
0000
0000
0000
0000
0000
0000
0002
0003
0000
0000
0000
0000
0000
0000
2000
0000
3000
0000
0000
0000
0000
0000
0020
0000
0030
0000
0000
0000
0000
0000
0200
0000
0000
0300
0000
0000
0000
0000
0002
0000
0000
0003
0000
0000
0000
0000
,
2000
0000
0000
0000
3000
0000
0000
0000
0002
0000
0000
0000
0003
0000
0000
0000
0020
0000
0000
0000
0000
0030
0000
0000
0200
0000
0000
0000
0000
0300
0000
0000
2000
0000
0000
0000
0000
0000
3000
0000
0020
0000
0000
0000
0000
0000
0030
0000
2000
0000
0000
0000
0000
0000
0000
3000
0002
0000
0000
0000
0000
0000
0000
0003
,
0010
0000
0000
0200
0000
0300
0000
0000
0000
0010
0000
0000
0001
0000
0000
1000
0000
0000
0001
0000
0000
0100
0000
0000
,
0020
0000
0130
0001
1000
0100
0010
0100
,
1000
0000
0001
0000
0010
0000
0100
0000
1000
0000
0001
0000
0100
0010
0000
1000
,
0001
0010
0001
0100
0001
1000
0100
1000
,
0010
0100
0001
0010
0100
1000
0010
0100
,
0001
0010
0100
1000
0010
1000
0100
1000
,
0001
0100
0001
0010
0100
1000
0100
0010
,
0001
0100
0001
0010
0001
1000
0010
1000
,
0100
0010
0001
0100
0010
0100
0001
1000
,
0100
1000
0010
1000
0001
0010
0001
1000
,
0010
0100
0001
0010
0100
1000
0010
0100
,
0001
0010
0001
0100
0001
1000
0100
1000
,
0010
0100
0001
0010
0100
1000
0010
0100
,
0001
0010
0100
1000
0010
1000
0100
1000
,
0001
0100
0001
0010
0100
1000
0100
0010
,
0001
0100
0001
0010
0001
1000
0010
1000
,
0100
0010
0001
0100
0010
0100
0001
1000
,
0100
1000
0010
1000
0001
0010
0001
1000
,
0010
0100
0001
1000
0100
0010
0001
1000
0100
1000
0001
0100
0010
1000
0001
0100
,
0001
0010
0100
1000
0010
1000
0100
0010
,
0001
1000
0010
1000
0001
0010
0100
0010
,
0001
0000
0000
0000
0000
0000
0000
0000
1000
0000
0000
0000
0000
0000
0000
0000
0020
0030
0000
0000
0000
0000
0000
0000
0200
0300
0000
0000
0000
0000
0000
0000
0002
0003
0000
0000
0000
0000
0000
0000
2000
3000
0000
0000
0000
0000
0000
0000
0200
0000
0000
0000
0300
0000
0000
0000
0010
0000
0000
0000
0000
0000
0000
0000
,
0001
0100
0010
1000
0001
0010
0001
1000
,
0200
0300
0000
0000
0000
0000
0000
0000
1000
0000
0000
0000
0000
0000
0000
0000
0020
0030
0000
0000
0000
0000
0000
0000
1000
0000
0000
0000
0000
0000
0000
0000
0200
0300
0000
0000
0000
0000
0000
0000
0010
0000
0000
0000
0000
0000
0000
0000
0001
0000
0000
0000
0000
0000
0000
0000
1000
0000
0000
0000
0000
0000
0000
0000
,
0010
0100
0001
1000
0100
0010
0001
1000
,
0002
0000
0000
0000
0000
0000
0000
0000
0000
0000
0000
0000
0000
0000
0000
0000
0000
0000
0003
0000
0000
0000
0000
0000
0200
0000
0000
0000
0000
0000
0000
0000
0000
0000
0000
0000
0000
0000
0000
0000
0000
0000
0300
0000
0000
0000
0000
0000
0020
0000
0000
0000
0000
0000
0000
0000
0000
0000
0000
0000
0000
0000
0000
0000
0000
0030
0000
0000
0000
0000
0000
0000
2000
0000
0000
0000
0000
0000
0000
0000
0000
0000
0000
0000
0000
0000
0000
0000
0000
0000
3000
0000
0000
0000
0000
0000
0020
0000
0000
0000
0000
0000
0000
0000
0000
0000
0000
0000
0030
0000
0000
0000
0000
0000
0000
0000
0000
0000
0000
0000
0200
0000
0000
0000
0000
0000
0000
0000
0000
0000
0000
0000
0300
0000
0000
0000
0000
0000
0000
0000
0000
0000
0000
0000
0002
0000
0000
0000
0000
0000
0000
0000
0000
0000
0000
0000
0003
0000
0000
0000
0000
0000
0000
0000
0000
0000
0000
0000
2000
0000
0000
0000
0000
0000
0000
0000
0000
3000
0000
0000
0000
0000
0000
0000
0000
0000
0000
0000
0000
0000
0000
0000
,
0200
0000
0000
0300
0000
0000
0000
0000
0020
0000
0000
0030
0000
0000
0000
0000
0002
0000
0003
0000
0000
0000
0000
0000
0020
0000
0030
0000
0000
0000
0000
0000
0200
0000
0300
0000
0000
0000
0000
0000
2000
3000
0000
0000
0000
0000
0000
0000
0002
0003
0000
0000
0000
0000
0000
0000
0200
0300
0000
0000
0000
0000
0000
0000
,
0010
1000
0001
0010
0100
0010
0001
1000
,
0010
0100
0001
1000
0100
1000
0001
0100
,
0010
0100
0001
1000
0100
0010
0001
0100
,
0001
0000
0000
0000
0000
0000
0000
0000
0010
0000
0000
0000
0000
0000
0000
0000
0001
0000
0000
0000
0000
0000
0000
0000
1000
0000
0000
0000
0000
0000
0000
0000
0010
0000
0000
0000
0000
0000
0000
0000
0200
0300
0000
0000
0000
0000
0000
0000
0010
0000
0000
0000
0000
0000
0000
0000
1000
0000
0000
0000
0000
0000
0000
0000
,
0100
1000
0001
0100
0001
0010
0100
1000
,
0010
1000
0001
0010
0001
0100
0010
1000
,
0001
0010
0001
1000
0010
0000
0100
0000
0001
0100
0001
1000
0100
0000
0010
0000
,
0001
0100
0001
1000
0100
1000
0001
0100
0010
0000
0000
0000
0000
0000
0000
0000
,
1000
0000
0100
0000
0010
0001
0000
1000
0010
0000
0100
0000
0001
0000
1000
0000
,
0200
0000
0000
0000
0300
0020
0000
0000
,
0000
0000
0000
0000
0000
0030
0000
0000
,
0002
0000
2003
0000
3010
0100
0000
0002
,
0000
0013
0100
1000
0010
1000
0100
0010
,
0002
0000
2003
0000
3010
0100
0000
0002
,
0000
0013
0100
1000
0001
0100
0010
1000
,
0002
0000
2003
0000
3100
0010
0000
0002
,
0000
0103
0010
1000
0100
1000
0001
0100
,
0001
1000
0010
0100
0001
1000
0100
0010
,
0001
0000
1000
0000
0001
0000
1000
0000
0020
0000
0000
0030
0200
0000
0000
0300
,
0001
0100
0010
1000
0001
0100
0010
1000
0001
0010
0001
1000
0100
0010
0001
0100
,
0001
1000
0100
1000
0001
1000
0010
0100
0001
1000
0001
0100
0010
1000
0001
1000
,
0100
0010
0001
1000
0100
0010
0001
1000
0010
1000
0001
0100
0010
1000
0100
1000
,
0001
0100
0001
1000
0001
0010
0100
1000
0001
1000
0010
0100
0001
0000
1000
0000
,
0001
0010
0100
1000
0001
0010
0100
1000
0001
0100
0001
1000
0010
0100
0001
0010
,
0001
1000
0010
1000
0001
1000
0100
0010
0001
1000
0001
0010
0100
1000
0001
0100
,
0010
1000
0100
0010
0001
1000
0010
0100
,
0001
0000
1000
0000
0001
0000
1000
0000
0020
0000
0000
0030
0200
0000
0000
0300
,
0001
0010
0001
1000
0001
0100
0001
0010
,
0100
1000
0001
1000
0010
1000
0001
1000
,
0100
0010
0001
1000
0001
0100
0001
1000
,
0100
0000
0010
0000
0100
0000
0010
0000
0001
1000
0010
0000
1000
0001
0010
0001
,
1000
0010
1000
0001
1000
0100
1000
0010
,
0100
0001
1000
0001
0010
0001
1000
0001
,
0100
0010
1000
0001
1000
0100
1000
0001
,
0100
0000
0010
0000
0100
0000
0010
0000
2000
0000
0000
3000
0002
0000
0000
0003
,
1000
0100
1000
0001
1000
0010
0100
0001
0100
0010
1000
0001
0010
0001
1000
0010
,
1000
0100
0010
0001
0100
0001
1000
0100
0010
0001
0010
0100
2000
0000
3000
0000
,
0001
0100
0001
1000
0001
0010
0100
1000
0100
0010
0001
1000
0010
1000
0001
0010
,
0001
0100
0001
1000
0100
1000
0001
0100
0010
1000
0010
0100
0002
0000
0003
0000
,
1000
0010
1000
0001
1000
0100
0010
0001
0010
0100
1000
0001
0100
0001
1000
0100
,
1000
0010
1000
0001
0010
0001
1000
0010
0200
0000
0300
0000
0010
0000
1000
0001
,
0010
0000
0100
0000
1000
0100
0010
0001
1000
0001
0100
0001
1000
0100
0010
0000
,
0000
0001
0100
0010
2000
3000
0002
0003
,
1000
0001
0010
0001
1000
0010
0100
0010
1000
0100
1000
0001
1000
0010
0100
0010
,
1000
0001
0010
0001
1000
0100
0010
0001
0100
0001
1000
0001
0010
0100
0010
0001
,
1000
0010
0100
0010
1000
0001
0010
0001
1000
0100
0010
0001
1000
0000
0010
0000
,
0200
0000
0301
0000
2000
0000
3001
0000
0020
0000
0130
0000
1000
0001
1000
0001
,
0010
0100
1000
0001
1000
0010
0100
0001
0100
0010
1000
0001
0010
0001
1000
0001
,
0010
0100
1000
0001
1000
0100
1000
0001
0100
0010
1000
0001
0010
0100
1000
0001
,
0100
0010
0100
0001
1000
0100
0010
0100
,
2000
3002
0203
0320
2030
0000
3000
0000
,
0001
0000
0000
0000
0000
0000
0000
0000
0010
0000
0000
0000
0000
0000
0000
0000
0001
0000
0000
0000
0000
0000
0000
0000
1000
0000
0000
0000
0000
0000
0000
0000
0010
0000
0000
0000
0000
0000
0000
0000
1000
0000
0000
0000
0000
0000
0000
0000
0200
0300
0000
0000
0000
0000
0000
0000
1000
0000
0000
0000
0000
0000
0000
0000
,
0001
0000
0000
0000
0000
0000
0000
0000
0100
0000
0000
0000
0000
0000
0000
0000
0001
0000
0000
0000
0000
0000
0000
0000
1000
0000
0000
0000
0000
0000
0000
0000
0100
0000
0000
0000
0000
0000
0000
0000
0020
0030
0000
0000
0000
0000
0000
0000
0100
0000
0000
0000
0000
0000
0000
0000
1000
0000
0000
0000
0000
0000
0000
0000
,
0001
0100
0010
1000
0001
0010
0100
0010
,
0001
1000
0010
0100
0001
1000
0100
1000
,
0001
0000
0000
0000
0000
0000
0000
0000
0100
0000
0000
0000
0000
0000
0000
0000
0001
0000
0000
0000
0000
0000
0000
0000
1000
0000
0000
0000
0000
0000
0000
0000
0100
0000
0000
0000
0000
0000
0000
0000
1000
0000
0000
0000
0000
0000
0000
0000
0020
0030
0000
0000
0000
0000
0000
0000
1000
0000
0000
0000
0000
0000
0000
0000
,
0001
0000
0000
0000
0000
0000
0000
0000
0010
0000
0000
0000
0000
0000
0000
0000
0001
0000
0000
0000
0000
0000
0000
0000
1000
0000
0000
0000
0000
0000
0000
0000
0010
0000
0000
0000
0000
0000
0000
0000
0200
0300
0000
0000
0000
0000
0000
0000
0010
0000
0000
0000
0000
0000
0000
0000
1000
0000
0000
0000
0000
0000
0000
0000
,
0001
0100
0010
1000
0100
1000
0010
0100
,
0001
0000
0010
0000
0001
0000
0100
0000
0010
0000
1000
0000
0100
0000
1000
0001
,
1000
0000
0000
0000
0000
0000
0000
0000
0010
0000
0000
0000
0000
0000
0000
0000
1000
0000
0000
0000
0000
0000
0000
0000
0001
0000
0000
0000
0000
0000
0000
0000
0010
0000
0000
0000
0000
0000
0000
0000
0001
0000
0000
0000
0000
0000
0000
0000
0200
0300
0000
0000
0000
0000
0000
0000
0001
0000
0000
0000
0000
0000
0000
0000
,
1000
0000
0000
0000
0000
0000
0000
0000
0100
0000
0000
0000
0000
0000
0000
0000
1000
0000
0000
0000
0000
0000
0000
0000
0001
0000
0000
0000
0000
0000
0000
0000
0100
0000
0000
0000
0000
0000
0000
0000
0020
0030
0000
0000
0000
0000
0000
0000
0100
0000
0000
0000
0000
0000
0000
0000
0001
0000
0000
0000
0000
0000
0000
0000
,
1000
0100
0010
0001
1000
0010
0100
0010
,
1000
0001
0010
0100
1000
0001
0100
0001
,
1000
0100
0010
0001
0100
0001
0010
0100
,
1000
0000
0010
0000
1000
0000
0100
0000
0010
0000
0001
0000
0100
0000
0001
1000
,
0001
0010
0100
1000
0010
0100
0001
1000
,
0001
0010
0001
1000
0010
1000
0001
0010
0100
0010
0001
1000
0010
0000
0100
0000
,
0001
0010
0100
1000
0001
0100
0001
1000
,
0010
0100
0001
1000
0100
0010
0100
1000
,
0001
0100
0010
1000
0001
0010
0001
1000
,
0100
0010
0001
1000
0010
0100
0010
1000
,
0100
0010
0001
1000
0100
1000
0001
0100
,
0010
1000
0001
0100
0001
1000
0100
0010
,
0001
0010
0100
1000
0001
0100
0001
1000
0010
0100
0001
1000
0100
1000
0001
0100
,
0010
1000
0001
0010
0001
1000
0100
0010
0001
0000
1000
0000
0010
0000
1000
0000
,
0001
0100
0010
1000
0001
0010
0001
1000
,
0100
0010
0001
1000
0010
0100
0010
1000
,
0001
0010
0100
1000
0001
0100
0001
1000
,
0010
0100
0001
1000
0100
0010
0100
1000
,
0010
0100
0001
1000
0010
1000
0001
0010
,
0100
1000
0001
0010
0001
1000
0010
0100
,
0001
0100
0010
1000
0001
0010
0001
1000
0100
0010
0001
1000
0010
1000
0001
0010
,
0100
1000
0001
0100
0001
1000
0010
0100
0001
0010
0001
1000
0010
1000
0001
1000
,
0200
0000
0000
0300
0000
0000
0000
0000
0000
0000
0000
0000
0000
0000
0000
0000
0000
0000
0000
0000
0000
0000
0000
0000
0020
0000
0000
0000
0030
0000
0000
0000
0000
0000
0000
0000
0000
0000
0000
0000
0000
0000
0000
0000
0000
0000
0000
0000
0200
0000
0000
0300
0000
0000
0000
0000
0000
0000
0000
0000
0000
0000
0000
0000
0000
0000
0000
0000
0000
0000
0000
0000
2000
0000
0000
0000
0000
0000
3000
0000
0000
0000
0000
0000
0000
0000
0000
0000
0000
0000
0000
0000
0000
0000
0000
0000
0002
0000
0000
0000
0000
0000
0000
0003
0000
0000
0000
0000
0000
0000
0000
0000
0000
0000
0000
0000
0000
0000
0000
0000
0400
0000
0000
0000
0000
0000
0000
0000
0300
0000
0000
0000
0000
0000
0000
0000
0000
0000
0000
0000
0000
0000
0000
0000
0040
0000
0000
0000
0000
0000
0000
0000
0000
0030
0000
0000
0000
0000
0000
0000
0000
0000
0000
0000
0000
0000
0000
0000
0400
0000
0000
0000
0000
0000
0000
0000
0000
0300
0000
0000
0000
0000
0000
0000
0000
0000
0000
0000
0000
0000
0000
0000
,
2002
0000
0000
0000
,
0000
0000
0000
0000
,
3003
0000
0000
0000
;

//--------------- dance-single - NAOKI 15*/16/17*/16/7/6/7/15* ----------------
#NOTES:
     dance-single:
     NAOKI 15*/16/17*/16/7/6/7/15*:
     Hard:
     16:
     1.096519,1.219509,0.007835,0.574563,1.189606,2939,2936,3,220,0,0,6,0,0,1.096519,1.219509,0.007835,0.574563,1.189606,2939,2936,3,220,0,0,6,0,0:
0000
0000
0000
0000
,
0000
0000
0000
0000
,
0000
0000
0000
0000
,
0000
0000
0000
0000
,
0000
0000
0000
0000
,
0000
0000
0000
0000
,
0000
0000
0000
0000
,
0000
0000
0000
0000
,
1000
0000
0000
0000
0000
0000
0000
0000
0010
0000
0000
0000
0000
0000
0000
0000
1000
0000
0000
0000
0000
0000
0000
0000
0001
0000
0000
0000
0000
0000
0000
0000
0010
0000
0000
0000
0000
0000
0000
0000
0001
0000
0000
0000
0000
0000
0000
0000
0200
0300
0000
0000
0000
0000
0000
0000
0001
0000
0000
0000
0000
0000
0000
0000
,
1000
0000
0000
0000
0000
0000
0000
0000
0100
0000
0000
0000
0000
0000
0000
0000
1000
0000
0000
0000
0000
0000
0000
0000
0001
0000
0000
0000
0000
0000
0000
0000
0100
0000
0000
0000
0000
0000
0000
0000
0020
0030
0000
0000
0000
0000
0000
0000
0100
0000
0000
0000
0000
0000
0000
0000
0001
0000
0000
0000
0000
0000
0000
0000
,
1000
0100
0010
0001
1000
0010
0100
0010
,
1000
0001
0010
0100
1000
0001
0100
0001
,
1000
0000
0000
0000
0000
0000
0000
0000
0100
0000
0000
0000
0000
0000
0000
0000
1000
0000
0000
0000
0000
0000
0000
0000
0001
0000
0000
0000
0000
0000
0000
0000
0100
0000
0000
0000
0000
0000
0000
0000
0001
0000
0000
0000
0000
0000
0000
0000
0020
0030
0000
0000
0000
0000
0000
0000
0001
0000
0000
0000
0000
0000
0000
0000
,
1000
0000
0000
0000
0000
0000
0000
0000
0010
0000
0000
0000
0000
0000
0000
0000
1000
0000
0000
0000
0000
0000
0000
0000
0001
0000
0000
0000
0000
0000
0000
0000
0010
0000
0000
0000
0000
0000
0000
0000
0200
0300
0000
0000
0000
0000
0000
0000
0010
0000
0000
0000
0000
0000
0000
0000
0001
0000
0000
0000
0000
0000
0000
0000
,
1000
0100
0010
0001
0100
0001
0010
0100
,
1000
0000
0010
0000
1000
0000
0100
0000
0010
0000
0001
0000
0100
0000
0001
1000
,
0001
0000
0000
0000
0000
0000
0000
0000
0010
0000
0000
0000
0000
0000
0000
0000
0001
0000
0000
0000
0000
0000
0000
0000
1000
0000
0000
0000
0000
0000
0000
0000
0010
0000
0000
0000
0000
0000
0000
0000
1000
0000
0000
0000
0000
0000
0000
0000
0200
0300
0000
0000
0000
0000
0000
0000
1000
0000
0000
0000
0000
0000
0000
0000
,
0001
0000
0000
0000
0000
0000
0000
0000
0100
0000
0000
0000
0000
0000
0000
0000
0001
0000
0000
0000
0000
0000
0000
0000
1000
0000
0000
0000
0000
0000
0000
0000
0100
0000
0000
0000
0000
0000
0000
0000
0020
0030
0000
0000
0000
0000
0000
0000
0100
0000
0000
0000
0000
0000
0000
0000
1000
0000
0000
0000
0000
0000
0000
0000
,
0001
0100
0010
1000
0001
0010
0100
0010
,
0001
1000
0010
0100
0001
1000
0100
1000
,
0001
0100
0010
1000
0100
1000
0010
0100
,
0001
0000
0010
0000
0001
0000
0100
0000
0010
0000
1000
0000
0100
0000
1000
0001
,
1000
0010
0100
0001
0010
0100
1000
0001
,
1000
0010
1000
0001
0010
0001
1000
0010
0100
0010
1000
0001
0010
0000
0100
0000
,
1000
0100
0010
0001
1000
0100
1000
0001
0100
0010
1000
0001
0010
0001
1000
0010
,
1000
0100
0010
0001
1000
0100
1000
0001
0100
0010
1000
0001
0100
0001
0010
0001
,
1000
0010
0100
0001
1000
0010
1000
0001
0010
0100
1000
0001
0100
0001
1000
0100
,
1000
0010
0100
0001
1000
0010
1000
0001
0010
0100
1000
0001
0010
0001
0100
0001
,
1000
0100
1000
0001
0010
0100
1000
0001
0100
0001
1000
0010
0100
0001
0010
0001
,
1000
0100
1000
0001
0010
0100
1000
0001
0100
0010
1000
0001
0100
0001
0010
0001
,
1000
0010
1000
0100
0010
0001
0100
0001
0010
0100
1000
0010
1000
0001
0010
0001
,
0100
0010
1000
0100
1000
0010
0100
0001
1000
0000
0100
0000
0010
0000
0100
0000
,
1000
0001
0100
0010
1000
0001
0100
0001
1000
0100
0010
0001
1000
0010
1000
0001
,
0010
0001
0100
0010
1000
0001
0100
0001
0010
0100
1000
0001
1000
0100
1000
0001
,
0100
0001
0010
0100
1000
0001
0010
0001
1000
0010
0100
0001
1000
0100
1000
0001
,
0100
0001
0010
0100
1000
0001
0010
0001
0100
0010
1000
0001
1000
0100
1000
0010
,
0100
0001
0010
0001
1000
0010
0100
0001
1000
0100
1000
0001
0010
0100
1000
0010
,
1000
0001
0100
0001
1000
0010
0100
0001
1000
0100
1000
0001
0010
0100
1000
0010
,
1000
0001
0010
0001
0100
0010
1000
0100
1000
0010
0100
0001
0010
0001
1000
0010
,
1000
0100
0010
0001
0100
0001
0010
0100
1000
0010
1000
0001
0010
0001
1000
0001
,
0200
0000
0000
0300
0000
0000
0000
0000
0000
0000
0000
0000
0000
0000
0000
0000
0000
0000
0000
0000
0000
0000
0000
0000
0020
0000
0000
0000
0030
0000
0000
0000
0000
0000
0000
0000
0000
0000
0000
0000
0000
0000
0000
0000
0000
0000
0000
0000
0200
0000
0000
0000
0000
0300
0000
0000
0000
0000
0000
0000
0000
0000
0000
0000
0000
0000
0000
0000
0000
0000
0000
0000
0002
0000
0000
0000
0000
0000
0003
0000
0000
0000
0000
0000
0000
0000
0000
0000
0000
0000
0000
0000
0000
0000
0000
0000
2000
0000
0000
0000
0000
0000
0000
3000
0000
0000
0000
0000
0000
0000
0000
0000
0000
0000
0000
0000
0000
0000
0000
0000
0400
0000
0000
0000
0000
0000
0000
0000
0300
0000
0000
0000
0000
0000
0000
0000
0000
0000
0000
0000
0000
0000
0000
0000
0040
0000
0000
0000
0000
0000
0000
0000
0000
0030
0000
0000
0000
0000
0000
0000
0000
0000
0000
0000
0000
0000
0000
0000
0400
0000
0000
0000
0000
0000
0000
0000
0000
0000
0300
0000
0000
0000
0000
0000
0000
0000
0000
0000
0000
0000
0000
0000
,
1002
0000
0203
0320
0000
2030
0000
3002
,
0000
0000
0000
0000
0003
2000
3200
0320
,
0032
0000
0203
0320
0000
2030
0000
3200
,
0000
0000
0000
0000
0000
0000
0000
0000
0300
0000
0000
0000
0000
0000
0000
0000
0020
0000
0000
0030
0000
0000
0000
0000
0020
0000
0000
0030
0000
0000
0000
0000
,
0002
0000
0203
0320
0000
2030
0000
3002
,
0000
0000
0023
0230
0000
2300
0000
3020
,
0000
0000
0230
0320
0000
2030
3002
0023
,
0000
0000
0000
0000
0000
0000
0000
0000
0000
0000
0000
0000
0000
0000
0000
0000
0030
0000
0000
0000
0000
0000
0000
0000
0200
0000
0000
0300
0000
0000
0000
0000
,
2001
0000
3200
0320
0000
0032
0000
2003
,
0000
0000
0000
0000
3000
0002
0203
0320
,
2030
0000
3200
0320
0000
0032
0000
0203
,
0000
0000
0000
0000
0000
0000
0000
0000
0300
0000
0000
0000
0000
0000
0000
0000
0020
0000
0000
0030
0000
0000
0000
0000
0020
0000
0000
0030
0000
0000
0000
0000
,
2000
0000
3200
0320
0000
0032
0000
2003
,
0000
3020
0230
0302
,
0023
0000
0230
0320
0000
0032
0000
1003
,
0010
0100
0001
1000
0100
0010
0001
0100
0010
1000
0001
0010
0100
1000
0001
0100
,
0010
0000
0000
0000
0100
0000
0001
0000
0000
0000
1000
0100
0010
0001
1000
0010
,
0100
0001
1000
0100
1000
0001
0100
0001
1000
0001
0010
0100
1000
0001
1000
0001
,
0100
0000
0000
0000
0010
0100
0002
0000
0000
0000
2003
0000
0000
0000
3200
0000
,
0000
0000
0310
0000
0001
0000
0000
0000
1000
0000
0010
0000
1000
0001
1000
0001
,
0010
0100
1000
0100
0010
0001
1000
0010
0100
0001
1000
0100
0010
0001
0100
0001
,
1000
0001
0010
0100
1000
0001
0100
0010
0100
0001
1000
0100
1000
0001
1000
0010
,
0100
0001
0100
0010
1000
0001
0010
0100
1000
0001
0100
0010
1000
0001
0010
0001
,
1000
0001
0100
0010
0100
0001
1000
0010
1000
0100
0010
0001
1000
0100
1000
0100
,
0010
0001
1000
0010
0100
0001
1000
0001
0010
0100
1000
0001
0010
0001
1000
0001
,
0100
0010
1000
0010
0100
0001
1000
0100
1000
0001
0010
0100
1000
0001
0010
0001
,
1000
0001
0100
0010
1000
0100
1000
0001
1000
0001
0010
0001
1000
0100
1000
0001
,
1000
0001
0100
0001
1000
0010
1000
0001
1000
0001
0010
0001
1000
0100
0010
0001
,
1000
0010
0100
0001
0100
0010
1000
0001
0010
0100
1000
0001
0100
0010
1000
0100
,
1000
0001
1000
0010
0100
0001
1000
0100
0010
0100
1000
0001
0100
0001
1000
0001
,
0010
0100
1000
0100
0010
0001
1000
0010
0100
0001
1000
0100
0010
0001
1000
0010
,
1000
0001
1000
0100
0010
0100
1000
0001
0010
0001
1000
0010
0100
0001
0100
0001
,
1000
0100
0010
0100
1000
0001
1000
0010
0100
0001
1000
0010
1000
0001
1000
0100
,
0010
0001
0010
0100
1000
0001
0100
0001
1000
0010
0100
0001
1000
0010
1000
0001
,
1000
0100
0010
0001
0100
0001
1000
0001
1000
0010
1000
0001
0100
0001
1000
0001
,
1000
0100
1000
0001
0010
0001
1000
0001
1000
0010
0100
0010
1000
0001
1000
0001
,
0020
0000
0000
0000
,
0000
0000
0000
0000
0000
0000
0000
0000
0000
0000
0000
0000
0130
1000
0001
0100
,
0020
0000
0000
0030
1000
0001
0020
0000
0030
0000
0200
0000
0300
0000
2000
0000
,
3000
0000
0001
0000
0200
0000
0000
0000
0310
0000
1000
0000
0001
0010
0100
1000
,
0001
0010
0001
1000
0010
0100
0001
1000
,
0100
0010
0001
1000
0010
0100
0010
1000
,
0001
0010
0001
1000
0100
0010
0001
0100
,
0010
1000
0001
0010
0100
1000
0010
1000
,
0001
0010
0100
0010
0001
1000
0010
0100
,
0001
1000
0100
1000
0001
0100
0010
1000
,
0002
0000
0000
0000
0000
0000
0000
0000
0000
0000
0000
0000
0000
0000
0000
0000
0000
0000
0003
0000
0000
0000
0000
0000
0020
0000
0000
0000
0000
0000
0000
0000
0000
0000
0000
0000
0000
0000
0000
0000
0000
0000
0030
0000
0000
0000
0000
0000
0200
0000
0000
0000
0000
0000
0000
0000
0000
0000
0000
0000
0000
0000
0000
0000
0000
0300
0000
0000
0000
0000
0000
0000
2000
0000
0000
0000
0000
0000
0000
0000
0000
0000
0000
0000
0000
0000
0000
0000
0000
0000
3000
0000
0000
0000
0000
0000
0200
0000
0000
0000
0000
0000
0000
0000
0000
0000
0000
0000
0300
0000
0000
0000
0000
0000
0000
0000
0000
0000
0000
0000
0020
0000
0000
0000
0000
0000
0000
0000
0000
0000
0000
0000
0030
0000
0000
0000
0000
0000
0000
0000
0000
0000
0000
0000
0002
0000
0000
0000
0000
0000
0000
0000
0000
0000
0000
0000
0003
0000
0000
0000
0000
0000
0000
0000
0000
0000
0000
0000
2000
0000
0000
0000
0000
0000
0000
0000
0000
3000
0000
0000
0000
0000
0000
0000
0000
0000
0000
0000
0000
0000
0000
0000
,
0020
0000
0000
0030
0000
0000
0000
0000
0200
0000
0000
0300
0000
0000
0000
0000
0002
0000
0003
0000
0000
0000
0000
0000
0200
0000
0300
0000
0000
0000
0000
0000
0020
0000
0030
0000
0000
0000
0000
0000
2000
3000
0000
0000
0000
0000
0000
0000
0002
0003
0000
0000
0000
0000
0000
0000
0020
0030
0000
0000
0000
0000
0000
0000
,
0100
0000
0000
0000
0000
0000
0000
0000
1000
0000
0000
0000
0000
0000
0000
0000
0010
0000
0000
0000
0000
0000
0000
0000
1000
0000
0000
0000
0000
0000
0000
0000
0002
0003
0000
0000
0000
0000
0000
0000
0010
0000
0000
0000
0000
0000
0000
0000
0100
0000
0000
0000
0000
0000
0000
0000
0010
0000
0000
0000
0000
0000
0000
0000
,
0001
0000
0000
0000
0000
0000
0000
0000
2000
3000
0000
0000
0000
0000
0000
0000
0010
0000
0000
0000
0000
0000
0000
0000
0100
0000
0000
0000
0000
0000
0000
0000
0010
0000
0000
0000
0000
0000
0000
0000
1000
0000
0000
0000
0000
0000
0000
0000
0002
0003
0000
0000
0000
0000
0000
0000
0010
0000
0000
0000
0000
0000
0000
0000
,
0100
0010
0001
1000
0001
0100
0010
1000
,
0001
1000
0100
0010
0001
0100
0001
0010
,
0100
1000
0010
1000
0100
0010
0001
1000
,
0100
1000
0010
0100
0001
0010
0001
1000
,
0010
0100
0001
1000
0100
1000
0001
0100
,
0010
1000
0001
0010
0001
0100
0010
0010
,
1000
0000
0002
0000
0000
0023
0000
0000
0230
0000
0000
0320
0000
0000
0031
0000
,
0000
0000
2000
0000
0000
3020
0000
0000
0230
0000
0000
0320
0000
0000
1030
0000
,
0001
0000
0020
0000
0000
0230
0000
0000
2300
0000
0000
3002
0000
0000
0103
0000
,
0000
0000
0020
0000
0000
2030
0000
0000
3002
0000
0000
0023
0000
0000
0130
0000
,
1000
0000
0010
0000
0100
0000
0001
0000
1000
0000
0100
0000
0010
0000
0001
1000
,
0010
0000
0100
0000
0010
0000
1000
0000
0001
0000
0010
0000
0100
0000
1000
0001
,
0100
0001
1000
0001
0100
0010
1000
0001
1000
0100
1000
0001
0100
0010
1000
0001
,
0020
0000
0000
0000
0130
1000
0000
0001
,
0100
0010
1000
0010
0100
0010
1000
0001
0010
0001
1000
0100
0010
0001
1000
0100
,
1000
0001
1000
0100
0010
0001
1000
0010
0100
0010
1000
0001
0010
0100
1000
0001
,
0100
0010
0100
0001
0100
0010
1000
0001
0010
0100
0010
0001
1000
0100
1000
0001
,
0100
0001
1000
0001
0100
0010
1000
0001
0010
0001
1000
0010
0100
0010
1000
0001
,
0010
0100
1000
0100
0010
0001
1000
0010
0100
0010
1000
0001
0010
0100
1000
0001
,
0100
0010
1000
0010
0100
0001
1000
0100
0010
0100
1000
0001
0100
0010
0100
0001
,
1000
0100
1000
0010
0100
0001
0100
0010
1000
0001
1000
0100
0010
0001
0010
0100
,
1000
0001
0100
0001
1000
0100
1000
0001
0100
0000
0000
0000
0001
0000
1000
0000
,
0100
0010
0001
0010
0100
0010
0001
1000
0010
1000
0001
0100
0010
1000
0001
0100
,
0001
1000
0001
0100
0010
1000
0001
0010
0100
0010
0001
1000
0010
0100
0001
1000
,
0100
0010
0100
1000
0100
0010
0001
1000
0010
0100
0010
1000
0001
0100
0001
1000
,
0100
1000
0001
1000
0100
0010
0001
1000
0010
1000
0001
0010
0100
0010
0001
1000
,
0010
0100
0001
0100
0010
1000
0001
0010
0100
1000
0001
0100
0010
0100
0001
1000
,
0100
0010
0001
0010
0100
1000
0001
0100
0010
1000
0001
0010
0001
1000
0010
1000
,
0001
0010
0100
1000
0100
0010
0001
1000
0001
0100
0001
1000
0100
1000
0001
0100
,
0010
1000
0010
0100
0001
1000
0001
0010
0100
1000
0001
0010
0001
1000
0010
0100
,
0001
0100
0010
1000
0001
0000
0010
0000
0000
0000
0100
0000
0000
0000
0010
0000
,
0000
0001
1000
0000
0000
0000
0010
0000
0100
0000
0000
0001
0000
0000
1000
0000
,
0001
0010
0100
1000
0100
0010
0001
1000
0010
1000
0001
0010
0001
1000
0010
0100
,
0001
0100
0010
1000
0001
1000
0100
0010
0001
0100
0001
1000
0100
1000
0001
0100
,
0020
0000
0000
0000
0100
0000
0000
0000
0100
0000
0000
0000
0130
0000
0002
0003
,
1000
0000
0000
0000
0000
0000
0000
0000
0002
0000
0000
0000
0003
0000
0000
0000
0010
0000
0000
0000
0000
0000
0000
0000
0002
0000
0000
0000
0003
0000
0000
0000
1000
0000
0000
0000
0000
0000
0000
0000
0002
0000
0000
0000
0003
0000
0000
0000
0100
0000
0000
0000
0000
0000
0000
0000
0002
0000
0000
0003
0000
0000
0000
0000
,
1000
0000
0000
0000
0000
0000
0000
0000
0002
0000
0000
0003
0000
0000
0000
0000
0010
0000
0000
0000
0000
0000
0000
0000
0002
0000
0000
0003
0000
0000
0000
0000
1000
0000
0000
0000
0000
0000
0000
0000
0002
0000
0000
0003
0000
0000
0000
0000
0100
0000
0000
0000
0000
0000
0000
0000
0002
0000
0000
0003
0000
0000
0000
0000
,
1000
0000
0000
0000
0020
0030
0000
0000
1000
0000
0000
0000
0002
0003
0000
0000
1000
0000
0000
0000
0200
0300
0000
0000
1000
0000
0000
0000
0002
0003
0000
0000
,
1000
0010
1000
0001
1000
0100
1000
0001
,
0100
0010
1000
0001
0010
0100
0010
0001
,
1000
0010
0100
0010
1000
0001
0010
0100
,
1000
0001
0100
0010
0100
0001
1000
0100
,
0010
0001
1000
0001
0100
0001
1000
0001
,
0010
0100
1000
0001
0100
0010
1000
0001
,
0010
0100
1000
0001
0100
0010
1000
0100
,
1000
0010
0100
0001
1000
0100
0010
0001
,
0100
0001
0010
0100
1000
0001
0100
0010
,
1000
0100
1000
0001
1000
0010
0100
0001
,
0010
0001
0100
0001
1000
0100
0010
0001
,
0100
0000
0000
0000
0000
0000
0000
0000
0001
0000
0000
0000
0000
0000
0000
0000
0010
0000
0000
0000
0000
0000
0000
0000
0001
0000
0000
0000
0000
0000
0000
0000
1000
0000
0000
0000
0000
0000
0000
0000
0020
0030
0000
0000
0000
0000
0000
0000
0200
0300
0000
0000
0000
0000
0000
0000
0020
0030
0000
0000
0000
0000
0000
0000
,
1000
0100
1000
0001
1000
0010
0100
0001
,
1000
0100
1000
0001
1000
0010
0100
0001
,
1000
0010
1000
0001
1000
0100
0010
0001
,
1000
0010
1000
0001
1000
0100
0010
0001
,
0100
0001
1000
0001
0010
0100
1000
0001
,
0100
0001
1000
0001
0010
0100
1000
0001
,
2000
0000
0000
0000
0000
0000
0000
0000
0000
0000
0000
0000
0000
0000
0000
0000
0000
0000
3000
0000
0000
0000
0000
0000
0200
0000
0000
0000
0000
0000
0000
0000
0000
0000
0000
0000
0000
0000
0000
0000
0000
0000
0300
0000
0000
0000
0000
0000
0020
0000
0000
0000
0000
0000
0000
0000
0000
0000
0000
0000
0000
0000
0000
0000
0000
0030
0000
0000
0000
0000
0000
0000
0002
0000
0000
0000
0000
0000
0000
0000
0000
0000
0000
0000
0000
0000
0000
0000
0000
0000
0003
0000
0000
0000
0000
0000
0020
0000
0000
0000
0000
0000
0000
0000
0000
0000
0000
0000
0030
0000
0000
0000
0000
0000
0000
0000
0000
0000
0000
0000
0200
0000
0000
0000
0000
0000
0000
0000
0000
0000
0000
0000
0300
0000
0000
0000
0000
0000
0000
0000
0000
0000
0000
0000
2000
0000
0000
0000
0000
0000
0000
0000
0000
0000
0000
0000
3000
0000
0000
0000
0000
0000
0000
0000
0000
0000
0000
0000
0002
0000
0000
0000
0000
0000
0000
0000
0000
0003
0000
0000
0000
0000
0000
0000
0000
0000
0000
0000
0000
0000
0000
0000
,
0200
0000
0000
0300
0000
0000
0000
0000
0020
0000
0000
0030
0000
0000
0000
0000
2000
0000
3000
0000
0000
0000
0000
0000
0020
0000
0030
0000
0000
0000
0000
0000
0200
0000
0300
0000
0000
0000
0000
0000
0002
0003
0000
0000
0000
0000
0000
0000
2000
3000
0000
0000
0000
0000
0000
0000
0200
0300
0000
0000
0000
0000
0000
0000
,
0010
0001
1000
0001
0100
0010
1000
0001
,
0010
0001
1000
0001
0010
0100
1000
0001
,
2000
0000
0000
0000
0000
0000
0000
0000
0010
0000
0000
0000
0000
0000
0000
3000
2000
0000
0000
0000
0000
0000
0000
0000
0001
0000
0000
0000
0000
0000
0000
3000
2000
0000
0000
0000
0000
0000
0000
0000
0100
0000
0000
0000
0000
0000
0000
3000
1000
0000
0000
0000
0000
0000
0000
0000
0001
0000
0000
0000
0000
0000
0000
0000
,
0100
0010
1000
0001
0010
0100
0010
0001
,
1000
0010
0100
0001
1000
0100
0010
0100
,
1000
0001
0100
0010
1000
0100
1000
0001
,
0100
0000
0000
0000
0010
0000
0000
0000
0100
0000
0000
0000
0001
0000
0000
0000
1000
0000
0000
0000
0001
0000
0000
0000
0020
0000
0000
0030
0200
0000
0000
0300
,
2000
0000
0000
3000
0002
0000
0000
0003
0200
0000
0000
0300
0020
0000
0000
0030
2000
0000
0000
0000
0000
0000
0000
0000
3000
0000
0000
0000
0000
0000
0000
0000
,
0001
0010
0100
1000
0001
0100
0010
0100
0001
1000
0100
1000
0001
0010
0100
0010
,
0001
1000
0010
1000
0001
1000
0100
0010
0100
1000
0001
0100
0001
1000
0010
0100
,
0001
1000
0100
1000
0001
1000
0010
0100
0010
1000
0001
0010
0001
1000
0100
0010
,
0100
1000
0001
0100
0001
1000
0001
0010
0100
0010
0001
1000
0010
1000
0001
0010
,
0001
0100
0001
1000
0100
0010
0100
1000
0001
0100
0001
1000
0010
0100
0010
1000
,
0001
0010
0001
1000
0001
0100
0010
0100
0001
1000
0100
1000
0001
0010
0100
1000
,
0001
0100
0001
1000
0001
0010
0100
0010
0001
1000
0010
1000
0001
0100
0010
1000
,
0001
0010
0001
1000
0100
1000
0001
0100
0001
1000
0100
0010
0001
1000
0001
1000
,
0010
0100
0001
1000
0001
0010
0100
1000
0001
0100
0010
1000
0001
0100
0010
0100
,
0001
1000
0100
0010
0001
1000
0010
0100
0010
1000
0001
0010
0001
1000
0100
0010
,
0001
1000
0010
1000
0001
1000
0100
0010
0001
1000
0010
0100
0001
1000
0010
0100
,
0010
1000
0001
0010
0001
1000
0001
0100
0010
1000
0001
1000
0100
1000
0001
0100
,
0001
0010
0001
1000
0010
0100
0001
1000
0100
0010
0001
1000
0100
0010
0100
1000
,
0001
0100
0001
1000
0001
0010
0100
0010
0001
1000
0010
1000
0001
0100
0010
1000
,
0001
0010
0001
1000
0001
0100
0010
1000
0001
0010
0100
1000
0001
0010
0100
0010
,
0001
1000
0001
0100
0010
1000
0001
1000
0100
0010
0100
1000
0001
0100
0010
1000
,
0001
0010
0001
0100
0001
1000
0100
1000
,
0010
0100
0001
0010
0100
1000
0010
0100
,
0001
0010
0100
1000
0010
1000
0100
1000
,
0001
0100
0001
0010
0100
1000
0100
0010
,
0001
0100
0001
0010
0001
1000
0010
1000
,
0100
0010
0001
0100
0010
0100
0001
1000
,
0100
1000
0010
1000
0001
0010
0001
1000
,
0010
0100
0001
0010
0100
1000
0010
0100
,
0001
0010
0001
0100
0001
1000
0100
1000
,
0010
0100
0001
0010
0100
1000
0010
0100
,
0001
0010
0100
1000
0010
1000
0100
1000
,
0001
0100
0001
0010
0100
1000
0100
0010
,
0001
0100
0001
0010
0001
1000
0010
1000
,
0100
0010
0001
0100
0010
0100
0001
1000
,
0100
1000
0010
1000
0001
0010
0001
1000
,
0010
0100
0001
1000
0100
0010
0001
0100
0010
1000
0001
0010
0100
1000
0010
0100
,
0001
0010
0100
1000
0010
1000
0100
0010
,
0001
1000
0010
1000
0001
0010
0100
0010
,
0001
0000
0000
0000
0000
0000
0000
0000
1000
0000
0000
0000
0000
0000
0000
0000
0020
0030
0000
0000
0000
0000
0000
0000
0200
0300
0000
0000
0000
0000
0000
0000
0002
0003
0000
0000
0000
0000
0000
0000
2000
3000
0000
0000
0000
0000
0000
0000
0200
0000
0000
0000
0300
0000
0000
0000
0010
0000
0000
0000
0000
0000
0000
0000
,
0001
0100
0010
1000
0001
0010
0001
1000
,
0200
0300
0000
0000
0000
0000
0000
0000
1000
0000
0000
0000
0000
0000
0000
0000
0020
0030
0000
0000
0000
0000
0000
0000
1000
0000
0000
0000
0000
0000
0000
0000
0200
0300
0000
0000
0000
0000
0000
0000
0010
0000
0000
0000
0000
0000
0000
0000
0001
0000
0000
0000
0000
0000
0000
0000
1000
0000
0000
0000
0000
0000
0000
0000
,
0010
0100
0001
1000
0100
0010
0001
1000
,
0002
0000
0000
0000
0000
0000
0000
0000
0000
0000
0000
0000
0000
0000
0000
0000
0000
0000
0003
0000
0000
0000
0000
0000
0200
0000
0000
0000
0000
0000
0000
0000
0000
0000
0000
0000
0000
0000
0000
0000
0000
0000
0300
0000
0000
0000
0000
0000
0020
0000
0000
0000
0000
0000
0000
0000
0000
0000
0000
0000
0000
0000
0000
0000
0000
0030
0000
0000
0000
0000
0000
0000
2000
0000
0000
0000
0000
0000
0000
0000
0000
0000
0000
0000
0000
0000
0000
0000
0000
0000
3000
0000
0000
0000
0000
0000
0020
0000
0000
0000
0000
0000
0000
0000
0000
0000
0000
0000
0030
0000
0000
0000
0000
0000
0000
0000
0000
0000
0000
0000
0200
0000
0000
0000
0000
0000
0000
0000
0000
0000
0000
0000
0300
0000
0000
0000
0000
0000
0000
0000
0000
0000
0000
0000
0002
0000
0000
0000
0000
0000
0000
0000
0000
0000
0000
0000
0003
0000
0000
0000
0000
0000
0000
0000
0000
0000
0000
0000
2000
0000
0000
0000
0000
0000
0000
0000
0000
3000
0000
0000
0000
0000
0000
0000
0000
0000
0000
0000
0000
0000
0000
0000
,
0200
0000
0000
0300
0000
0000
0000
0000
0020
0000
0000
0030
0000
0000
0000
0000
0002
0000
0003
0000
0000
0000
0000
0000
0020
0000
0030
0000
0000
0000
0000
0000
0200
0000
0300
0000
0000
0000
0000
0000
2000
3000
0000
0000
0000
0000
0000
0000
0002
0003
0000
0000
0000
0000
0000
0000
0200
0300
0000
0000
0000
0000
0000
0000
,
0010
1000
0001
0010
0100
0010
0001
1000
,
0010
0100
0001
1000
0100
1000
0001
0100
,
0010
0100
0001
1000
0100
0010
0001
0100
,
0001
0000
0000
0000
0000
0000
0000
0000
0010
0000
0000
0000
0000
0000
0000
0000
0001
0000
0000
0000
0000
0000
0000
0000
1000
0000
0000
0000
0000
0000
0000
0000
0010
0000
0000
0000
0000
0000
0000
0000
0200
0300
0000
0000
0000
0000
0000
0000
0010
0000
0000
0000
0000
0000
0000
0000
1000
0000
0000
0000
0000
0000
0000
0000
,
0100
1000
0001
0100
0001
0010
0100
1000
,
0010
1000
0001
0010
0001
0100
0010
1000
,
0001
0010
0001
1000
0010
0000
0100
0000
0001
0100
0001
1000
0100
0000
0010
0000
,
0001
0100
0001
1000
0100
1000
0001
0100
0010
0000
0000
0000
0000
0000
0000
0000
,
1000
0000
0100
0000
0010
0001
0000
1000
0001
0000
0100
0000
0010
0100
0001
1000
,
0200
0000
0000
0000
0300
0020
0000
0000
,
0000
0000
0000
0000
0000
0030
0000
0000
,
0002
0000
2003
0000
3010
0100
0000
0002
,
0000
0013
0100
1000
0010
1000
0100
0010
,
0002
0000
2003
0000
3010
0100
0000
0002
,
0000
0013
0100
1000
0001
0100
0010
1000
,
0002
0000
2003
0000
3100
0010
0000
0002
,
0000
0103
0010
1000
0100
1000
0010
0100
,
0001
0100
0001
1000
0100
0010
0001
1000
0100
1000
0001
0100
0010
1000
0100
1000
,
0001
1000
0100
0010
0001
1000
0001
1000
0020
0000
0000
0030
0200
0000
0000
0300
,
0001
0100
0010
1000
0001
0100
0010
1000
0001
0010
0001
1000
0100
0010
0001
0100
,
0001
1000
0100
1000
0001
1000
0010
0100
0001
0010
0001
0100
0010
1000
0001
1000
,
0100
0010
0001
1000
0100
0010
0001
1000
0010
1000
0001
0100
0010
1000
0100
1000
,
0001
0100
0001
1000
0001
0010
0100
1000
0010
1000
0100
0010
0001
1000
0010
1000
,
0001
0010
0100
1000
0001
0010
0100
1000
0001
0100
0001
1000
0010
0100
0001
0010
,
0001
1000
0010
1000
0001
1000
0100
0010
0001
0100
0001
1000
0100
1000
0001
0100
,
0010
0100
0001
1000
0100
0010
0001
1000
0010
1000
0001
0010
0001
0100
0010
1000
,
0001
0000
0010
0000
0100
0000
1000
0000
0020
0000
0000
0030
0200
0000
0000
0300
,
0001
0010
0001
0100
0001
0010
0001
0100
,
0010
1000
0100
1000
0010
1000
0100
1000
,
0001
0100
0001
0010
0001
0100
0001
1000
,
0100
0000
0010
0000
0100
0000
0010
0000
0001
1000
0010
0000
1000
0001
0010
0001
,
1000
0010
1000
0100
1000
0010
1000
0100
,
0010
0001
0100
0001
0010
0001
0100
0001
,
1000
0100
1000
0010
1000
0100
1000
0001
,
0100
0010
0100
0010
1000
0001
1000
0001
,
1000
0100
1000
0001
1000
0010
0100
0001
0100
0010
1000
0001
0010
0001
1000
0010
,
1000
0100
1000
0001
0100
0001
1000
0100
1000
0010
0100
0001
1000
0100
1000
0100
,
0010
0001
0100
0001
1000
0001
0010
0100
1000
0100
0010
0001
1000
0010
1000
0001
,
0010
0001
0100
0001
1000
0100
1000
0001
0100
0001
1000
0100
0010
0001
0010
0001
,
1000
0010
1000
0001
1000
0100
0010
0001
0010
0100
1000
0001
0100
0001
1000
0100
,
1000
0010
1000
0001
0010
0001
1000
0010
1000
0100
0010
0001
1000
0010
1000
0010
,
0100
0000
0001
0000
1000
0100
0010
0001
1000
0001
0100
0001
1000
0100
0010
0000
,
0000
0000
0002
0000
0203
0000
0320
0000
2030
0000
3100
0010
0002
0003
1000
0010
,
0100
0001
0010
0001
1000
0010
0100
0001
1000
0100
1000
0001
1000
0010
0100
0010
,
1000
0001
0010
0001
1000
0100
0010
0001
0100
0001
1000
0001
0010
0100
0010
0001
,
1000
0010
0100
0010
1000
0001
0010
0001
1000
0010
0100
0001
1000
0100
1000
0001
,
0100
0010
1000
0001
0010
0100
1000
0001
0100
0010
1000
0001
0010
0100
0010
0001
,
1000
0010
0100
0001
1000
0100
1000
0001
0100
0010
1000
0001
0010
0001
1000
0001
,
0010
0100
1000
0001
1000
0100
1000
0001
0100
0010
1000
0001
1000
0100
0010
0001
,
1000
0010
1000
0001
0100
0010
1000
0001
0010
0001
1000
0010
0100
0001
0100
0001
,
1000
0100
0010
0001
1000
0010
0100
0001
2000
0000
0000
0000
3000
0000
0000
0000
,
0001
0000
0000
0000
0000
0000
0000
0000
0010
0000
0000
0000
0000
0000
0000
0000
0001
0000
0000
0000
0000
0000
0000
0000
1000
0000
0000
0000
0000
0000
0000
0000
0010
0000
0000
0000
0000
0000
0000
0000
1000
0000
0000
0000
0000
0000
0000
0000
0200
0300
0000
0000
0000
0000
0000
0000
1000
0000
0000
0000
0000
0000
0000
0000
,
0001
0000
0000
0000
0000
0000
0000
0000
0100
0000
0000
0000
0000
0000
0000
0000
0001
0000
0000
0000
0000
0000
0000
0000
1000
0000
0000
0000
0000
0000
0000
0000
0100
0000
0000
0000
0000
0000
0000
0000
0020
0030
0000
0000
0000
0000
0000
0000
0100
0000
0000
0000
0000
0000
0000
0000
1000
0000
0000
0000
0000
0000
0000
0000
,
0001
0100
0010
1000
0001
0010
0100
0010
,
0001
1000
0010
0100
0001
1000
0100
1000
,
0001
0000
0000
0000
0000
0000
0000
0000
0100
0000
0000
0000
0000
0000
0000
0000
0001
0000
0000
0000
0000
0000
0000
0000
1000
0000
0000
0000
0000
0000
0000
0000
0100
0000
0000
0000
0000
0000
0000
0000
1000
0000
0000
0000
0000
0000
0000
0000
0020
0030
0000
0000
0000
0000
0000
0000
1000
0000
0000
0000
0000
0000
0000
0000
,
0001
0000
0000
0000
0000
0000
0000
0000
0010
0000
0000
0000
0000
0000
0000
0000
0001
0000
0000
0000
0000
0000
0000
0000
1000
0000
0000
0000
0000
0000
0000
0000
0010
0000
0000
0000
0000
0000
0000
0000
0200
0300
0000
0000
0000
0000
0000
0000
0010
0000
0000
0000
0000
0000
0000
0000
1000
0000
0000
0000
0000
0000
0000
0000
,
0001
0100
0010
1000
0100
1000
0010
0100
,
0001
0000
0010
0000
0001
0000
0100
0000
0010
0000
1000
0000
0100
0000
1000
0001
,
1000
0000
0000
0000
0000
0000
0000
0000
0010
0000
0000
0000
0000
0000
0000
0000
1000
0000
0000
0000
0000
0000
0000
0000
0001
0000
0000
0000
0000
0000
0000
0000
0010
0000
0000
0000
0000
0000
0000
0000
0001
0000
0000
0000
0000
0000
0000
0000
0200
0300
0000
0000
0000
0000
0000
0000
0001
0000
0000
0000
0000
0000
0000
0000
,
1000
0000
0000
0000
0000
0000
0000
0000
0100
0000
0000
0000
0000
0000
0000
0000
1000
0000
0000
0000
0000
0000
0000
0000
0001
0000
0000
0000
0000
0000
0000
0000
0100
0000
0000
0000
0000
0000
0000
0000
0020
0030
0000
0000
0000
0000
0000
0000
0100
0000
0000
0000
0000
0000
0000
0000
0001
0000
0000
0000
0000
0000
0000
0000
,
1000
0000
0000
0000
0000
0000
0000
0000
0100
0000
0000
0000
0000
0000
0000
0000
0010
0000
0000
0000
0000
0000
0000
0000
0001
0000
0000
0000
0000
0000
0000
0000
1000
0000
0000
0000
0000
0000
0000
0000
0010
0000
0000
0000
0000
0000
0000
0000
0200
0300
0000
0000
0000
0000
0000
0000
0010
0000
0000
0000
0000
0000
0000
0000
,
1000
0001
0010
0100
1000
0001
0100
0001
,
1000
0100
0010
0001
0100
0001
0010
0100
,
1000
0000
0010
0000
1000
0000
0100
0000
0010
0000
0001
0000
0100
0000
0001
1000
,
0001
0010
0100
1000
0010
0100
0001
1000
,
0001
0010
0001
1000
0010
1000
0001
0010
0100
0010
0001
1000
0010
0000
0100
0000
,
0001
0100
0010
1000
0001
0100
0001
1000
0100
0010
0001
1000
0010
1000
0001
0010
,
0001
0100
0010
1000
0001
0100
0001
1000
0100
0010
0001
1000
0100
1000
0010
1000
,
0001
0010
0100
1000
0001
0010
0001
1000
0010
0100
0001
1000
0100
1000
0001
0100
,
0001
0010
0100
1000
0001
0010
0001
1000
0010
0100
0001
1000
0010
1000
0100
1000
,
0001
0100
0001
1000
0010
0100
0001
1000
0100
1000
0001
0010
0100
1000
0010
1000
,
0001
0100
0001
1000
0010
0100
0001
1000
0100
0010
0001
1000
0100
1000
0010
1000
,
0001
0010
0001
0100
0010
1000
0100
1000
0010
0100
0001
0010
0001
1000
0010
1000
,
0100
0010
0001
0100
0001
0010
0100
1000
0001
0000
0100
0000
0010
0000
0100
0000
,
0001
1000
0100
0010
0001
1000
0100
1000
0001
0100
0010
1000
0001
0010
0001
1000
,
0010
1000
0100
0010
0001
1000
0100
1000
0010
0100
0001
1000
0001
0100
0001
1000
,
0100
1000
0010
0100
0001
1000
0010
1000
0001
0010
0100
1000
0001
0100
0001
1000
,
0100
1000
0010
0100
0001
1000
0010
1000
0100
0010
0001
1000
0001
0100
0001
0010
,
0100
1000
0010
1000
0001
0010
0100
1000
0001
0100
0001
1000
0010
0100
0001
0010
,
0001
1000
0100
1000
0001
0010
0100
1000
0001
0100
0001
1000
0010
0100
0001
0010
,
0001
1000
0010
1000
0100
0010
0001
0100
0001
0010
0100
1000
0010
1000
0001
0010
,
0001
0100
0010
1000
0100
1000
0010
0100
0001
0010
0001
1000
0010
1000
0001
1000
,
0200
0000
0000
0300
0000
0000
0000
0000
0000
0000
0000
0000
0000
0000
0000
0000
0000
0000
0000
0000
0000
0000
0000
0000
0020
0000
0000
0000
0030
0000
0000
0000
0000
0000
0000
0000
0000
0000
0000
0000
0000
0000
0000
0000
0000
0000
0000
0000
0200
0000
0000
0300
0000
0000
0000
0000
0000
0000
0000
0000
0000
0000
0000
0000
0000
0000
0000
0000
0000
0000
0000
0000
2000
0000
0000
0000
0000
0000
3000
0000
0000
0000
0000
0000
0000
0000
0000
0000
0000
0000
0000
0000
0000
0000
0000
0000
0002
0000
0000
0000
0000
0000
0000
0003
0000
0000
0000
0000
0000
0000
0000
0000
0000
0000
0000
0000
0000
0000
0000
0000
0400
0000
0000
0000
0000
0000
0000
0000
0300
0000
0000
0000
0000
0000
0000
0000
0000
0000
0000
0000
0000
0000
0000
0000
0040
0000
0000
0000
0000
0000
0000
0000
0000
0030
0000
0000
0000
0000
0000
0000
0000
0000
0000
0000
0000
0000
0000
0000
0400
0000
0000
0000
0000
0000
0000
0000
0000
0300
0000
0000
0000
0000
0000
0000
0000
0000
0000
0000
0000
0000
0000
0000
,
2002
0000
0000
0000
,
0000
0000
0000
0000
,
3003
0000
0000
0000
;

//--------------- dance-single - NAOKI 16/16/16/15*/3/32/23*/7/16 ----------------
#NOTES:
     dance-single:
     NAOKI 16/16/16/15*/3/32/23*/7/16:
     Challenge:
     17:
     1.193896,1.219509,0.007835,0.524941,1.533037,3200,3197,3,201,2,0,6,0,0,1.193896,1.219509,0.007835,0.524941,1.533037,3200,3197,3,201,2,0,6,0,0:
0000
0000
0000
0000
,
0000
0000
0000
0000
,
0000
0000
0000
0000
,
0000
0000
0000
0000
,
0000
0000
0000
0000
,
0000
0000
0000
0000
0000
0000
0000
0000
0000
0000
0000
0000
0000
0000
0000
0000
0000
0000
0000
0000
0000
0000
0000
0000
0000
0000
0000
0000
0000
0000
0000
0000
0000
0000
0000
0000
0000
0000
0000
0000
0000
0000
0000
0000
0000
0000
0000
0000
0000
0000
0000
0000
0000
0000
0000
0000
0000
0000
0000
0000
0000
0000
0000
0000
0000
0000
0000
M00M
0000
0000
0000
0000
0000
0000
0000
0000
0000
0000
0000
0000
0000
0000
0000
0000
0000
0000
0000
0000
0000
0000
0000
0000
0000
0000
0000
0000
,
0000
0000
0000
0000
,
0000
0000
0000
0000
,
1000
0000
0000
0000
0000
0000
0000
0000
0010
0000
0000
0000
0000
0000
0000
0000
1000
0000
0000
0000
0000
0000
0000
0000
0001
0000
0000
0000
0000
0000
0000
0000
0010
0000
0000
0000
0000
0000
0000
0000
0001
0000
0000
0000
0000
0000
0000
0000
0200
0300
0000
0000
0000
0000
0000
0000
0001
0000
0000
0000
0000
0000
0000
0000
,
1000
0000
0000
0000
0000
0000
0000
0000
0100
0000
0000
0000
0000
0000
0000
0000
1000
0000
0000
0000
0000
0000
0000
0000
0001
0000
0000
0000
0000
0000
0000
0000
0100
0000
0000
0000
0000
0000
0000
0000
0020
0030
0000
0000
0000
0000
0000
0000
0100
0000
0000
0000
0000
0000
0000
0000
0001
0000
0000
0000
0000
0000
0000
0000
,
1000
0100
0010
0001
1000
0010
0100
0010
,
1000
0001
0010
0100
1000
0001
0100
0010
,
1000
0000
0000
0000
0000
0000
0000
0000
0100
0000
0000
0000
0000
0000
0000
0000
1000
0000
0000
0000
0000
0000
0000
0000
0001
0000
0000
0000
0000
0000
0000
0000
0100
0000
0000
0000
0000
0000
0000
0000
0001
0000
0000
0000
0000
0000
0000
0000
0020
0030
0000
0000
0000
0000
0000
0000
0001
0000
0000
0000
0000
0000
0000
0000
,
1000
0000
0000
0000
0000
0000
0000
0000
0010
0000
0000
0000
0000
0000
0000
0000
1000
0000
0000
0000
0000
0000
0000
0000
0001
0000
0000
0000
0000
0000
0000
0000
0010
0000
0000
0000
0000
0000
0000
0000
0200
0300
0000
0000
0000
0000
0000
0000
0010
0000
0000
0000
0000
0000
0000
0000
0001
0000
0000
0000
0000
0000
0000
0000
,
1000
0100
0010
0001
0100
0001
0010
0100
,
1000
0000
0010
0000
1000
0000
0100
0000
0010
0000
0001
0000
0100
0000
0001
1000
,
0001
0000
0000
0000
0000
0000
0000
0000
0010
0000
0000
0000
0000
0000
0000
0000
0001
0000
0000
0000
0000
0000
0000
0000
1000
0000
0000
0000
0000
0000
0000
0000
0010
0000
0000
0000
0000
0000
0000
0000
1000
0000
0000
0000
0000
0000
0000
0000
0200
0300
0000
0000
0000
0000
0000
0000
1000
0000
0000
0000
0000
0000
0000
0000
,
0001
0000
0000
0000
0000
0000
0000
0000
0100
0000
0000
0000
0000
0000
0000
0000
0001
0000
0000
0000
0000
0000
0000
0000
1000
0000
0000
0000
0000
0000
0000
0000
0100
0000
0000
0000
0000
0000
0000
0000
0020
0030
0000
0000
0000
0000
0000
0000
0100
0000
0000
0000
0000
0000
0000
0000
1000
0000
0000
0000
0000
0000
0000
0000
,
0001
0100
0010
1000
0001
0010
0100
0010
,
0001
1000
0010
0100
0001
1000
0100
1000
,
0001
0100
0010
1000
0100
1000
0010
0100
,
0001
0000
0010
0000
0001
0000
0100
0000
0010
0000
1000
0000
0100
0000
1000
0001
,
1000
0010
0100
0001
0010
0100
1000
0001
,
1000
0000
0000
0000
0010
0000
0000
0000
1000
0000
0000
0000
0001
0000
0000
0000
0010
0000
0000
0000
0001
0000
0000
0000
1000
0000
0000
0000
0010
0000
0000
0000
0100
0000
0000
0000
0010
0000
0000
0000
1000
0000
0000
0000
0001
0000
0000
0000
0020
0030
0000
0000
0000
0000
0000
0000
0200
0300
0000
0000
0000
0000
0000
0000
,
1000
0100
0010
0001
1000
0100
1000
0001
0100
0010
1000
0001
0010
0001
1000
0010
,
1000
0100
0010
0001
1000
0100
1000
0001
0100
0010
1000
0001
0100
0001
0010
0001
,
1000
0010
0100
0001
1000
0010
1000
0001
0010
0100
1000
0001
0100
0001
1000
0100
,
1000
0010
0100
0001
1000
0010
1000
0001
0010
0100
1000
0001
0010
0001
0100
0001
,
1000
0100
1000
0001
0010
0100
1000
0001
0100
0001
1000
0010
0100
0001
0010
0001
,
1000
0100
1000
0001
0010
0100
1000
0001
0100
0010
1000
0001
0100
0001
0010
0001
,
1000
0010
1000
0100
0010
0001
0100
0001
0010
0100
1000
0010
1000
0001
0010
0001
,
0100
0010
1000
0100
1000
0010
0100
0001
0010
0001
1000
0010
1000
0001
1000
0100
,
0010
0001
0100
0010
1000
0001
0100
0001
1000
0100
0010
0001
1000
0010
1000
0001
,
0010
0001
0100
0010
1000
0001
0100
0001
0010
0100
1000
0001
1000
0100
1000
0001
,
0100
0001
0010
0100
1000
0001
0010
0001
1000
0010
0100
0001
1000
0100
1000
0001
,
0100
0001
0010
0100
1000
0001
0010
0001
0100
0010
1000
0001
1000
0100
1000
0010
,
0100
0001
0010
0001
1000
0010
0100
0001
1000
0100
1000
0001
0010
0100
1000
0010
,
1000
0001
0100
0001
1000
0010
0100
0001
1000
0100
1000
0001
0010
0100
1000
0010
,
1000
0001
0010
0001
0100
0010
1000
0100
1000
0010
0100
0001
0010
0001
1000
0010
,
1000
0100
0010
0001
0100
0001
0010
0100
1000
0010
1000
0001
0010
0001
1000
0001
,
0200
0000
0000
0300
0000
0000
0000
0000
0000
0000
0000
0000
0000
0000
0000
0000
0000
0000
0000
0000
0000
0000
0000
0000
0020
0000
0000
0000
0030
0000
0000
0000
0000
0000
0000
0000
0000
0000
0000
0000
0000
0000
0000
0000
0000
0000
0000
0000
0200
0000
0000
0000
0000
0300
0000
0000
0000
0000
0000
0000
0000
0000
0000
0000
0000
0000
0000
0000
0000
0000
0000
0000
0002
0000
0000
0000
0000
0000
0003
0000
0000
0000
0000
0000
0000
0000
0000
0000
0000
0000
0000
0000
0000
0000
0000
0000
2000
0000
0000
0000
0000
0000
0000
3000
0000
0000
0000
0000
0000
0000
0000
0000
0000
0000
0000
0000
0000
0000
0000
0000
0400
0000
0000
0000
0000
0000
0000
0000
0300
0000
0000
0000
0000
0000
0000
0000
0000
0000
0000
0000
0000
0000
0000
0000
0040
0000
0000
0000
0000
0000
0000
0000
0000
0030
0000
0000
0000
0000
0000
0000
0000
0000
0000
0000
0000
0000
0000
0000
0400
0000
0000
0000
0000
0000
0000
0000
0000
0000
0300
0000
0000
0000
0000
0000
0000
0000
0000
0000
0000
0000
0000
0000
,
1002
0000
0203
0320
0000
2030
0000
3002
,
0000
0000
0000
0000
0003
2000
3200
0320
,
0032
0000
0203
0320
0000
2030
0000
3200
,
0000
0000
0000
0000
0000
0000
0000
0000
0300
0000
0000
0000
0000
0000
0000
0000
0020
0000
0000
0030
0000
0000
0000
0000
0020
0000
0000
0030
0000
0000
0000
0000
,
0002
0000
0203
0320
0000
2030
0000
3002
,
0000
0000
0023
0230
0000
2300
0000
3020
,
0000
0000
0230
0320
0000
2030
3002
0023
,
0000
0000
0000
0000
0000
0000
0000
0000
0000
0000
0000
0000
0000
0000
0000
0000
0030
0000
0000
0000
0000
0000
0000
0000
0200
0000
0000
0300
0000
0000
0000
0000
,
2001
0000
3200
0320
0000
0032
0000
2003
,
0000
0000
0000
0000
3000
0002
0203
0320
,
2030
0000
3200
0320
0000
0032
0000
0203
,
0000
0000
0000
0000
0000
0000
0000
0000
0300
0000
0000
0000
0000
0000
0000
0000
0020
0000
0000
0030
0000
0000
0000
0000
0020
0000
0000
0030
0000
0000
0000
0000
,
2000
0000
3200
0320
0000
0032
0000
2003
,
0000
3020
0230
0302
,
0023
0000
0230
0320
0000
0032
0000
1003
,
0010
0100
0001
1000
0100
1000
0001
0100
0010
1000
0001
0010
0100
1000
0001
0100
,
0010
0000
0000
0000
0100
0000
0001
0000
0000
0000
1000
0100
0010
0001
1000
0010
,
0100
0001
1000
0100
1000
0001
0100
0001
1000
0001
0010
0100
1000
0001
1000
0001
,
0100
0000
0000
0000
0010
0100
0002
0000
0000
0000
2003
0000
0000
0000
3200
0000
,
0000
0000
0310
0000
0001
0000
0000
0000
1000
0000
0010
0000
1000
0001
1000
0001
,
0010
0100
1000
0100
0010
0001
1000
0010
0100
0001
1000
0100
0010
0001
0100
0001
,
1000
0001
0010
0100
1000
0001
0100
0010
0100
0001
1000
0100
1000
0001
1000
0010
,
0100
0001
0100
0010
1000
0001
0010
0100
1000
0001
0100
0010
1000
0001
0010
0001
,
1000
0001
0100
0010
0100
0001
1000
0010
1000
0100
0010
0001
1000
0100
1000
0100
,
0010
0001
1000
0010
0100
0001
1000
0001
0010
0100
1000
0001
0010
0001
1000
0001
,
0100
0010
1000
0010
0100
0001
1000
0100
1000
0001
0010
0100
1000
0001
0010
0001
,
1000
0001
0100
0010
1000
0100
1000
0001
1000
0001
0010
0001
1000
0100
1000
0001
,
1000
0001
0100
0001
1000
0010
1000
0001
1000
0001
0010
0001
1000
0100
0010
0001
,
1000
0010
0100
0001
0100
0010
1000
0001
0010
0100
1000
0001
0100
0010
1000
0100
,
1000
0001
1000
0010
0100
0001
1000
0100
0010
0100
1000
0001
0100
0001
1000
0001
,
0010
0100
1000
0100
0010
0001
1000
0010
0100
0001
1000
0100
0010
0001
1000
0010
,
1000
0001
1000
0100
0010
0100
1000
0001
0010
0001
1000
0010
0100
0001
0100
0001
,
1000
0100
0010
0100
1000
0001
1000
0010
0100
0001
1000
0010
1000
0001
1000
0100
,
0010
0001
0010
0100
1000
0001
0100
0001
1000
0010
0100
0001
1000
0010
1000
0001
,
1000
0100
0010
0001
0100
0001
1000
0001
1000
0010
1000
0001
0100
0001
1000
0001
,
1000
0100
1000
0001
0010
0001
1000
0001
1000
0010
0100
0010
1000
0001
1000
0001
,
0020
0000
0000
0000
,
0000
0000
0000
0000
0000
0000
0000
0000
0000
0000
0000
0000
0130
1000
0001
0100
,
0020
0000
0000
0030
1000
0001
0020
0000
0030
0000
0200
0000
0300
0000
2000
0000
,
3000
0000
0001
0000
0200
0000
0000
0000
0310
0000
1000
0000
0001
0010
0100
1000
,
0001
0010
0001
1000
0010
0100
0001
1000
0010
1000
0001
0010
0100
1000
0010
1000
,
0001
0100
0001
1000
0100
0010
0001
1000
0100
1000
0001
0100
0010
1000
0001
1000
,
0100
0010
0001
1000
0010
0100
0001
1000
0010
1000
0001
0010
0100
1000
0010
1000
,
0001
0100
0001
1000
0100
0010
0001
1000
0100
1000
0001
0100
0010
1000
0001
0010
,
0100
1000
0010
1000
0001
0010
0100
1000
0001
0010
0001
1000
0010
0100
0001
1000
,
0001
0010
0100
1000
0001
0100
0010
1000
0001
0100
0001
1000
0100
0010
0001
0100
,
0001
1000
0010
1000
0001
0010
0100
1000
0001
0010
0001
1000
0010
0100
0001
1000
,
0001
0010
0100
1000
0001
0100
0010
1000
0001
0100
0001
1000
0100
0010
0100
0010
,
0001
1000
0010
1000
0001
0010
0100
1000
0010
1000
0001
1000
0100
0010
0001
1000
,
0010
1000
0001
0010
0001
1000
0001
0100
0010
0100
0001
1000
0100
1000
0001
1000
,
0010
0100
0010
1000
0001
0010
0001
0010
0100
1000
0001
0100
0010
1000
0010
1000
,
0001
0010
0100
1000
0001
0100
0001
1000
0100
1000
0010
1000
0001
0010
0001
0100
,
0001
1000
0100
1000
0001
0100
0001
0010
0001
1000
0010
1000
0100
1000
0001
0100
,
0010
0100
0001
1000
0100
0010
0001
0100
0001
1000
0100
1000
0001
1000
0010
0100
,
0001
0010
0001
1000
0001
0010
0100
1000
0010
1000
0001
1000
0010
0100
0001
1000
,
0100
1000
0001
1000
0100
0010
0001
0100
0001
1000
0001
0100
0010
0000
0000
0000
,
1000
0000
0002
0000
0000
0023
0000
0000
0230
0000
0000
0320
0000
0000
0031
0000
,
0000
0000
2000
0000
0000
3020
0000
0000
0230
0000
0000
0320
0000
0000
1030
0000
,
0001
0000
0020
0000
0000
0230
0000
0000
2300
0000
0000
3002
0000
0000
0103
0000
,
0000
0000
0020
0000
0000
2030
0000
0000
3002
0000
0000
0023
0000
0000
0130
0000
,
1000
0000
0010
0000
0100
0000
0001
0000
1000
0000
0100
0000
0010
0000
0001
1000
,
0010
0000
0100
0000
0010
0000
1000
0000
0001
0000
0010
0000
0100
0000
1000
0001
,
0100
0001
1000
0001
0100
0010
1000
0001
1000
0100
1000
0001
0100
0010
1000
0001
,
0020
0000
0000
0000
0130
1000
0000
0001
,
0100
0010
1000
0010
0100
0010
1000
0001
0010
0001
1000
0100
0010
0001
1000
0100
,
1000
0001
1000
0100
0010
0001
1000
0010
0100
0010
1000
0001
0010
0100
1000
0001
,
0100
0010
0100
0001
0100
0010
1000
0001
0010
0100
0010
0001
1000
0100
1000
0001
,
0100
0001
1000
0001
0100
0010
1000
0001
0010
0001
1000
0010
0100
0010
1000
0001
,
0010
0100
1000
0100
0010
0001
1000
0010
0100
0010
1000
0001
0010
0100
1000
0001
,
0100
0010
1000
0010
0100
0001
1000
0100
0010
0100
1000
0001
0100
0010
0100
0001
,
1000
0100
1000
0010
0100
0001
0100
0010
1000
0001
1000
0100
0010
0001
0010
0100
,
1000
0001
0100
0001
1000
0100
1000
0001
0100
0000
0000
0000
0001
0000
1000
0000
,
0100
0010
0001
0010
0100
0010
0001
1000
0010
1000
0001
0100
0010
1000
0001
0100
,
0001
1000
0001
0100
0010
1000
0001
0010
0100
0010
0001
1000
0010
0100
0001
1000
,
0100
0010
0100
1000
0100
0010
0001
1000
0010
0100
0010
1000
0001
0100
0001
1000
,
0100
1000
0001
1000
0100
0010
0001
1000
0010
1000
0001
0010
0100
0010
0001
1000
,
0010
0100
0001
0100
0010
1000
0001
0010
0100
1000
0001
0100
0010
0100
0001
1000
,
0100
0010
0001
0010
0100
1000
0001
0100
0010
1000
0001
0010
0001
1000
0010
1000
,
0001
0010
0001
0100
0010
1000
0010
0100
0001
0010
0001
1000
0010
1000
0001
0010
,
0100
1000
0100
0010
0001
1000
0001
0100
0010
1000
0001
0010
0001
1000
0010
0100
,
0001
0100
0010
1000
0001
0000
0010
0000
0000
0000
0100
0000
0000
0000
0010
0000
,
0000
0001
1000
0000
0000
0000
0010
0000
0100
0000
0000
0010
0000
0000
1000
0000
,
0001
0010
0100
1000
0100
0010
0001
1000
0010
1000
0001
0010
0001
1000
0010
0100
,
0001
0100
0010
1000
0001
1000
0100
0010
0001
0100
0001
1000
0100
1000
0001
0100
,
0010
1000
0001
1000
0100
1000
0001
0010
0001
1000
0001
0100
0010
0100
0002
0003
,
1000
0000
0000
0000
0000
0000
0000
0000
0002
0000
0000
0000
0003
0000
0000
0000
0010
0000
0000
0000
0000
0000
0000
0000
0002
0000
0000
0000
0003
0000
0000
0000
1000
0000
0000
0000
0000
0000
0000
0000
0002
0000
0000
0000
0003
0000
0000
0000
0100
0000
0000
0000
0000
0000
0000
0000
0002
0000
0000
0003
0000
0000
0000
0000
,
1000
0000
0000
0000
0000
0000
0000
0000
0002
0000
0000
0003
0000
0000
0000
0000
0010
0000
0000
0000
0000
0000
0000
0000
0002
0000
0000
0003
0000
0000
0000
0000
1000
0000
0000
0000
0000
0000
0000
0000
0002
0000
0000
0003
0000
0000
0000
0000
0100
0000
0000
0000
0000
0000
0000
0000
0002
0000
0000
0003
0000
0000
0000
0000
,
1000
0000
0000
0000
0020
0030
0000
0000
1000
0000
0000
0000
0002
0003
0000
0000
1000
0000
0000
0000
0200
0300
0000
0000
1000
0000
0000
0000
0002
0003
0000
0000
,
1000
0010
1000
0001
1000
0100
1000
0001
,
0100
0010
1000
0001
0010
0100
0010
0001
,
1000
0010
0100
0010
1000
0001
0010
0100
,
1000
0001
0100
0010
0100
0001
1000
0100
,
0010
0001
1000
0001
0100
0001
1000
0001
,
0010
0100
1000
0001
0100
0010
1000
0001
,
0010
0100
1000
0001
0100
0010
1000
0100
,
1000
0010
0100
0001
1000
0100
0010
0001
,
0200
0300
0000
0000
0000
0000
0000
0000
0010
0000
0000
0000
1000
0000
0000
0000
0001
0000
0000
0000
0000
0000
0000
0000
0010
0000
0000
0000
0000
0000
0000
0000
0100
0000
0000
0000
1000
0000
0000
0000
0001
0000
0000
0000
0100
0000
0000
0000
0010
0000
0000
0000
0000
0000
0000
0000
1000
0000
0000
0000
0000
0000
0000
0000
,
0200
0300
0000
0000
0000
0000
0000
0000
0010
0000
0000
0000
0001
0000
0000
0000
1000
0000
0000
0000
0000
0000
0000
0000
0010
0000
0000
0000
0000
0000
0000
0000
0100
0000
0000
0000
0001
0000
0000
0000
1000
0000
0000
0000
0100
0000
0000
0000
0010
0000
0000
0000
0000
0000
0000
0000
0001
0000
0000
0000
0000
0000
0000
0000
,
0100
0010
1000
0001
0010
0100
1000
0001
0100
0010
0100
0001
1000
0100
0010
0001
,
1000
0000
0000
0000
0010
0000
0000
0000
0100
0000
0000
0000
0001
0000
0000
0000
1000
0000
0000
0000
0100
0000
0000
0000
0010
0000
0000
0000
0001
0000
0000
0000
1000
0000
0000
0000
0000
0000
0000
0000
0020
0030
0000
0000
0000
0000
0000
0000
0200
0300
0000
0000
0000
0000
0000
0000
0020
0030
0000
0000
0000
0000
0000
0000
,
1000
0100
1000
0001
1000
0010
0100
0001
,
1000
0100
1000
0001
1000
0010
0100
0001
,
1000
0010
1000
0001
1000
0100
0010
0001
,
1000
0010
1000
0001
1000
0100
0010
0001
,
0100
0001
1000
0001
0010
0100
1000
0001
,
0100
0001
1000
0001
0010
0100
1000
0001
,
2000
0000
0000
0000
0000
0000
0000
0000
0000
0000
0000
0000
0000
0000
0000
0000
0000
0000
3000
0000
0000
0000
0000
0000
0200
0000
0000
0000
0000
0000
0000
0000
0000
0000
0000
0000
0000
0000
0000
0000
0000
0000
0300
0000
0000
0000
0000
0000
0020
0000
0000
0000
0000
0000
0000
0000
0000
0000
0000
0000
0000
0000
0000
0000
0000
0030
0000
0000
0000
0000
0000
0000
0002
0000
0000
0000
0000
0000
0000
0000
0000
0000
0000
0000
0000
0000
0000
0000
0000
0000
0003
0000
0000
0000
0000
0000
0020
0000
0000
0000
0000
0000
0000
0000
0000
0000
0000
0000
0030
0000
0000
0000
0000
0000
0000
0000
0000
0000
0000
0000
0200
0000
0000
0000
0000
0000
0000
0000
0000
0000
0000
0000
0300
0000
0000
0000
0000
0000
0000
0000
0000
0000
0000
0000
2000
0000
0000
0000
0000
0000
0000
0000
0000
0000
0000
0000
3000
0000
0000
0000
0000
0000
0000
0000
0000
0000
0000
0000
0002
0000
0000
0000
0000
0000
0000
0000
0000
0003
0000
0000
0000
0000
0000
0000
0000
0000
0000
0000
0000
0000
0000
0000
,
0200
0000
0000
0300
0000
0000
0000
0000
0020
0000
0000
0030
0000
0000
0000
0000
2000
0000
3000
0000
0000
0000
0000
0000
0020
0000
0030
0000
0000
0000
0000
0000
0200
0000
0300
0000
0000
0000
0000
0000
0002
0003
0000
0000
0000
0000
0000
0000
2000
3000
0000
0000
0000
0000
0000
0000
0200
0300
0000
0000
0000
0000
0000
0000
,
0010
0001
1000
0001
0100
0010
1000
0001
,
0010
0001
1000
0001
0100
0010
1000
0001
,
2000
0000
0000
0000
0000
0000
0000
0000
0100
0000
0000
0000
0000
0000
0000
3000
2000
0000
0000
0000
0000
0000
0000
0000
0001
0000
0000
0000
0000
0000
0000
3000
2000
0000
0000
0000
0000
0000
0000
0000
0010
0000
0000
0000
0000
0000
0000
3000
1000
0000
0000
0000
0000
0000
0000
0000
0001
0000
0000
0000
0000
0000
0000
0000
,
0100
0010
1000
0001
0010
0100
0010
0001
,
1000
0010
0100
0001
1000
0100
0010
0100
,
1000
0001
0100
0010
1000
0100
1000
0001
,
0100
0000
0000
0000
0010
0000
0000
0000
0100
0000
0000
0000
0001
0000
0000
0000
1000
0000
0000
0000
0001
0000
0000
0000
0020
0000
0000
0030
0200
0000
0000
0300
,
2000
0000
0000
3000
0002
0000
0000
0003
0200
0000
0000
0300
0020
0000
0000
0030
2000
0000
0000
0000
0000
0000
0000
0000
3000
0000
0000
0000
0000
0000
0000
0000
,
0001
0010
0100
1000
0001
0100
0010
0100
0001
1000
0100
1000
0001
0010
0100
0010
,
0001
1000
0010
1000
0001
1000
0100
0010
0100
1000
0001
0100
0001
1000
0010
0100
,
0001
1000
0100
1000
0001
1000
0010
0100
0010
1000
0001
0010
0001
1000
0100
0010
,
0100
1000
0001
0100
0001
1000
0001
0010
0100
0010
0001
1000
0010
1000
0001
0010
,
0001
0100
0001
1000
0100
0010
0100
1000
0001
0100
0001
1000
0010
0100
0010
1000
,
0001
0010
0001
1000
0001
0100
0010
0100
0001
1000
0100
1000
0001
0010
0100
1000
,
0001
0100
0001
1000
0001
0010
0100
0010
0001
1000
0010
1000
0001
0100
0010
1000
,
0001
0010
0001
1000
0100
1000
0001
0100
0001
1000
0100
0010
0001
1000
0001
1000
,
0010
0100
0001
1000
0001
0010
0100
1000
0001
0100
0010
1000
0001
0100
0010
0100
,
0001
1000
0100
0010
0001
1000
0010
0100
0010
1000
0001
0010
0001
1000
0100
0010
,
0001
1000
0010
1000
0001
1000
0100
0010
0001
1000
0010
0100
0001
1000
0010
0100
,
0010
1000
0001
0010
0001
1000
0001
0100
0010
1000
0001
1000
0100
1000
0001
0100
,
0001
0010
0001
1000
0010
0100
0001
1000
0100
0010
0001
1000
0100
0010
0100
1000
,
0001
0100
0001
1000
0001
0010
0100
0010
0001
1000
0010
1000
0001
0100
0010
1000
,
0001
0010
0001
1000
0001
0100
0010
1000
0001
0010
0100
1000
0001
0010
0100
0010
,
0001
1000
0001
0100
0010
1000
0001
1000
0100
0010
0100
1000
0001
0100
0010
1000
,
0001
0010
0001
1000
0010
0100
0001
1000
0100
0010
0001
1000
0001
0100
0010
1000
,
0001
0010
0100
1000
0001
1000
0010
0100
0001
1000
0100
0010
0001
1000
0010
1000
,
0001
0010
0100
1000
0001
0100
0010
1000
0010
0100
0001
1000
0100
0010
0001
1000
,
0010
1000
0001
0010
0100
1000
0001
0100
0010
1000
0001
1000
0100
0010
0001
1000
,
0010
0100
0001
1000
0001
0010
0100
1000
0001
0100
0010
1000
0001
0010
0001
1000
,
0010
0100
0001
1000
0100
1000
0001
0100
0010
1000
0001
0010
0100
1000
0001
1000
,
0010
0100
0001
0100
0010
1000
0001
0010
0100
1000
0001
0100
0010
1000
0001
0010
,
0100
1000
0001
1000
0010
0100
0001
1000
0100
0010
0001
1000
0010
0100
0001
1000
,
0100
1000
0001
0100
0010
1000
0010
0100
0010
1000
0001
0010
0001
1000
0010
1000
,
0001
0010
0100
1000
0001
0100
0001
1000
0010
0100
0001
1000
0100
1000
0001
0100
,
0010
0100
0001
0100
0010
1000
0001
0010
0100
1000
0010
1000
0001
0010
0001
1000
,
0010
1000
0001
1000
0100
0010
0001
1000
0010
0100
0001
1000
0001
0010
0001
1000
,
0010
0100
0001
0010
0001
1000
0010
1000
0100
1000
0001
0100
0010
1000
0001
0010
,
0100
0010
0001
1000
0010
1000
0001
1000
0100
0010
0001
0100
0001
0010
0100
1000
,
0001
0010
0001
1000
0001
0100
0010
1000
0100
1000
0010
0100
0001
0010
0001
1000
,
0100
1000
0001
1000
0010
0100
0001
0010
0001
0100
0010
1000
0001
0100
0001
1000
,
0100
0010
0001
1000
0010
1000
0100
0010
,
0001
1000
0010
1000
0001
0010
0100
0010
,
0001
0000
0000
0000
0000
0000
0000
0000
1000
0000
0000
0000
0000
0000
0000
0000
0020
0030
0000
0000
0000
0000
0000
0000
0200
0300
0000
0000
0000
0000
0000
0000
0002
0003
0000
0000
0000
0000
0000
0000
2000
3000
0000
0000
0000
0000
0000
0000
0200
0000
0000
0000
0300
0000
0000
0000
0010
0000
0000
0000
0000
0000
0000
0000
,
0001
0100
0010
1000
0001
0010
0001
1000
,
0200
0300
0000
0000
0000
0000
0000
0000
1000
0000
0000
0000
0000
0000
0000
0000
0020
0030
0000
0000
0000
0000
0000
0000
1000
0000
0000
0000
0000
0000
0000
0000
0200
0300
0000
0000
0000
0000
0000
0000
0010
0000
0000
0000
0000
0000
0000
0000
0001
0000
0000
0000
0000
0000
0000
0000
1000
0000
0000
0000
0000
0000
0000
0000
,
0010
0100
0001
1000
0100
0010
0001
1000
,
0002
0000
0000
0000
0000
0000
0000
0000
0000
0000
0000
0000
0000
0000
0000
0000
0000
0000
0003
0000
0000
0000
0000
0000
0200
0000
0000
0000
0000
0000
0000
0000
0000
0000
0000
0000
0000
0000
0000
0000
0000
0000
0300
0000
0000
0000
0000
0000
0020
0000
0000
0000
0000
0000
0000
0000
0000
0000
0000
0000
0000
0000
0000
0000
0000
0030
0000
0000
0000
0000
0000
0000
2000
0000
0000
0000
0000
0000
0000
0000
0000
0000
0000
0000
0000
0000
0000
0000
0000
0000
3000
0000
0000
0000
0000
0000
0020
0000
0000
0000
0000
0000
0000
0000
0000
0000
0000
0000
0030
0000
0000
0000
0000
0000
0000
0000
0000
0000
0000
0000
0200
0000
0000
0000
0000
0000
0000
0000
0000
0000
0000
0000
0300
0000
0000
0000
0000
0000
0000
0000
0000
0000
0000
0000
0002
0000
0000
0000
0000
0000
0000
0000
0000
0000
0000
0000
0003
0000
0000
0000
0000
0000
0000
0000
0000
0000
0000
0000
2000
0000
0000
0000
0000
0000
0000
0000
0000
3000
0000
0000
0000
0000
0000
0000
0000
0000
0000
0000
0000
0000
0000
0000
,
0200
0000
0000
0300
0000
0000
0000
0000
0020
0000
0000
0030
0000
0000
0000
0000
0002
0000
0003
0000
0000
0000
0000
0000
0020
0000
0030
0000
0000
0000
0000
0000
0200
0000
0300
0000
0000
0000
0000
0000
2000
3000
0000
0000
0000
0000
0000
0000
0002
0003
0000
0000
0000
0000
0000
0000
0200
0300
0000
0000
0000
0000
0000
0000
,
0010
1000
0001
0010
0100
0010
0001
1000
,
0010
0100
0001
1000
0100
1000
0001
0100
,
0010
0100
0001
1000
0100
0010
0001
0100
,
0001
0000
0000
0000
0000
0000
0000
0000
0010
0000
0000
0000
0000
0000
0000
0000
0001
0000
0000
0000
0000
0000
0000
0000
1000
0000
0000
0000
0000
0000
0000
0000
0010
0000
0000
0000
0000
0000
0000
0000
0200
0300
0000
0000
0000
0000
0000
0000
0010
0000
0000
0000
0000
0000
0000
0000
1000
0000
0000
0000
0000
0000
0000
0000
,
0100
1000
0001
0100
0001
0010
0100
1000
,
0010
1000
0001
0010
0001
0100
0010
1000
,
0001
0010
0001
1000
0010
0000
0100
0000
0001
0100
0001
1000
0100
0000
0010
0000
,
0001
0100
0001
1000
0100
1000
0001
0100
0010
0000
0000
0000
0000
0000
0000
0000
,
1000
0000
0100
0000
0010
0001
0000
1000
0010
0000
0100
0000
0001
0010
0100
1000
,
0020
0000
0000
0000
0030
0200
0000
0000
,
0000
0000
0000
0000
0000
0300
0000
0000
,
0002
0000
2003
0000
3010
0100
0000
0002
,
0000
0013
0100
1000
0010
1000
0100
0010
,
0002
0000
2003
0000
3010
0100
0000
0002
,
0000
0013
0100
1000
0001
0100
0010
1000
,
0001
0010
0100
1000
0001
0100
0010
1000
0001
0010
0100
1000
0001
1000
0010
1000
,
0010
0100
0001
1000
0100
0010
0001
0100
0001
1000
0001
0010
0001
0010
0100
1000
,
0001
0100
0001
1000
0100
0010
0001
1000
0010
1000
0001
0010
0100
1000
0001
1000
,
0010
0100
0001
1000
0100
0010
0001
1000
0020
0000
0000
0030
0200
0000
0000
0300
,
0001
0100
0010
1000
0001
0100
0010
1000
0001
0010
0001
1000
0100
0010
0001
0100
,
0001
1000
0100
1000
0001
1000
0010
0100
0001
0010
0001
0100
0010
1000
0001
1000
,
0100
0010
0001
1000
0100
0010
0001
1000
0010
1000
0001
0100
0010
1000
0100
1000
,
0001
0100
0001
1000
0001
0010
0100
1000
0010
1000
0100
0010
0001
1000
0010
1000
,
0001
0010
0100
1000
0001
0010
0100
1000
0001
0100
0001
1000
0010
0100
0001
0010
,
0001
1000
0010
1000
0001
1000
0100
0010
0001
0100
0001
1000
0100
1000
0001
0100
,
0010
0100
0001
1000
0100
0010
0001
1000
0010
1000
0001
0010
0001
0100
0010
1000
,
0001
0000
0010
0000
0100
0000
1000
0000
0020
0000
0000
0030
0200
0000
0000
0300
,
0010
1000
0001
0010
0100
1000
0001
0100
0010
1000
0001
0010
0100
1000
0001
0100
,
0010
1000
0001
0010
0100
1000
0001
0100
0010
1000
0001
0010
0100
1000
0001
0100
,
0001
1000
0100
0010
0001
1000
0010
0100
0001
1000
0100
0010
0001
1000
0010
1000
,
0001
0010
0100
1000
0010
0100
0001
1000
0100
1000
0001
1000
0010
0100
0010
1000
,
0001
0010
0001
0100
0010
1000
0001
0010
0100
1000
0001
0100
0010
1000
0001
0010
,
0100
1000
0001
0100
0010
1000
0001
0010
0100
1000
0001
0100
0010
1000
0001
0010
,
0001
1000
0010
0100
0001
1000
0100
0010
0001
1000
0010
0100
0001
1000
0100
1000
,
0002
0003
0100
0010
2000
3000
0001
0000
1000
0100
0010
0001
1000
0010
0100
0001
,
1000
0100
1000
0001
1000
0010
0100
0001
0100
0010
1000
0001
0010
0001
1000
0010
,
0100
0001
1000
0001
0010
0100
1000
0001
1000
0010
0100
0001
1000
0100
1000
0100
,
0010
0001
0100
0001
1000
0001
0010
0100
1000
0100
0010
0001
1000
0010
1000
0001
,
0010
0001
1000
0010
0100
0001
1000
0001
0100
0001
1000
0100
0010
0001
0010
0001
,
1000
0010
1000
0001
1000
0100
0010
0001
0010
0100
1000
0001
0100
0001
1000
0100
,
1000
0010
1000
0001
0010
0001
1000
0010
1000
0100
0010
0001
1000
0010
1000
0010
,
0100
0000
0001
0000
1000
0100
0010
0001
1000
0001
0100
0001
1000
0100
0010
0000
,
0000
0000
0002
0000
0203
0000
0320
0000
2030
0000
3100
0010
0002
0003
1000
0010
,
0100
0001
0010
0001
1000
0010
0100
0001
1000
0100
1000
0001
1000
0010
0100
0010
,
1000
0001
0010
0001
1000
0100
0010
0001
0100
0001
1000
0001
0010
0100
0010
0001
,
1000
0010
0100
0010
1000
0001
0010
0001
1000
0010
0100
0001
1000
0100
1000
0001
,
0100
0010
1000
0001
0010
0100
1000
0001
0100
0010
1000
0001
0010
0100
0010
0001
,
1000
0010
0100
0001
1000
0100
1000
0001
0100
0010
1000
0001
0010
0001
1000
0001
,
0010
0100
1000
0001
1000
0100
1000
0001
0100
0010
1000
0001
1000
0100
0010
0001
,
1000
0010
1000
0001
0100
0010
1000
0001
0010
0001
1000
0010
0100
0001
0100
0001
,
1000
0100
0010
0001
1000
0010
0100
0001
2000
0000
0000
0000
3000
0000
0000
0000
,
0001
0000
0000
0000
0000
0000
0000
0000
0010
0000
0000
0000
0000
0000
0000
0000
0001
0000
0000
0000
0000
0000
0000
0000
1000
0000
0000
0000
0000
0000
0000
0000
0010
0000
0000
0000
0000
0000
0000
0000
1000
0000
0000
0000
0000
0000
0000
0000
0200
0300
0000
0000
0000
0000
0000
0000
1000
0000
0000
0000
0000
0000
0000
0000
,
0001
0000
0000
0000
0000
0000
0000
0000
0100
0000
0000
0000
0000
0000
0000
0000
0001
0000
0000
0000
0000
0000
0000
0000
1000
0000
0000
0000
0000
0000
0000
0000
0100
0000
0000
0000
0000
0000
0000
0000
0020
0030
0000
0000
0000
0000
0000
0000
0100
0000
0000
0000
0000
0000
0000
0000
1000
0000
0000
0000
0000
0000
0000
0000
,
0001
0100
0010
1000
0001
0010
0100
0010
,
0001
1000
0010
0100
0001
1000
0100
1000
,
0001
0000
0000
0000
0000
0000
0000
0000
0100
0000
0000
0000
0000
0000
0000
0000
0001
0000
0000
0000
0000
0000
0000
0000
1000
0000
0000
0000
0000
0000
0000
0000
0100
0000
0000
0000
0000
0000
0000
0000
1000
0000
0000
0000
0000
0000
0000
0000
0020
0030
0000
0000
0000
0000
0000
0000
1000
0000
0000
0000
0000
0000
0000
0000
,
0001
0000
0000
0000
0000
0000
0000
0000
0010
0000
0000
0000
0000
0000
0000
0000
0001
0000
0000
0000
0000
0000
0000
0000
1000
0000
0000
0000
0000
0000
0000
0000
0010
0000
0000
0000
0000
0000
0000
0000
0200
0300
0000
0000
0000
0000
0000
0000
0010
0000
0000
0000
0000
0000
0000
0000
1000
0000
0000
0000
0000
0000
0000
0000
,
0001
0100
0010
1000
0100
1000
0010
0100
,
0001
0000
0010
0000
0001
0000
0100
0000
0010
0000
1000
0000
0100
0000
1000
0001
,
1000
0000
0000
0000
0000
0000
0000
0000
0010
0000
0000
0000
0000
0000
0000
0000
1000
0000
0000
0000
0000
0000
0000
0000
0001
0000
0000
0000
0000
0000
0000
0000
0010
0000
0000
0000
0000
0000
0000
0000
0001
0000
0000
0000
0000
0000
0000
0000
0200
0300
0000
0000
0000
0000
0000
0000
0001
0000
0000
0000
0000
0000
0000
0000
,
1000
0000
0000
0000
0000
0000
0000
0000
0100
0000
0000
0000
0000
0000
0000
0000
1000
0000
0000
0000
0000
0000
0000
0000
0001
0000
0000
0000
0000
0000
0000
0000
0100
0000
0000
0000
0000
0000
0000
0000
0020
0030
0000
0000
0000
0000
0000
0000
0100
0000
0000
0000
0000
0000
0000
0000
0001
0000
0000
0000
0000
0000
0000
0000
,
1000
0000
0000
0000
0000
0000
0000
0000
0100
0000
0000
0000
0000
0000
0000
0000
0010
0000
0000
0000
0000
0000
0000
0000
0001
0000
0000
0000
0000
0000
0000
0000
1000
0000
0000
0000
0000
0000
0000
0000
0010
0000
0000
0000
0000
0000
0000
0000
0200
0300
0000
0000
0000
0000
0000
0000
0010
0000
0000
0000
0000
0000
0000
0000
,
1000
0001
0010
0100
1000
0001
0100
0001
,
1000
0100
0010
0001
0100
0001
0010
0100
,
1000
0000
0010
0000
1000
0000
0100
0000
0010
0000
0001
0000
0100
0000
0001
1000
,
0001
0010
0100
1000
0010
0100
0001
1000
,
0001
0000
0000
0000
0010
0000
0000
0000
0001
0000
0000
0000
1000
0000
0000
0000
0010
0000
0000
0000
1000
0000
0000
0000
0001
0000
0000
0000
0010
0000
0000
0000
0100
0000
0000
0000
0010
0000
0000
0000
0001
0000
0000
0000
1000
0000
0000
0000
0020
0030
0000
0000
0000
0000
0000
0000
0200
0300
0000
0000
0000
0000
0000
0000
,
0001
0100
0010
1000
0001
0100
0001
1000
0100
0010
0001
1000
0010
1000
0001
0010
,
0001
0100
0010
1000
0001
0100
0001
1000
0100
0010
0001
1000
0100
1000
0010
1000
,
0001
0010
0100
1000
0001
0010
0001
1000
0010
0100
0001
1000
0100
1000
0001
0100
,
0001
0010
0100
1000
0001
0010
0001
1000
0010
0100
0001
1000
0010
1000
0100
1000
,
0001
0100
0001
1000
0010
0100
0001
1000
0100
1000
0001
0010
0100
1000
0010
1000
,
0001
0100
0001
1000
0010
0100
0001
1000
0100
0010
0001
1000
0100
1000
0010
1000
,
0001
0010
0001
0100
0010
1000
0100
1000
0010
0100
0001
0010
0001
1000
0010
1000
,
0100
0010
0001
0100
0001
0010
0100
1000
0010
1000
0001
0010
0001
1000
0001
0100
,
0010
1000
0100
0010
0001
1000
0100
1000
0001
0100
0010
1000
0001
0010
0001
1000
,
0010
1000
0100
0010
0001
1000
0100
1000
0010
0100
0001
1000
0001
0100
0001
1000
,
0100
1000
0010
0100
0001
1000
0010
1000
0001
0010
0100
1000
0001
0100
0001
1000
,
0100
1000
0010
0100
0001
1000
0010
1000
0100
0010
0001
1000
0001
0100
0001
0010
,
0100
1000
0010
1000
0001
0010
0100
1000
0001
0100
0001
1000
0010
0100
0001
0010
,
0001
1000
0100
1000
0001
0010
0100
1000
0001
0100
0001
1000
0010
0100
0001
0010
,
0001
1000
0010
1000
0100
0010
0001
0100
0001
0010
0100
1000
0010
1000
0001
0010
,
0001
0100
0010
1000
0100
1000
0010
0100
0001
0010
0001
1000
0010
1000
0001
1000
,
0200
0000
0000
0300
0000
0000
0000
0000
0000
0000
0000
0000
0000
0000
0000
0000
0000
0000
0000
0000
0000
0000
0000
0000
0020
0000
0000
0000
0030
0000
0000
0000
0000
0000
0000
0000
0000
0000
0000
0000
0000
0000
0000
0000
0000
0000
0000
0000
0200
0000
0000
0300
0000
0000
0000
0000
0000
0000
0000
0000
0000
0000
0000
0000
0000
0000
0000
0000
0000
0000
0000
0000
2000
0000
0000
0000
0000
0000
3000
0000
0000
0000
0000
0000
0000
0000
0000
0000
0000
0000
0000
0000
0000
0000
0000
0000
0002
0000
0000
0000
0000
0000
0000
0003
0000
0000
0000
0000
0000
0000
0000
0000
0000
0000
0000
0000
0000
0000
0000
0000
0400
0000
0000
0000
0000
0000
0000
0000
0300
0000
0000
0000
0000
0000
0000
0000
0000
0000
0000
0000
0000
0000
0000
0000
0040
0000
0000
0000
0000
0000
0000
0000
0000
0030
0000
0000
0000
0000
0000
0000
0000
0000
0000
0000
0000
0000
0000
0000
0400
0000
0000
0000
0000
0000
0000
0000
0000
0300
0000
0000
0000
0000
0000
0000
0000
0000
0000
0000
0000
0000
0000
0000
,
2002
0000
0000
0000
,
0000
0000
0000
0000
,
3003
0000
0000
0000
;
