#VERSION:0.83;
#TITLE:TWISTED;
#SUBTITLE:(MOREPWR);
#ARTIST:Eliminate;
#TITLETRANSLIT:;
#SUBTITLETRANSLIT:;
#ARTISTTRANSLIT:;
#GENRE:;
#CREDIT:NAOKI;
#MUSIC:TWISTED_MOREPWR.ogg;
#BANNER:TWISTED_MOREPWR-bn.png;
#BACKGROUND:TWISTED_MOREPWR-bg.png;
#CDTITLE:naokicdtitle.png;
#SAMPLESTART:37.966;
#SAMPLELENGTH:13.225;
#SELECTABLE:YES;
#OFFSET:0.009;
#BPMS:0.000=150.000;
#STOPS:;
#SCROLLS:0.000=1.000,
126.000=0.000,
127.000=1.000
;
#BGCHANGES:;
#FGCHANGES:;

//--------------- dance-single - NAOKI bXF SS JA- KS- ----------------
#NOTEDATA:;
#STEPSTYPE:dance-single;
#DESCRIPTION:NAOKI bXF SS JA- KS-;
#DIFFICULTY:Challenge;
#METER:13;
#RADARVALUES:0,0,0,0,0;
#NOTES:
0000
0000
0000
0000
,
0000
0000
0000
0000
,
0000
0000
0000
0000
,
0000
0000
0000
0000
,
1000
0000
0010
0100
0001
1000
0100
0000
0010
0000
0001
0100
0010
1000
0001
0000
,
1000
0000
0100
0010
0001
1000
0010
0000
0100
0000
0001
0010
0001
1000
0010
0000
,
1000
0000
0100
0010
0001
1000
0010
0000
0100
0000
0001
0010
0100
1000
0001
0000
,
1000
0000
0010
0100
0001
1000
0100
0000
0010
0000
0001
0100
0010
1000
0001
0000
,
1000
0100
0010
0001
1000
0010
0100
0001
1000
0100
1000
0001
0100
0010
1000
0001
,
0010
0001
1000
0010
0100
0001
1000
0100
0010
0001
1000
0001
0100
0010
1000
0001
,
0010
0100
1000
0010
0100
0001
0010
0100
1000
0010
0100
0001
0010
0100
1000
0001
,
0200
0000
0300
0000
0020
0000
0030
0000
1000
0000
0000
0200
0000
0000
0300
0000
,
0010
0000
0001
0100
00M0
0100
1000
0000
0010
0000
1000
0100
00M0
0100
0001
0000
,
0010
0000
0001
0100
00M0
0100
1000
0000
0010
0000
1000
0100
00M0
0100
0001
0000
,
0010
0000
0000
0000
0001
0000
0100
0000
00M0
0000
0200
0000
1000
0000
0300
00M0
0100
0000
0001
0000
1000
0000
0100
0000
00M0
0000
0200
0000
0001
0000
0300
00M0
,
0100
0000
0000
1000
0000
0000
0000
0000
0000
0000
0000
0000
0000
0000
0000
0000
0040
0000
0000
0000
0000
0000
0000
0030
0000
0000
0000
0000
0000
0000
0000
0000
1000
0000
0000
0000
0000
0000
0000
0000
0001
0000
0000
0000
0000
0000
0000
0000
0100
0000
0000
0000
0000
0000
0000
0000
0000
0000
0000
0000
0000
0000
0000
0000
,
0011
0000
0000
0000
1000
0000
0100
00M0
0100
0000
0001
0000
0010
0000
0000
0000
0101
0000
0000
0000
1000
0000
0010
0M00
0010
0000
0001
0000
0100
0000
0000
0000
,
0011
0000
0000
0000
1000
0000
0100
00M0
0100
0000
0001
0000
0010
0000
0000
0000
0101
0000
0000
0000
1000
0000
0010
0M00
0010
0000
0001
0000
0100
0000
0000
0000
,
0011
0000
0000
0000
0100
00M0
0100
0000
1000
0000
0010
0M00
0010
0000
0000
0000
0101
0000
0000
0000
0010
0M00
0010
0000
1000
0000
0100
00M0
0100
0000
0000
0000
,
0011
0000
0000
0000
0000
0000
1000
0000
0100
0000
1000
0000
0100
0000
0000
0000
0000
0000
1010
0000
0000
0000
0000
0000
0002
0000
0000
0000
0000
0000
0013
0000
0000
0100
0000
0000
1000
0000
0000
0000
0000
0000
0001
0000
0000
0001
0000
0000
,
1000
0000
0020
0000
0030
0000
0100
00M0
0100
0000
1000
0000
0010
0000
0000
0000
1100
0000
0000
0000
0001
0000
0010
0M00
0010
0000
1000
0000
0100
0000
0000
0000
,
1010
0000
0000
0000
0100
00M0
0100
0000
0001
0000
0010
0M00
0010
0000
0000
0000
1100
0000
0000
0000
0010
0M00
0010
0000
0001
0000
0100
00M0
0100
0000
0000
0000
,
1010
0000
0100
0100
0000
0010
0010
0001
0000
0100
0100
0000
0010
0010
1000
0001
,
0010
0000
0010
0000
0010
0100
2000
3000
,
0010
0001
0010
0100
0001
1000
0100
0000
0010
1000
0010
0100
1000
0001
0100
0000
,
0010
0001
0010
0100
0001
1000
0100
0000
0010
1000
0010
0100
1000
0001
0100
0000
,
0010
1000
0200
0300
0010
0001
0100
0000
0010
0001
0010
0100
0001
1000
0100
0000
,
0010
0000
0000
1000
0000
0000
0010
0000
0100
0000
1000
0000
0001
0000
0000
0100
0000
0000
0010
0000
0000
0000
0000
0000
1000
0000
0000
0000
0000
0000
0001
0000
0000
0000
0000
0000
0010
0000
0000
0100
0000
0000
1000
0000
0000
0001
0000
0000
,
0100
0010
0001
0010
1000
0001
0010
0000
0100
0001
0100
1000
0001
0100
0001
1000
,
0100
0010
1000
0010
0001
1000
0010
0000
0100
1000
0100
0001
1000
0100
1000
0001
,
0100
0010
0001
0010
1000
0001
0010
0000
0100
0001
0100
1000
0001
0100
0001
1000
,
0100
0100
1001
0000
,
1000
0000
0100
0000
0010
0000
0000
0000
0001
0000
0100
00M0
0100
0000
0000
0000
1000
0000
0010
0000
0100
0000
0000
0000
0001
0000
0010
0000
0100
0000
0000
0000
,
1000
0000
0010
0000
0100
0000
0001
0000
1000
0000
0100
00M0
0100
0000
0000
0000
0001
0000
0000
0000
1000
0000
0100
0000
00M0
0000
0100
0000
0001
0000
0000
0000
,
0010
0000
0100
0000
1000
0000
0000
0000
0001
0000
0100
00M0
0100
0000
0000
0000
1000
0000
0000
0000
0001
0000
0100
0000
00M0
0000
0100
0000
1000
0000
0000
0000
,
0020
0000
0000
0030
0000
0000
0100
0000
0001
0000
0100
0000
0001
0000
0000
1000
0000
0000
0100
0000
0000
0000
0000
0000
0010
0000
0000
0002
0000
0000
0000
0000
0000
0003
0000
0000
0100
0000
0000
0010
0000
0000
1000
0000
0000
1000
0000
0000
,
0001
0000
0010
0000
0100
0000
0000
0000
1000
0000
0010
0M00
0010
0000
0000
0000
0001
0000
0100
0000
0010
0000
0000
0000
1000
0000
0100
0000
0010
0000
0000
0000
,
0001
0000
0100
0000
0010
0000
1000
0000
0001
0000
0010
0M00
0010
0000
0000
0000
1000
0000
0000
0000
0001
0000
0010
0000
0M00
0000
0010
0000
1000
0000
0000
0000
,
0100
0000
0010
0000
0001
0000
0000
0000
1000
0000
0010
0M00
0010
0000
0000
0000
0001
0000
0000
0000
1000
0000
0010
0000
0M00
0000
0010
0000
0001
0000
0000
0000
,
0100
0000
0000
0000
0100
0000
0001
1000
0100
0000
0000
0000
0010
0000
0000
0000
,
0001
1000
0010
0100
1000
0100
0010
1000
0001
0010
0010
0100
0100
1000
0010
0100
,
0001
1000
0100
0010
1000
0010
0100
1000
0001
0100
0100
1000
0010
0100
0010
1000
,
0001
0010
0100
0001
0100
0010
0001
1000
0010
0010
0100
0100
0001
0010
0100
1000
,
0001
0100
0010
0001
0010
0100
0001
1000
0100
0100
0001
0010
0100
1000
0001
0100
,
0010
1000
0001
0010
0100
0001
0100
0010
0001
1000
0010
0100
0010
1000
0001
0010
,
0100
1000
0001
0100
0010
0001
0010
0100
0001
1000
0100
0100
0001
0010
0100
0010
,
0001
1000
0010
0100
1000
0100
0010
1000
0001
0010
0100
0010
0001
1000
0001
0100
,
0010
0000
0000
0000
0010
0000
0100
0000
0001
0000
1000
0100
00M0
0100
0001
0000
,
1010
0000
0001
0100
0000
0001
1000
0000
0100
0000
1000
0010
0000
1000
0001
0000
,
0200
0300
0001
0010
0000
0001
1000
0000
0010
0000
1000
0100
0010
0001
1000
0000
,
0020
0030
1000
0100
0000
1000
0001
0000
0100
0000
0001
0010
0000
0001
1000
0000
,
0200
0300
1000
0010
0000
1000
0001
0000
0010
0000
0001
0100
0010
1000
0001
0000
,
0200
0300
0010
0001
0000
0010
1000
0000
0100
0000
0010
1000
0000
0010
0001
0000
,
0020
0030
0100
0001
0000
0100
1000
0000
0010
0000
0100
1000
0100
0001
1000
0000
,
0200
0300
0010
1000
0000
0010
0001
0000
0100
0000
0010
0001
0000
0010
1000
0000
,
0010
0000
0100
1000
0000
0100
0001
0000
0020
0030
0100
0001
0100
1000
0001
0000
,
0200
0300
0000
0000
0010
0000
0000
0000
2000
3000
0000
0000
0001
0000
0000
0000
,
0020
0030
0000
0000
0100
0000
0000
0000
2000
3000
0000
0000
0010
0000
0000
0000
,
0200
0300
0000
0000
0001
0000
0000
0000
2000
3000
0000
0000
0100
0000
0000
0000
,
0020
0030
0000
0000
0001
0000
0000
0000
0200
0300
0000
0000
0010
0000
1000
0000
,
0001
0010
0100
1000
0001
0100
0010
1000
0001
0010
0001
1000
0010
0100
0001
1000
,
0100
1000
0001
0100
0010
1000
0001
0010
0100
1000
0001
1000
0010
0100
0001
1000
,
0100
0010
0010
0010
0010
0010
0000
0001
,
1000
0000
0000
0010
0000
0000
0000
0000
0400
0000
0000
0000
0000
0000
0000
0000
0300
0000
0000
0000
0000
0000
0000
0000
0000
0000
0000
0000
0001
0000
0000
0000
2000
0000
0000
0000
0000
0000
0000
0000
0000
0000
0000
0000
0000
0000
0000
0000
3101
0000
0000
0000
0000
0000
0000
0000
1000
0000
0000
0000
0000
0000
0000
0000
,
0010
0000
0000
0000
0000
0000
0000
0000
0010
0000
0000
0000
0000
0000
0000
0000
0010
0000
0000
0000
0000
0000
0000
0000
0000
0000
0000
0000
0000
0000
0000
0000
0100
0000
0000
0000
0000
0000
0000
0000
0100
0000
0000
0000
0000
0000
0000
0000
0100
0000
0000
0000
0000
0001
0000
0000
1000
0000
0000
0000
0000
0001
0000
0000
,
0010
0000
0000
0000
0000
0100
0000
0000
1000
0000
0000
0000
0000
0001
0000
0000
0100
0000
0000
0000
0000
0010
0000
0000
1000
0000
0000
0000
0000
0001
0000
0000
0010
0000
0000
0000
0000
0000
0000
0000
0200
0000
0000
0000
0000
0000
0000
0000
1300
0000
0000
0000
0000
0000
0000
0000
1000
0000
0000
0000
0000
0000
0000
0000
,
2001
0000
0000
0000
0000
0000
0000
0000
3000
0000
0000
0000
0000
0000
0000
0000
0020
0000
0000
0000
0000
0030
0000
0000
0200
0000
0000
0000
0000
0300
0000
0000
0001
0000
0000
0000
1000
0000
0000
0000
0100
0000
0000
0000
0010
0000
0000
0000
1000
0000
0000
0000
1000
0000
0000
0000
0100
0000
0000
0000
0010
0000
0000
0000
,
0001
1000
0010
0100
1000
1000
0010
0100
0001
1000
0100
0010
1000
1000
0100
0010
,
0001
1000
0010
0100
1000
1000
0010
0000
1000
0001
0010
0100
0001
0001
0010
0100
,
1000
0001
0100
0010
0001
0001
0100
0010
1000
0001
0010
0100
2000
0000
3011
0000
,
1100
0001
0010
0100
0001
0001
0010
0100
1000
0001
0100
0010
0001
0001
0100
0010
,
1000
0001
0010
0100
0001
0001
0010
0100
1000
0001
0100
0010
1000
0001
1100
0000
,
0011
1000
0100
0010
1000
1000
0100
0010
0001
1000
0010
0100
0001
1000
0001
1000
,
0100
0000
0100
0000
0100
0020
0031
0001
,
1002
0000
0003
0000
0100
0001
1000
0100
0010
0001
1000
0010
0100
1000
0100
0010
,
1000
0100
0100
0001
0010
0100
1000
0010
0100
0001
0010
0100
0001
0100
0010
0001
,
0100
0100
1000
0010
0100
0001
1000
0100
0010
0001
1000
0010
0100
1000
0100
0001
,
1000
0100
0100
0001
0010
0100
1000
0010
0010
0001
0100
0010
0001
0010
0100
0001
,
0010
0010
1000
0100
0010
0001
1000
0010
0100
0001
1000
0100
0010
1000
0010
0100
,
1000
0010
0010
0001
0100
0010
1000
0100
0010
0001
0100
0010
0001
0010
0100
0001
,
0010
0010
1000
0100
0010
0100
1000
0001
0100
0010
1000
0001
0010
0010
1000
0001
,
0010
0000
0010
0000
0010
0001
1000
0000
,
0001
0100
0100
0100
0100
0100
0100
0100
0100
0100
0100
0100
0100
0100
0100
0100
,
0020
0000
0000
0000
0000
0000
0000
0000
0000
0000
0000
0000
0000
0000
0000
0000
0000
0000
0000
0030
0000
0000
0000
0000
0000
0000
0000
0000
0000
0000
0000
0000
;
