#TITLE:System↑OverTension;
#SUBTITLE:;
#ARTIST:TOMOYUKI;
#TITLETRANSLIT:SystemOverTension;
#SUBTITLETRANSLIT:;
#ARTISTTRANSLIT:;
#CREDIT:;
#BANNER:SystemOverTension-bn.png;
#BACKGROUND:SystemOverTension-bg.png;
#LYRICSPATH:;
#CDTITLE:NAOKI_cdtitle.png;
#MUSIC:SystemOverTension.mp3;
#OFFSET:-0.477;
#SAMPLESTART:78.111;
#SAMPLELENGTH:12.000;
#SELECTABLE:YES;
#DISPLAYBPM:176.000;
#BPMS:0.000=176.000,64.000=352.000,65.000=176.000,91.500=105.600,92.000=527.996,92.500=175.980,130.000=105.600,130.500=527.996,131.000=105.600,131.500=527.995,132.000=175.980,157.000=352.000,159.000=176.000,162.000=352.000,162.250=176.000,162.375=88.000,162.500=352.000,162.750=176.000,162.875=88.000,163.000=352.000,163.250=176.000,163.375=88.000,163.500=176.000,170.000=352.000,170.250=176.000,170.375=88.000,170.500=352.000,170.750=176.000,170.875=88.000,171.000=352.000,171.250=176.000,171.375=88.000,171.500=176.000,178.000=352.000,178.250=176.000,178.375=88.000,178.500=352.000,178.750=176.000,178.875=88.000,179.000=352.000,179.250=176.000,179.375=88.000,179.500=176.000,186.000=352.000,186.250=176.000,186.375=88.000,186.500=352.000,186.750=176.000,186.875=88.000,187.000=352.000,187.250=176.000,187.375=88.000,187.500=176.000,256.000=352.000,257.000=176.000,264.000=352.000,264.250=176.000,264.375=88.000,264.500=176.000,264.750=352.000,265.000=176.000,265.125=88.000,265.250=176.000,272.000=352.000,272.250=176.000,272.375=88.000,272.500=176.000,272.750=352.000,273.000=176.000,273.125=88.000,273.250=176.000,285.000=352.000,287.875=35.201,288.000=175.980;
#STOPS:64.000=0.043
,64.250=0.043
,64.500=0.043
,64.750=0.043
,157.000=0.085
,157.500=0.085
,158.000=0.085
,158.500=0.085
,223.000=1.364
,256.000=0.043
,256.250=0.043
,256.500=0.043
,256.750=0.043
,285.000=0.085
,285.500=0.085
,286.000=0.085
,286.500=0.085
;
#BGCHANGES:192.000=SystemOverTension-video.avi=1.000=1=0=0,
220.000=white.JPG=1.000=1=0=0,
223.000=SystemOverTension-bg.png=1.000=1=0=0,
99999=-nosongbg-=1.000=0=0=0 // don't automatically add -songbackground-
;

//---------------dance-single - NAOKI----------------
#NOTES:
     dance-single:
     NAOKI:
     Medium:
     11:
     0.478,0.661,0.129,0.267,0.052: // measure 1
0000
0000
0000
0000
,  // measure 2
0000
0000
0000
0000
,  // measure 3
0000
0000
0000
0000
,  // measure 4
0000
0000
0000
0000
,  // measure 5
1010
0010
0100
0001
,  // measure 6
1001
1000
0100
0010
,  // measure 7
0011
0100
1001
0100
,  // measure 8
0220
0000
0330
0000
,  // measure 9
0010
1000
0000
0001
0000
0010
0000
0100
,  // measure 10
1000
0001
0000
0100
0000
0010
0000
1000
,  // measure 11
0001
0010
0000
0100
0000
1000
0000
0001
,  // measure 12
0100
0010
0000
1000
0000
0001
0000
0010
,  // measure 13
0100
1000
0000
0001
0000
0100
0000
0010
,  // measure 14
1000
0001
0000
0010
0000
0100
0000
1000
,  // measure 15
0001
0100
0000
0010
0000
1000
0000
0100
,  // measure 16
0010
0001
0000
1000
0000
0010
0000
0100
,  // measure 17
0020
0130
1001
1001
,  // measure 18
0010
0000
0110
0000
0100
0001
1000
0000
,  // measure 19
0100
0000
0010
0000
0001
1000
0010
0000
,  // measure 20
0100
0000
0001
0000
1000
0100
0010
0000
,  // measure 21
0001
0000
1000
0000
0010
0100
0001
0000
,  // measure 22
0010
0000
0100
0000
1000
0001
0100
0000
,  // measure 23
0020
0000
0130
0000
0001
0010
0100
1000
,  // measure 24
0000
1001
0000
0000
0000
0000
0000
0000
,  // measure 25
0010
0000
0000
0100
0000
0000
0001
0000
1000
0000
0000
0000
0010
0000
0000
0000
,  // measure 26
0100
0001
1000
0000
0100
0000
0110
0000
,  // measure 27
0010
0000
0000
0100
0000
0000
1000
0000
0001
0000
0000
0000
0010
0000
0000
0000
,  // measure 28
0100
1000
0001
0000
0100
0000
0020
0000
,  // measure 29
0130
0000
0000
0010
0000
0000
1000
0000
0001
0000
0000
0000
0100
0000
0000
0000
,  // measure 30
0010
1000
0001
0000
0010
0000
0110
0000
,  // measure 31
0100
0000
0000
0010
0000
0000
0001
0000
1000
0000
0000
0000
0100
0000
0000
0000
,  // measure 32
0010
0001
1000
0000
0010
0000
0200
0000
,  // measure 33
0300
0000
0000
0100
0001
0000
1001
0000
,  // measure 34
1000
0100
0001
0000
0100
0000
1000
0000
,  // measure 35
0010
0000
0000
0100
0000
0000
0010
0000
1000
0000
0100
0000
0010
0000
0000
0000
,  // measure 36
0001
0100
1000
0000
0100
0000
1001
0000
,  // measure 37
0010
0000
0000
0100
0000
0000
0001
0000
1000
0000
0100
0000
0010
0000
0000
0000
,  // measure 38
0001
0100
1000
0000
0100
0000
0001
0000
,  // measure 39
0010
0000
0000
0100
0000
0000
0010
0000
0001
0000
1000
0000
0010
0000
0000
0000
,  // measure 40
0100
0000
0010
0000
2000
3000
0200
0300
0020
0030
0002
0003
2000
0000
3000
0000
,  // measure 41
0020
0000
0030
0000
,  // measure 42
2000
0000
3000
0000
,  // measure 43
0002
0000
0003
0000
,  // measure 44
0020
0000
0130
0010
,  // measure 45
0200
0000
0300
0000
,  // measure 46
2000
0000
3000
0000
,  // measure 47
0002
0000
0003
0000
,  // measure 48
0200
0000
0310
0100
,  // measure 49
0001
0100
0000
0010
,  // measure 50
1000
0100
0000
0010
,  // measure 51
0001
0010
0000
0100
,  // measure 52
1000
0010
0100
0100
,  // measure 53
0001
0010
0000
0100
,  // measure 54
1000
0010
0000
0100
,  // measure 55
0001
0010
0000
0100
,  // measure 56
1000
0001
0100
0010
,  // measure 57
1000
0000
0000
0010
0000
0000
0100
0000
0001
0000
1000
0000
0100
0000
0000
0000
,  // measure 58
0010
0001
1000
0000
0010
0000
0100
0000
,  // measure 59
0001
0000
0000
0010
0000
0000
0100
0000
1000
0000
0001
0000
0100
0000
0000
0000
,  // measure 60
0010
1000
0001
0000
0010
0100
2000
0000
,  // measure 61
3001
0000
0000
0100
0000
0000
0010
0000
1000
0000
0001
0000
0010
0000
0000
0000
,  // measure 62
0100
1000
0001
0000
0100
0000
0010
0000
,  // measure 63
1000
0000
0000
0100
0000
0000
0010
0000
0001
0000
1000
0000
0010
0000
0000
0000
,  // measure 64
0100
0001
1000
0000
0100
0010
0002
0000
,  // measure 65
0203
0310
1010
0101
,  // measure 66
0200
0310
1000
0100
,  // measure 67
0020
0000
0031
0000
0100
0010
1000
0000
,  // measure 68
0001
0010
0100
0000
1000
0001
0100
0000
,  // measure 69
0020
0000
1030
0000
0100
0010
0001
0000
,  // measure 70
1000
0010
0100
0000
0001
0000
1000
0000
,  // measure 71
0100
0000
0000
0010
0000
0000
0100
0000
1000
0000
0001
0000
0100
0000
0000
0000
,  // measure 72
0010
0000
0100
0000
0002
0003
0020
0030
0200
0300
2000
3000
0002
0000
0003
0000
,  // measure 73
0100
0001
0000
1000
0000
0100
0000
0010
,  // measure 74
0001
1000
0000
0010
0000
0100
0000
0001
,  // measure 75
1000
0100
0000
0010
0000
0001
0000
1000
,  // measure 76
0010
0100
0000
0001
0000
1000
0000
0100
,  // measure 77
0010
0001
0000
1000
0000
0010
0000
0100
,  // measure 78
0001
1000
0000
0100
0000
0010
0000
0001
,  // measure 79
1000
0010
0000
0100
0000
0001
0000
1000
,  // measure 80
0100
0010
0000
0001
0000
1000
0000
0010
,  // measure 81
0200
0010
0000
0010
0000
0010
0000
0310
;

//---------------dance-single - NAOKI----------------
#NOTES:
     dance-single:
     NAOKI:
     Challenge:
     16:
     1.000,1.000,0.430,0.860,0.838: // measure 1
0000
0000
0000
0000
,  // measure 2
0000
0000
0000
0000
,  // measure 3
0000
0000
0000
0000
,  // measure 4
0000
0000
0000
0000
,  // measure 5
1010
0000
0000
0000
0010
0000
0000
0000
0100
0000
0000
0000
0001
1000
0000
0000
,  // measure 6
0011
0000
0010
0000
0100
0000
1000
0001
,  // measure 7
0100
0010
1001
0100
,  // measure 8
0110
0000
0000
0000
,  // measure 9
0010
0000
1000
0000
0001
0000
0010
0100
1000
0001
1000
0010
0100
0000
0001
0000
,  // measure 10
0010
0000
0100
1000
0000
0001
0100
0010
1000
0001
0010
0100
1000
0000
0020
0000
,  // measure 11
0130
0000
0010
0000
1000
0000
0001
0010
0100
0010
0001
0010
0100
0000
1000
0000
,  // measure 12
0100
0000
0000
0000
0000
0000
0000
0000
0010
0000
0000
0000
0001
0000
0000
0000
0000
0000
0000
0000
1000
0000
0000
0000
0020
0000
0000
0000
0100
0000
0000
0000
0031
0000
0000
0000
0200
0000
0000
0000
0010
0000
0000
0000
1300
0000
0000
0000
0001
0000
0000
0000
0000
0000
0000
1000
0002
0000
0000
0000
0000
0000
0000
0000
,  // measure 13
0013
0000
0100
0000
1000
0000
0010
0100
0001
1000
0001
0010
0100
0000
1000
0000
,  // measure 14
0010
0000
0100
0001
0000
1000
0100
0010
0001
1000
0010
0100
0001
0000
0020
0000
,  // measure 15
0130
0000
0010
0000
0001
0000
1000
0010
0100
0010
1000
0010
0100
0000
0001
0000
,  // measure 16
0100
0000
0000
0000
0000
0000
0000
0000
0010
0000
0000
0000
1000
0000
0000
0000
0000
0000
0000
0000
0001
0000
0000
0000
0010
0000
0000
0000
0100
0000
0000
0000
1000
0000
0000
0000
0100
0000
0000
0000
0010
0000
0000
0000
0001
0000
0000
0000
1000
0000
0000
0000
0000
0000
0000
0001
2000
0000
0000
0000
0000
0000
0000
0000
,  // measure 17
3010
0000
0000
0000
0100
0000
0000
0000
0010
0000
0000
0000
0100
0000
0000
0000
0010
0000
0000
0000
0000
0000
0000
0000
1000
0000
0000
0000
0000
0000
0000
0001
0020
0000
0000
0000
0000
0000
0000
0000
0000
0000
0000
0000
0000
0000
0030
0100
2000
0000
0000
0000
0000
0000
0000
0000
3001
0000
0000
0000
0000
0000
0000
0000
,  // measure 18
0100
0000
0000
0000
0100
0000
0001
1000
0002
0000
0000
0000
0003
0000
0010
0000
0100
0000
1000
0000
0001
0000
0100
0000
0010
0000
0000
0000
2000
0000
0000
0000
,  // measure 19
3100
0000
0010
0000
0001
0000
1000
0010
1000
0001
1000
0100
0010
0000
0001
0000
,  // measure 20
0100
0000
0000
0000
0000
0000
0000
0000
0010
0000
0000
0000
0000
0000
0000
0000
1000
0000
0000
0000
0000
0000
0000
0000
0001
0000
0000
0000
0010
0000
0000
0000
0001
0000
0000
0000
1000
0000
0000
0000
0001
0000
0000
0000
0100
0000
0000
0000
0010
0000
0000
0000
0000
0000
0000
0100
0020
0000
0000
0000
0000
0000
0000
0000
,  // measure 21
1030
0000
0010
0000
0100
0000
0001
0100
0001
1000
0001
0010
0100
0000
1000
0000
,  // measure 22
0010
0000
0100
0000
0001
0000
1000
0100
1000
0001
1000
0010
0100
0000
0001
0000
,  // measure 23
0100
0010
1000
0001
0010
0001
1000
0010
0100
0010
1000
0001
0010
0100
1000
0000
,  // measure 24
0000
0000
2002
0000
3003
0000
0001
0100
0000
0010
0000
0100
0000
0000
0001
0000
,  // measure 25
1002
0000
0000
0023
0000
0000
0130
0000
1000
0000
0010
0000
0001
0000
0010
0000
,  // measure 26
0100
0000
0001
0000
1000
0100
0010
0100
1000
0000
0001
0100
0010
0000
1000
0000
,  // measure 27
2100
0000
0000
3020
0000
0000
0130
0000
0001
0000
0010
0000
0100
0000
1000
0000
,  // measure 28
0001
0100
0010
0100
0001
0000
1000
0000
0100
0000
0010
0000
0220
0000
0330
0000
,  // measure 29
2001
0000
0000
3200
0000
0000
0310
0000
0001
0000
0100
0000
1000
0000
0100
0000
,  // measure 30
0010
0000
1000
0000
0001
0010
0100
0010
0001
0000
1000
0010
0100
0000
0001
0000
,  // measure 31
0012
0000
0000
0203
0000
0000
0310
0000
1000
0000
0100
0000
0010
0000
0001
0000
,  // measure 32
1000
0010
0100
0010
1000
0000
0001
0000
0010
0000
0100
0000
0220
0000
0330
0000
,  // measure 33
0010
0000
0000
0000
0000
0000
0000
0000
0000
0000
0000
0000
0001
0000
0000
0000
0000
0000
0000
0000
0000
0000
0000
0000
1000
0000
0000
0000
0010
0000
0000
0000
0100
0000
0000
0000
0000
0000
0000
0000
0000
0000
0000
0000
0000
0000
0000
0100
0001
0000
0000
0000
0000
0000
0000
0000
0000
0000
0000
0000
0000
0000
0000
0010
,  // measure 34
2000
0000
0000
3000
0010
0000
0100
0000
1000
0000
0000
0000
0100
0000
0001
0000
0100
0000
0010
0000
1000
0000
0010
0000
0100
0000
0000
0000
0001
0000
0000
0000
,  // measure 35
1001
0000
1000
0200
0000
0310
0001
0000
1000
0010
0100
0001
1000
0000
0100
0000
,  // measure 36
0010
0001
1000
0010
0100
0000
0001
0000
1000
0000
0100
0000
0220
0000
0330
0000
,  // measure 37
0010
0000
0001
0200
0000
0310
1000
0000
0001
0010
0100
1000
0001
0000
0100
0000
,  // measure 38
0010
0000
0100
0010
0001
0000
0010
1000
0010
0100
0001
0100
0010
0000
1000
0000
,  // measure 39
1001
0000
0001
0020
0000
0130
1000
0000
0001
0100
0010
1000
0001
0000
0010
0000
,  // measure 40
0100
1000
0001
0100
001M
0000
1M10
0000
10M1
0000
M011
0000
0220
0000
0330
0000
,  // measure 41
2200
0000
0000
0000
0300
0000
0000
0000
3M02
0000
0M00
0000
0M03
0000
2000
3000
,  // measure 42
0020
0030
0200
0300
0002
0003
1000
0100
0020
0030
0002
0003
2000
3000
0020
0030
,  // measure 43
0200
0000
0300
0002
0000
0003
2000
0000
32M0
0000
00M0
0000
03M0
0000
0020
0030
,  // measure 44
0001
0100
0010
0100
0002
0003
0020
0030
0200
0300
1000
0000
2002
3003
0000
0000
,  // measure 45
0202
0000
0000
0000
0300
0000
0000
0000
2M03
0000
0M00
0000
3M00
0000
0200
0300
,  // measure 46
0020
0030
0002
0003
2000
3000
0010
0100
0020
0030
2000
3000
0002
0003
0020
0030
,  // measure 47
0200
0000
0300
2000
0000
3000
0002
0000
02M3
0000
00M0
0000
03M0
0000
0020
0030
,  // measure 48
1000
0100
0010
0100
2000
3000
0002
0003
0100
0000
0010
0000
0220
0000
0330
0000
,  // measure 49
1001
0000
1100
0000
0000
0010
0011
0000
,  // measure 50
1001
0000
0101
0000
0000
0010
1010
0000
,  // measure 51
1000
0001
0010
0000
0000
0100
1100
0000
,  // measure 52
0010
0100
1000
0001
0100
0010
0200
M30M
,  // measure 53
0010
0000
0000
0010
0000
0000
0010
0000
0100
0000
0001
0000
1000
0000
0100
0000
,  // measure 54
0010
0000
0001
0100
0010
0000
1000
0001
1000
0000
0100
0010
0001
0000
1000
0010
,  // measure 55
0100
0000
0000
0100
0000
0000
0100
0000
0010
1000
0001
0000
0010
0100
1000
0000
,  // measure 56
0001
0100
0010
0100
0001
1000
0100
0010
0100
1000
0001
0100
0020
0030
0000
0000
,  // measure 57
1010
0000
0000
0101
0000
0000
1100
0000
0010
0000
0001
0000
0100
0000
1000
0000
,  // measure 58
0100
0000
0010
1000
0010
0000
0100
0001
0010
0000
0100
1000
0100
0000
0010
0000
,  // measure 59
0011
0000
0000
1100
0000
0000
0101
0000
0010
0000
1000
0000
0001
0000
0010
0000
,  // measure 60
0100
1000
0001
0100
0010
0000
1000
0000
0001
0000
0010
0000
0220
0000
0330
0000
,  // measure 61
1100
0000
0000
0011
0000
0000
1010
0000
0100
0000
0001
0000
0010
0000
1000
0000
,  // measure 62
0010
0000
0100
1000
0100
0000
0010
0001
0100
0000
0010
1000
0010
0000
0100
0000
,  // measure 63
0101
0000
0000
1010
0000
0000
0011
0000
0100
0000
1000
0000
0001
0000
0100
0000
,  // measure 64
0010
1000
0001
0010
0100
0000
1000
0000
0001
0000
0100
0000
0220
0000
0330
0000
,  // measure 65
0010
0100
0010
0100
0010
0000
1000
0000
2010
0000
3100
0000
0012
0000
0103
0000
,  // measure 66
0010
0000
1000
0001
0020
0000
0130
0000
1000
0000
0001
0000
0100
0010
0100
0000
,  // measure 67
0020
000M
1030
0200
000M
0310
0001
0000
0100
0000
1000
0000
0100
0000
0010
0000
,  // measure 68
1000
0001
0010
0001
1000
0000
0010
0000
0100
0000
0001
0000
2002
0000
3003
0000
,  // measure 69
0020
M000
0031
0200
M000
0310
1000
0000
0100
0000
0001
0000
0100
0000
0010
0000
,  // measure 70
0001
0000
1000
0000
0010
0000
0100
0000
0001
1000
0100
1000
0001
0000
0100
0000
,  // measure 71
0020
0000
1030
0001
0000
0010
0100
0000
1000
0000
0001
0000
0100
0000
0010
0000
,  // measure 72
0100
0001
1000
0100
M010
0000
0M11
0000
10M1
0000
101M
0000
0220
0000
0330
0000
,  // measure 73
0100
0000
0001
0000
1000
0000
0100
0010
0001
1000
0001
0100
0010
0000
1000
0000
,  // measure 74
0100
0000
0010
0001
0000
1000
0010
0100
0001
1000
0100
0010
0001
0000
0200
0000
,  // measure 75
0310
0000
0100
0000
0001
0000
1000
0100
0010
0100
1000
0100
0010
0000
0001
0000
,  // measure 76
0010
0000
0000
0000
0000
0000
0000
0000
0100
0000
0000
0000
1000
0000
0000
0000
0000
0000
0000
0000
0001
0000
0000
0000
0200
0000
0000
0000
0010
0000
0000
0000
1300
0000
0000
0000
0020
0000
0000
0000
0100
0000
0000
0000
0031
0000
0000
0000
1000
0000
0000
0000
0000
0000
0000
0001
2000
0000
0000
0000
0000
0000
0000
0000
,  // measure 77
3010
0000
0100
0000
0001
0000
0010
0100
1000
0001
1000
0010
0100
0000
0001
0000
,  // measure 78
0010
0000
0100
1000
0000
0001
0100
0010
1000
0001
0010
0100
1000
0000
0020
0000
,  // measure 79
0130
0000
0010
0000
1000
0000
0001
0010
0100
1000
0100
0010
0001
0000
0100
0000
,  // measure 80
0010
0000
0000
0000
0000
0000
0000
0000
2000
0000
0000
0000
0001
0000
0000
0000
0000
0000
0000
0000
3000
0000
0000
0000
0002
0000
0000
0000
0100
0000
0000
0000
0000
0000
0000
0000
0003
0000
0000
0000
0200
0000
0000
0000
0010
0000
0000
0000
0000
0000
0000
0000
0300
0000
0000
0000
0010
0000
0000
0000
0000
0000
0000
1000
,  // measure 81
0001
0100
0000
0100
0000
0010
0000
0010
;

//---------------dance-single - NAOKI----------------
#NOTES:
     dance-single:
     NAOKI:
     Beginner:
     4:
     0.199,0.278,0.017,0.146,0.000: // measure 1
0000
0000
0000
0000
,  // measure 2
0000
0000
0000
0000
,  // measure 3
0000
0000
0000
0000
,  // measure 4
0000
0000
0000
0000
,  // measure 5
0010
0000
0000
0000
,  // measure 6
0100
0000
0000
0000
,  // measure 7
0002
0000
2000
0000
,  // measure 8
3003
0000
0000
0000
,  // measure 9
0010
0000
0100
0000
,  // measure 10
0001
0000
0010
0000
,  // measure 11
0100
0000
1000
0000
,  // measure 12
0001
0000
0100
0000
,  // measure 13
0010
0000
1000
0000
,  // measure 14
0100
0000
0010
0000
,  // measure 15
0001
0000
1000
0000
,  // measure 16
0010
0000
0100
0000
,  // measure 17
0002
0003
1000
1000
,  // measure 18
0000
0100
0000
0010
,  // measure 19
0000
0001
0000
0100
,  // measure 20
0000
0010
0000
1000
,  // measure 21
0000
0001
0000
0010
,  // measure 22
0000
0100
0000
1000
,  // measure 23
0020
0000
0030
0000
,  // measure 24
0000
1001
0000
0000
0000
0000
0000
0000
,  // measure 25
0100
0000
0000
0000
,  // measure 26
0001
0000
0000
0000
,  // measure 27
1000
0000
0000
0000
,  // measure 28
0100
0000
0010
0000
,  // measure 29
0100
0000
0000
0000
,  // measure 30
1000
0000
0000
0000
,  // measure 31
0001
0000
0000
0000
,  // measure 32
0100
0000
0010
0000
,  // measure 33
2000
3000
0001
0001
,  // measure 34
1000
0000
0010
0000
,  // measure 35
0100
0000
0001
0000
,  // measure 36
1000
0100
0000
0100
,  // measure 37
0010
0000
0001
0000
,  // measure 38
1000
0000
0010
0000
,  // measure 39
0100
0000
0001
0000
,  // measure 40
1000
0100
0010
0001
,  // measure 41
2000
0000
0000
0000
,  // measure 42
3000
0000
0000
0000
,  // measure 43
0002
0000
0000
0000
,  // measure 44
0003
0000
0000
0000
,  // measure 45
0200
0000
0300
0000
,  // measure 46
0020
0000
0030
0000
,  // measure 47
2000
0000
3000
0000
,  // measure 48
0002
0000
0003
0000
,  // measure 49
0010
0100
0000
0100
,  // measure 50
0000
1000
0000
1000
,  // measure 51
0000
0001
0000
0001
,  // measure 52
0000
0100
0000
0100
,  // measure 53
0000
0010
0000
0010
,  // measure 54
0000
1000
0000
1000
,  // measure 55
0000
0001
0000
0001
,  // measure 56
0020
0000
0200
0330
,  // measure 57
1000
0000
0001
0000
,  // measure 58
1000
0100
0010
0000
,  // measure 59
0001
0000
1000
0000
,  // measure 60
0001
0100
0010
0000
,  // measure 61
1000
0000
0001
0000
,  // measure 62
1000
0010
0100
0000
,  // measure 63
0001
0000
1000
0000
,  // measure 64
0001
0010
0100
0000
,  // measure 65
2000
3000
0010
0100
,  // measure 66
0002
0003
1000
0000
,  // measure 67
0100
0000
0010
0000
,  // measure 68
0001
1000
0001
0000
,  // measure 69
0100
0000
0010
0000
,  // measure 70
1000
0000
0001
0000
,  // measure 71
0010
0000
0100
0000
,  // measure 72
1000
1000
1000
1000
,  // measure 73
0000
0010
0000
0010
,  // measure 74
0000
0100
0000
0100
,  // measure 75
0000
0001
0000
0001
,  // measure 76
0000
1000
0000
1000
,  // measure 77
0000
0100
0000
0100
,  // measure 78
0000
0010
0000
0010
,  // measure 79
0000
0001
0000
0001
,  // measure 80
0000
0000
0000
0000
,  // measure 81
2002
0000
0000
0000
0000
0000
0000
3003
;

//---------------dance-single - NAOKI----------------
#NOTES:
     dance-single:
     NAOKI:
     Easy:
     7:
     0.314,0.452,0.086,0.172,0.000: // measure 1
0000
0000
0000
0000
,  // measure 2
0000
0000
0000
0000
,  // measure 3
0000
0000
0000
0000
,  // measure 4
0000
0000
0000
0000
,  // measure 5
0010
0000
0000
0000
,  // measure 6
0100
0000
0000
0000
,  // measure 7
0001
0000
1000
0000
,  // measure 8
2002
0000
3003
0000
,  // measure 9
0010
0010
0100
0001
,  // measure 10
1000
0100
0010
0010
,  // measure 11
0001
0100
0010
0010
,  // measure 12
1000
0001
0010
0100
,  // measure 13
1000
0001
0100
0100
,  // measure 14
0010
1000
0100
0100
,  // measure 15
0010
0001
1000
0010
,  // measure 16
0100
0100
0001
1000
,  // measure 17
0200
0310
1001
1001
,  // measure 18
0100
0110
0010
1000
,  // measure 19
0001
0010
0100
0100
,  // measure 20
1000
0001
0100
0100
,  // measure 21
0010
1000
0001
0010
,  // measure 22
0100
1000
0001
0100
,  // measure 23
0020
0000
0130
0010
,  // measure 24
0000
1001
0000
0000
0100
0000
0100
0000
,  // measure 25
0010
0000
1000
0000
,  // measure 26
0001
0010
0001
0000
,  // measure 27
1000
0000
0010
0000
,  // measure 28
0100
0001
1000
0100
,  // measure 29
0010
0000
0001
0000
,  // measure 30
1000
0010
1000
0000
,  // measure 31
0001
0000
0010
0000
,  // measure 32
0100
1000
0001
0100
,  // measure 33
0020
0000
1030
1001
,  // measure 34
0001
0000
0010
0000
,  // measure 35
0001
0100
0001
0000
,  // measure 36
1000
0100
0010
0002
,  // measure 37
0103
0000
0010
0000
,  // measure 38
1000
0100
1000
0000
,  // measure 39
0001
0100
0010
1000
,  // measure 40
0001
0000
0000
0000
,  // measure 41
2000
0000
3000
0000
,  // measure 42
0002
0000
0003
0000
,  // measure 43
0200
0000
0300
0000
,  // measure 44
0020
0000
0030
0000
,  // measure 45
2000
0000
3000
0000
,  // measure 46
0002
0000
0003
0000
,  // measure 47
0020
0000
0030
0000
,  // measure 48
0200
0000
0300
0000
,  // measure 49
1000
0010
0000
0010
,  // measure 50
0100
0001
0000
0001
,  // measure 51
0010
0100
0000
0100
,  // measure 52
1000
0001
0100
0100
,  // measure 53
0001
0010
0000
0010
,  // measure 54
0100
1000
0000
1000
,  // measure 55
0010
0100
0000
0100
,  // measure 56
0002
0000
2000
3003
,  // measure 57
0010
0000
0100
0000
,  // measure 58
0001
1000
0100
0100
,  // measure 59
0010
0000
0100
0000
,  // measure 60
1000
0001
0100
0110
,  // measure 61
0010
0000
0100
0000
,  // measure 62
0001
1000
0100
0100
,  // measure 63
0010
0001
1000
0010
,  // measure 64
0100
0100
0001
1001
,  // measure 65
2000
3100
0010
0010
,  // measure 66
0002
0103
0010
0010
,  // measure 67
1000
0100
0001
0100
,  // measure 68
1000
1000
0001
0001
,  // measure 69
0100
0010
1000
0001
,  // measure 70
0010
0100
1000
0001
,  // measure 71
0100
0100
0010
0010
,  // measure 72
1000
0001
0010
0110
,  // measure 73
0100
1000
0000
0001
,  // measure 74
0100
0010
0000
0100
,  // measure 75
0001
0010
0000
0100
,  // measure 76
1000
0010
0100
0100
,  // measure 77
0001
0010
0000
0100
,  // measure 78
1000
0010
0000
0100
,  // measure 79
0001
1000
0000
0001
,  // measure 80
0010
0000
0100
0000
,  // measure 81
2002
0000
0000
0000
0000
0000
0000
3003
;

//---------------dance-single - NAOKI----------------
#NOTES:
     dance-single:
     NAOKI:
     Hard:
     14:
     0.764,0.835,0.387,0.473,0.365: // measure 1
0000
0000
0000
0000
,  // measure 2
0000
0000
0000
0000
,  // measure 3
0000
0000
0000
0000
,  // measure 4
0000
0000
0000
0000
,  // measure 5
1010
0010
0100
0001
,  // measure 6
0011
0010
0100
1000
,  // measure 7
1001
0010
0110
0100
,  // measure 8
2002
0000
3003
0000
,  // measure 9
0010
0100
0001
1000
0100
0010
0001
0001
,  // measure 10
0100
0000
0010
0000
1000
0000
0001
0010
0000
0100
0000
0010
0000
0000
0001
0000
,  // measure 11
0010
0100
1000
0001
0100
0010
1000
1000
,  // measure 12
0100
0000
0010
0000
0001
0000
1000
0010
0000
0100
0000
0001
0000
0000
0001
0000
,  // measure 13
0010
0100
1000
0001
0100
0010
1000
0001
,  // measure 14
0010
0000
0100
0000
1000
0000
0001
0100
0000
0010
0000
0100
0000
0000
1000
0000
,  // measure 15
0100
0010
1000
0001
0010
0100
1000
1000
,  // measure 16
0010
0000
0100
0000
0001
0000
1000
0100
0000
0010
0000
0100
0000
0000
0001
0000
,  // measure 17
0200
0310
1001
0110
,  // measure 18
0010
0000
1000
0001
0020
0000
0130
1000
0000
0001
0000
0100
0000
0000
0110
0000
,  // measure 19
0010
0000
1000
0000
0001
0000
0010
0100
0000
1000
0000
0001
0000
0000
0100
0000
,  // measure 20
0010
0000
1000
0000
0100
0000
0010
0001
0000
1000
0000
0010
0000
0000
0110
0000
,  // measure 21
0100
0000
0001
0000
1000
0000
0100
0010
0000
0001
0000
1000
0000
0000
0010
0000
,  // measure 22
0100
0000
0001
0000
0010
0000
0100
1000
0000
0001
0000
0100
0000
0000
0110
0000
,  // measure 23
0010
1000
0100
0010
0001
0002
1000
2000
,  // measure 24
3003
0220
0330
0000
0000
0000
0000
0000
,  // measure 25
2001
0000
0000
3200
0000
0000
0310
0000
0001
0000
1000
0000
0010
0000
0100
0000
,  // measure 26
1000
0000
0100
0000
0010
0000
1000
0001
1000
0000
0100
0000
0010
0000
0001
0000
,  // measure 27
1002
0000
0000
0203
0000
0000
0310
0000
1000
0000
0100
0000
0001
0000
0100
0000
,  // measure 28
0010
0001
0010
0100
1000
0000
0001
0000
0100
0000
0010
0000
0220
0000
0330
0000
,  // measure 29
1002
0000
0000
0023
0000
0000
0130
0000
1000
0000
0001
0000
0100
0000
0010
0000
,  // measure 30
0001
0000
0010
0000
0100
0000
0001
1000
0001
0000
0010
0000
0100
0000
1000
0000
,  // measure 31
2001
0000
0000
3020
0000
0000
0130
0000
0001
0000
0010
0000
1000
0000
0010
0000
,  // measure 32
0100
1000
0100
0010
0001
0000
1000
0000
0010
0000
0100
0000
0220
0000
0330
0000
,  // measure 33
0000
0000
0000
0000
0000
0000
0010
0100
0010
0000
0000
0000
1001
0000
0000
0000
,  // measure 34
1000
0010
0100
0100
0010
1000
0100
0010
,  // measure 35
0001
0000
0100
0010
0000
0100
0010
0000
1000
0000
0001
0000
0010
0000
0100
0000
,  // measure 36
1000
0001
0100
0010
1000
0000
0001
0000
0010
0000
0100
0000
0220
0000
0330
0000
,  // measure 37
0001
0010
0100
0100
0010
0001
0100
0010
,  // measure 38
1000
0000
0100
0010
0100
0000
1000
0000
0001
0000
0100
0000
0100
0000
0010
0000
,  // measure 39
1000
0000
0100
0010
0000
0100
0010
0000
0001
0000
1000
0000
0010
0000
0100
0000
,  // measure 40
0001
1000
0100
0010
0001
0000
0100
0000
0010
0000
1000
0000
2002
0000
3003
0000
,  // measure 41
0202
0000
0000
0000
,  // measure 42
0300
0000
0000
0000
,  // measure 43
2000
0000
0003
0000
,  // measure 44
0200
0000
3300
0000
,  // measure 45
0022
0030
0203
0000
,  // measure 46
2300
0000
0020
3030
,  // measure 47
0202
0300
0023
0000
,  // measure 48
2030
0000
0200
3300
,  // measure 49
2001
0000
3100
0000
0010
0001
1000
0000
,  // measure 50
1002
0000
0103
0000
0010
1000
0100
0000
,  // measure 51
1002
0000
0013
0000
0100
1000
0001
0000
,  // measure 52
2001
0000
3010
0000
0100
0001
0020
0000
,  // measure 53
0130
0000
0000
0100
0000
0000
0100
0000
0010
0000
0001
0000
1000
0000
0010
0000
,  // measure 54
0100
0001
0010
0000
0100
1000
0001
0100
,  // measure 55
0010
0000
0000
0010
0000
0000
0010
0000
1000
0000
0001
0000
0010
0000
0100
0000
,  // measure 56
1000
0001
0100
0010
1000
0100
0010
0000
,  // measure 57
0001
0000
0000
1100
0000
0000
0101
0000
0010
0000
1000
0000
0100
0000
0001
0000
,  // measure 58
0100
0000
0010
0000
0001
0000
1000
0010
0100
0000
0001
0000
0010
0000
0100
0000
,  // measure 59
1000
0000
0000
0011
0000
0000
1010
0000
0100
0000
0001
0000
1000
0000
0100
0000
,  // measure 60
0010
0001
1000
0010
0100
0000
0001
0000
1000
0000
0010
0000
0220
0000
0330
0000
,  // measure 61
1000
0000
0000
0101
0000
0000
1100
0000
0010
0000
0001
0000
0100
0000
1000
0000
,  // measure 62
0100
0000
0010
0000
1000
0000
0001
0010
0100
0000
1000
0000
0010
0000
0100
0000
,  // measure 63
0001
0000
0000
1010
0000
0000
0011
0000
0100
0000
1000
0000
0001
0000
0100
0000
,  // measure 64
0010
1000
0001
0010
0100
0000
1000
0000
0001
0000
0100
0000
0220
0000
0330
0000
,  // measure 65
0010
0100
0010
0100
0010
0000
1000
0000
1001
0000
0000
0000
0011
0000
0000
0000
,  // measure 66
0100
0000
1000
0001
0100
0000
0010
0000
1000
0000
0001
0000
0010
0000
0100
0000
,  // measure 67
2000
0000
3001
0200
0000
0310
1000
0000
0001
0000
0010
0000
0100
0000
1000
0000
,  // measure 68
0001
0100
0010
0100
0001
0000
1000
0000
0100
0000
0010
0000
0220
0000
0330
0000
,  // measure 69
0002
0000
1003
0020
0000
0130
0001
0000
1000
0000
0010
0000
0100
0000
0001
1000
,  // measure 70
0100
0000
0010
0000
0001
0000
0100
0010
1000
0000
0001
0010
0100
0000
1000
0000
,  // measure 71
0001
0000
0100
0010
0000
0100
0010
0000
1000
0000
0100
0000
0010
0000
0001
0000
,  // measure 72
1000
0010
0100
0010
1000
0000
0100
0000
0010
0000
0001
0000
2002
0000
3003
0000
,  // measure 73
1000
0001
0100
0010
1000
0100
0010
0001
,  // measure 74
1000
0000
0010
0000
0100
0000
0010
1000
0000
0001
0000
0010
0000
0000
1100
0000
,  // measure 75
0100
0010
0001
0100
0010
1000
0001
0010
,  // measure 76
0100
0000
1000
0000
0010
0000
0100
0001
0000
1000
0000
0100
0000
0000
1001
0000
,  // measure 77
0001
0010
0100
0010
0001
0100
0010
1000
,  // measure 78
0100
0000
0010
0000
0001
0000
1000
0010
0000
0100
0000
0001
0000
0000
0101
0000
,  // measure 79
0100
0010
1000
0100
0010
0001
1000
0010
,  // measure 80
0100
0001
0000
0010
0000
0100
0000
1000
,  // measure 81
1001
0010
0000
0010
0000
0100
0000
0100
;
