#VERSION:0.83;
#TITLE:Swift Swing;
#SUBTITLE:;
#ARTIST:Laur;
#TITLETRANSLIT:;
#SUBTITLETRANSLIT:;
#ARTISTTRANSLIT:;
#GENRE:;
#CREDIT:NAOKI;
#MUSIC:Laur - Swift Swing.ogg;
#BANNER:Swift-Swing-bn.png;
#BACKGROUND:Swift-Swing-bg.png;
#CDTITLE:naokicdtitle.png;
#SAMPLESTART:18.324;
#SAMPLELENGTH:12.800;
#SELECTABLE:YES;
#OFFSET:0.876;
#BPMS:0.000=150.000
,160.000=225.000
,161.000=150.000
,193.500=75.000
,194.000=150.000
,195.500=225.000
,196.250=75.000
,196.500=150.000
;
#STOPS:160.000=0.133;
#WARPS:193.000=0.500;
#SPEEDS:0.000=1.000=0.000=0,
176.000=0.000=0.000=0,
176.021=1.000=2.000=0,
185.000=1000.000=0.000=0,
185.063=1.000=0.000=0,
186.500=0.250=0.000=0,
186.521=1.000=0.500=0,
187.500=0.250=0.000=0,
187.521=1.000=0.500=0,
188.500=0.250=0.000=0,
188.521=1.000=0.500=0,
204.000=1000.000=0.000=0,
204.125=0.000=0.000=0,
204.250=1000.000=0.000=0,
204.375=0.000=0.000=0,
204.500=1000.000=0.000=0,
204.625=0.000=0.000=0,
204.750=1000.000=0.000=0,
204.875=0.000=0.000=0,
205.000=1000.000=0.000=0,
205.125=0.000=0.000=0,
205.250=1000.000=0.000=0,
205.375=0.000=0.000=0,
205.500=1000.000=0.000=0,
205.625=0.000=0.000=0,
205.750=1000.000=0.000=0,
205.875=0.000=0.000=0,
206.000=1000.000=0.000=0,
206.125=0.000=0.000=0,
206.250=1000.000=0.000=0,
206.375=0.000=0.000=0,
206.500=1000.000=0.000=0,
206.625=0.000=0.000=0,
206.750=1000.000=0.000=0,
206.875=0.000=0.000=0,
207.000=1.000=0.000=0
;
#SCROLLS:0.000=1.000,
200.000=100.000,
201.000=0.000,
202.000=-0.500,
202.042=-0.437,
202.083=-0.375,
202.125=-0.312,
202.167=-0.250,
202.208=-0.187,
202.250=-0.125,
202.292=-0.062,
202.333=0.000,
202.375=0.063,
202.417=0.125,
202.458=0.188,
202.500=0.250,
202.542=0.313,
202.583=0.375,
202.625=0.438,
202.667=0.500,
202.708=0.563,
202.750=0.625,
202.792=0.688,
202.833=0.750,
202.875=0.813,
202.917=0.875,
202.958=0.938,
203.000=1.000
;
#DISPLAYBPM:150.000;
#BGCHANGES:;
#FGCHANGES:;

//--------------- dance-single - No Bracket ----------------
#NOTEDATA:;
#STEPSTYPE:dance-single;
#DESCRIPTION:No Bracket;
#DIFFICULTY:Hard;
#METER:13;
#RADARVALUES:0,0,0,0,0;
#NOTES:
0000
0000
0000
0000
,
1000
0000
0001
1000
0000
0001
0000
1000
0001
0000
1000
0000
0001
1000
0000
0000
,
1000
0000
0000
0001
0000
0000
0000
0000
0000
0000
0000
0000
2002
0000
0000
0000
0000
0000
0000
0000
0000
0000
0000
0000
0000
0000
0000
0000
0000
0000
3003
0000
0400
0000
0000
0000
0000
0000
0000
0000
0000
0000
0000
0000
0000
0000
0000
0000
,
0000
0000
0000
0300
,
2000
0000
0000
0010
0000
0000
3001
0000
0000
0010
0000
0100
0000
0000
1000
0001
0000
0000
0100
0000
0010
1000
0000
0000
,
0002
0000
0000
0000
0000
0000
0010
0000
0000
0000
0000
0000
1003
0000
0000
0000
0000
0000
0010
0000
0000
0000
0100
0000
0000
0000
0000
0000
0001
0000
1000
0000
0000
0000
0000
0000
0100
0000
0000
00M0
0000
0000
0100
0000
0000
0000
0000
0000
,
0002
0000
0000
0100
0000
0000
1003
0000
0000
0100
0000
0010
0000
0000
0001
0100
0000
0000
0010
0000
1000
0100
0000
0000
,
0020
0000
0030
0100
0000
1000
0001
0000
0000
0100
0000
0010
0000
0000
1000
0100
0000
0000
1000
0000
0001
0100
0000
0000
,
0020
0000
0000
1030
0000
0000
0001
0000
0000
0010
0000
0100
1000
0000
0001
0100
0000
0000
0010
0000
1000
0100
0000
0000
,
0020
0000
0000
0031
0000
0000
1000
0000
0000
0010
0000
0100
0001
0000
1000
0100
0000
0000
0011
0000
0000
1010
0000
0000
,
0200
0000
0000
0301
0000
0000
1000
0000
1000
0000
1000
0000
0001
0000
0001
0100
0001
1000
0400
0000
0000
0300
0000
0000
,
1001
0000
0000
0000
0000
0000
1000
0010
0100
0001
0010
0100
,
1000
0000
0010
0100
0000
0010
1000
0000
0001
0010
0000
0010
0100
0000
1000
0001
0000
0100
0010
0000
0000
2000
0000
0000
,
3001
0000
0010
0100
0000
0010
0001
0000
1000
0010
0000
0010
0100
0000
0000
0101
0000
0000
1100
0000
0001
0100
0000
0001
,
1000
0000
0100
0010
0000
0100
1000
0000
0001
0100
0000
0010
0001
0000
0010
0100
0000
0001
1000
0000
0000
0200
0000
0300
,
0010
0001
1000
0010
1000
0001
0010
0001
0100
0001
1000
0100
1000
0000
0001
0000
0000
0100
0010
1000
0001
1000
0100
1000
,
0001
0000
0100
0010
0000
0100
0001
0000
1000
0100
0000
0010
0001
0000
0001
1000
0000
0010
0100
0000
0000
0002
0000
0000
,
1003
0000
0100
0010
0000
0100
1000
0000
1000
0001
0000
0100
0010
0000
0000
1010
0000
0000
0011
0000
1000
0010
0000
1000
,
0001
0000
0010
0100
0000
0010
0001
0000
1000
0010
0000
0100
1000
0000
0100
0010
0000
0010
1000
0000
0000
0002
0000
0003
,
1100
0000
0000
0101
0000
0000
1010
0000
0000
0000
2002
0000
0000
0000
0000
0000
0000
0000
3003
0000
0000
0000
0000
0000
,
1000
0000
0000
0001
0000
0000
0000
0000
0000
0000
0000
0000
0000
0000
0000
0000
0000
0000
0000
0000
0000
0000
0000
0000
0100
0000
0000
0000
0000
0000
0000
0000
0000
0000
0000
0000
0000
0000
0000
0000
0000
0000
0000
0000
0000
0000
0000
0000
0010
0000
0000
0000
0000
0000
0000
0000
0000
0000
0000
0000
0000
0000
0000
0000
1000
0000
0000
0000
0000
0000
0000
0000
0100
0000
0000
0000
0000
0000
0000
0000
0000
0000
0000
0000
0000
0000
0000
0000
0000
0000
0000
0000
0000
0000
0000
0000
0010
0000
0000
0000
0000
0000
0000
0000
0000
0000
0000
0000
0000
0000
0000
0000
0001
0000
0000
0000
0000
0000
0000
0000
0100
0000
0000
0000
0000
0000
0000
0000
0000
0000
0000
0000
0000
0000
0000
0000
0001
0000
0000
0000
0000
0000
0000
0000
1000
0000
0000
0000
0000
0000
0000
0000
0100
0000
0000
0000
0000
0000
0000
0000
0010
0000
0000
0000
0000
0000
0000
0000
0001
0000
0000
0000
0000
0000
0000
0000
0000
0000
0000
0000
0000
0000
0000
0000
0100
0000
0000
0000
0000
0000
0000
0000
,
0010
0000
1000
0001
0000
0010
0100
1000
0001
0100
0000
0001
1000
0100
1000
0001
0100
0001
1000
0000
0100
0000
0010
0000
,
0001
0000
0001
0100
00M0
0100
1000
0000
1000
0010
0M00
0010
0002
0000
1003
0010
0M00
0010
0001
0000
0001
0100
00M0
0100
,
2000
0000
0000
3000
0001
1000
0010
0000
0100
0000
0000
0010
1000
0000
0001
0020
0000
0000
0130
0000
0000
1000
0000
0001
,
0200
0000
0000
0000
0000
0000
0300
0000
0000
0010
0000
0000
0010
0000
0000
0000
0000
0000
1001
0000
0000
0000
0000
0000
0001
0000
0100
0000
0010
0000
1000
0000
0000
0000
0000
0000
0100
0000
0000
00M0
0000
0000
0100
0000
0000
0000
0000
0000
,
0001
0000
0000
1000
0000
0100
0010
0000
0000
1001
0000
0000
0001
0100
0010
1000
0001
0010
0001
1000
0010
1000
0001
1000
,
0200
0000
0000
0310
0000
0000
0001
0000
0001
0000
0100
00M0
0100
0000
1000
0000
1000
0000
0001
0100
0010
1000
0001
0000
,
0010
0000
0010
0000
0010
0000
0000
0000
0100
0000
0100
0000
0100
0000
0000
1000
0000
0000
1001
0000
0000
0001
0100
0010
,
1000
0000
0001
0010
0000
0001
1000
0000
0010
0100
0000
0010
1000
0000
0001
1000
0000
0200
0000
0000
0300
0020
0000
0000
,
0030
0000
0000
0000
0100
0000
1000
0000
0000
0000
0001
0000
0100
0000
0000
0000
0001
0000
1000
0000
0000
0000
0001
0000
0010
0000
0000
0M00
0000
0000
0010
0000
0000
0000
0000
0000
1000
0000
0000
0000
0001
0000
0010
0000
0000
0000
0100
0000
,
0000
0000
1000
0010
0000
1000
0001
0000
0010
0100
0000
0010
0001
0000
1000
0001
0000
0200
0000
0000
0300
0020
0000
0030
,
1000
0100
1000
0001
0100
0010
1000
0001
1000
0100
0000
0010
0001
0000
1000
0010
0000
0400
0000
0000
0000
0000
0300
0000
,
0001
0000
1000
0100
0000
1000
0001
0000
0100
0001
0000
2000
0100
3000
0001
0100
0000
0001
1000
0000
0100
1000
0000
0002
,
0100
0003
2000
0100
3000
0002
0100
0003
2000
0100
3000
0002
0100
0003
2000
0100
3000
0002
0100
0003
1000
0100
0000
0010
,
1000
0000
0010
0001
0000
0010
1000
0000
0010
0001
0000
1000
0010
0100
0001
1000
0010
0100
0004
4000
0000
0000
0003
3000
,
0200
0000
0300
0000
2000
0000
3000
0000
0002
0000
0003
0000
0200
0000
0300
0000
0020
0000
0000
0000
0000
0030
0000
0000
,
2010
0000
3002
0000
0013
0100
1000
0001
0100
0000
0010
1000
0100
1000
0001
0100
,
0001
0000
1000
0000
0100
0000
0010
0000
0002
0000
0000
0000
0103
00M0
0100
0000
1000
0000
0001
0000
0100
0000
0010
0000
1000
0000
0000
0000
0012
0000
0000
0000
,
0203
0000
0000
0000
0000
0000
0000
0000
0000
0000
0000
0000
0310
0000
0000
0000
1000
0000
0000
0000
0010
0000
0000
0000
1000
0000
0000
0000
0000
0000
0000
0000
0000
0000
0000
0000
0001
0000
0000
0000
0000
0000
0000
0000
0000
0000
0000
0000
1000
0000
0000
0000
0000
0000
0100
0000
0000
0000
0000
0000
0010
0000
0000
0000
0000
0000
0001
0000
0000
0000
0000
0000
2000
0000
0000
0000
0000
0000
0000
0000
0000
0000
0000
0000
3010
0000
0000
0M00
0000
0000
0010
0000
0000
0000
0000
0000
,
0001
0000
0000
0000
0000
0000
0100
0000
0000
0000
0000
0000
0010
0000
0000
1000
0000
0000
0001
0000
0000
0010
0000
0000
0200
0000
0000
0300
0000
0000
0200
0000
0000
0300
0000
0000
0010
0000
0000
0000
0001
0000
1000
0000
0000
0010
0000
0000
,
0100
M00M
0000
0000
1002
0000
0103
0000
0010
0100
0001
2000
0100
3000
0002
0000
,
0103
0000
0000
0000
0010
0000
1000
0000
0001
0000
0010
0000
0100
0000
1000
0000
0002
0000
0000
0000
0103
00M0
0100
0000
1000
0000
0001
0000
0100
0000
0010
0000
,
2000
0000
0000
0000
0000
0000
3001
0000
0010
0000
0001
0000
0010
0000
0000
0000
0000
0000
0100
0000
0000
0000
0000
0000
1000
0000
0000
0010
0000
0000
1000
0000
0000
0001
0000
0000
0010
0000
0000
0001
0000
0000
1000
0000
0000
0010
0000
0000
,
0200
0300
0002
0003
2000
3000
0200
0300
0020
0000
0000
0030
,
2001
0000
0000
0000
0000
0000
0000
0000
3001
0100
0010
0001
0010
1000
0100
1000
,
0010
0100
1000
0100
0010
1000
0100
0010
1000
0010
0001
1000
0010
0100
0001
1000
,
0200
0000
0000
0000
0000
0000
0000
0000
0010
0000
0000
0000
0000
0000
0000
0300
2002
3003
0000
0000
0000
0000
0000
0000
0000
0000
0000
0000
0000
0000
0000
0000
1000
0000
0000
0000
0001
0000
0010
0000
0001
0000
0000
0000
0000
0000
0000
0000
1000
0000
0000
0000
0001
0000
0100
0000
0001
0000
0000
0000
0000
0000
0000
0000
,
1000
0000
0000
0000
0000
0000
0001
0000
0000
0010
0000
0000
0001
0000
0000
0000
0000
0000
0000
0000
0000
0000
0000
0000
1000
0000
0000
0000
0010
0000
0000
0000
0100
0000
0000
0000
0001
0000
0000
0000
0100
0000
0000
0000
0010
0000
0000
0000
2000
0000
0000
0000
0000
0000
3000
0000
0000
0000
0000
0000
0002
0000
0000
0000
0000
0000
0003
0000
0000
0000
0000
0000
0010
0000
0000
0000
0000
0000
0100
0000
0000
0000
0000
0000
0010
0000
0000
0000
0000
0000
0100
0000
0000
0000
0000
0000
,
2000
0000
3001
0000
0110
0000
M00M
0000
1001
0000
1000
0000
0001
0100
0020
0000
,
0000
0000
0000
0000
0000
0000
0030
0000
0000
0000
0000
0000
0100
0000
0000
0000
0000
0000
0000
0000
0000
0000
0000
0000
0001
0000
0000
0000
0000
0000
0000
0000
0000
0000
0000
0000
1000
0000
0100
0000
0000
0000
1000
0000
0000
0100
0000
0000
1000
0000
0000
0000
0000
0000
0001
0000
0000
0000
0000
0000
2000
0000
0000
0000
0000
0000
0000
0000
0000
0000
0000
0000
3010
0000
0000
0000
0000
0000
0M00
0000
0000
0000
0000
0000
0010
0000
0000
0000
0000
0000
0000
0000
0000
0000
0000
0000
,
0001
0000
0000
0000
0000
0000
0000
0000
0000
0000
0000
0000
0000
0000
0000
0000
0000
0000
1000
0001
0100
0000
0000
0000
,
2002
0000
0000
3003
,
0001
0000
0000
0000
0000
0000
0000
0000
0000
0000
0000
0000
0100
0000
0000
0000
0000
0000
0000
0000
0010
0000
0000
0000
1000
0000
0000
0000
0000
0000
0000
0000
0000
0000
0000
0000
0001
0000
0000
0000
0010
0000
0000
0000
0001
0000
0000
0000
1000
0000
0000
0000
0000
0000
0000
0000
0010
0000
0000
0000
0000
0000
0000
0000
0100
0000
0000
0000
0001
0000
0000
0000
0000
0000
0000
0000
0000
0000
0000
0000
0000
0000
0000
0000
1000
0100
0000
0000
0000
0000
0000
0000
0000
0000
0000
0000
,
0010
0001
0000
0000
0000
0000
0000
0000
0000
0000
0000
0000
0000
0000
0000
0000
1000
0010
0000
0000
0000
0000
0000
0000
0100
0000
0000
0000
0000
0000
0000
0000
0001
0000
0000
0000
1000
0000
0000
0000
0000
0000
0000
0000
0001
0000
0000
0000
0010
0000
0000
0000
0000
0000
0000
0000
0100
0000
0000
0000
1000
0000
0000
0000
0000
0000
0000
0000
0000
0000
0000
0000
0010
0000
0000
0000
0000
0000
0000
0000
0100
0000
0000
0000
0001
0000
0000
0000
0000
0000
0000
0000
0000
0000
0000
0000
,
1000
0000
0000
0100
0000
0000
0010
0000
0000
0001
0000
0000
0100
0000
0010
0000
1000
0100
0000
0000
0000
0010
0000
0001
,
1000
0000
0000
0000
0000
0000
0000
0000
0000
0000
0000
0000
0000
0000
0000
0000
0000
0000
0000
0000
0000
0000
0000
0010
0000
0000
0000
0000
0000
0000
0000
0000
0000
0000
0000
0000
0000
0000
0000
0000
0000
0000
0000
0000
0000
0000
0000
0000
0100
0000
0000
0000
0000
0000
0000
0000
0000
0000
0000
0000
0000
0000
0000
0000
0000
0000
0000
0000
0000
0000
0000
0000
0001
0000
0000
0000
0000
0000
0000
0000
0000
0000
0000
0000
0000
0000
0000
0000
0000
0000
0000
0000
0000
0000
0000
0000
1000
0000
0000
0000
0000
0000
0000
0000
0000
0000
0000
0000
0000
0000
0000
0000
0100
0000
0000
0000
0000
0000
0000
0000
0010
0000
0000
0000
0000
0000
0000
0000
0000
0000
0000
0000
0000
0000
0000
0000
0000
0000
0000
0000
0000
0000
0000
0000
0001
0000
0000
0000
0000
0000
0000
0000
0000
0000
0000
0000
0000
0000
0000
0000
0000
0000
0000
0000
0000
0000
0000
0000
0100
0000
0000
0000
0000
0000
0000
0000
0000
0000
0000
0000
0000
0000
0000
0000
0010
0000
0000
0000
0000
0000
0000
0000
,
1000
0000
0000
0000
0000
0000
0000
0000
0000
0000
0000
0000
0100
0000
0000
0000
0000
0000
0000
0000
0010
0000
0000
0000
0001
0000
0000
0000
0000
0000
0000
0000
0000
0000
0000
0000
1000
0000
0000
0000
0010
0000
0000
0000
1000
0000
0000
0000
0001
0000
0000
0000
0000
0000
0000
0000
0010
0000
0000
0000
0000
0000
0000
0000
0100
0000
0000
0000
1000
0000
0000
0000
0000
0000
0000
0000
0000
0000
0000
0000
0000
0000
0000
0000
0001
0100
0000
0000
0000
0000
0000
0000
0000
0000
0000
0000
,
0010
1000
0000
0000
0000
0000
0000
0000
0000
0000
0000
0000
0000
0000
0000
0000
0001
0010
0000
0000
0000
0000
0000
0000
0100
0000
0000
0000
0000
0000
0000
0000
1000
0000
0000
0000
0001
0000
0000
0000
0000
0000
0000
0000
1000
0000
0000
0000
0010
0000
0000
0000
0000
0000
0000
0000
0100
0000
0000
0000
0001
0000
0000
0000
0000
0000
0000
0000
0000
0000
0000
0000
0010
0000
0000
0000
0000
0000
0000
0000
0100
0000
0000
0000
1000
0000
0000
0000
0000
0000
0000
0000
0000
0000
0000
0000
,
0001
0000
0000
0100
0000
0000
0010
0000
0000
1000
0000
0000
0100
0000
0010
0000
0000
0000
0001
0000
0100
0000
0010
0000
,
1000
0000
1000
0000
1000
0000
1000
0000
1000
0000
1000
0000
0001
0000
0001
0000
0001
0000
0004
0000
0000
0003
0000
0000
,
2000
3000
0200
0300
0020
0030
0002
0003
2000
0000
3000
0020
0100
0030
2000
3000
,
0002
0000
0000
0000
0000
0000
0003
0000
0000
0020
0000
0000
0100
0000
0000
0030
0000
0000
0001
0000
0000
0000
0000
0000
0100
0000
0000
0000
0000
0000
0100
0000
0000
0000
0000
0000
0010
0000
0000
0000
1000
0000
0001
0000
0000
0000
0000
0000
,
2000
0000
0000
3000
0000
0000
0200
0000
0000
0300
0000
0000
0020
0000
0000
0030
0000
0000
0002
0000
0000
0003
0000
0000
2000
0000
0000
0000
0000
0000
3000
0000
0000
0020
0000
0000
0100
0000
0000
0030
0000
0000
1000
0000
0000
0000
0001
0000
,
2000
0000
0000
0000
0000
0000
0000
0000
0000
0000
0000
0000
0000
0000
0000
0000
0000
0000
0000
0000
0000
0000
0000
0000
0020
0000
0000
0030
0000
0000
0000
0000
0000
0000
0000
0000
0000
0000
0000
0000
0000
0000
0000
0000
0000
0000
0000
0000
0002
0000
0000
0003
0000
0000
0000
0000
0000
0000
0000
0000
0000
0000
0000
0000
0000
0000
0000
0000
0000
0000
0000
0000
3200
0000
0000
0300
0000
0000
0000
0000
0000
0000
0000
0000
0000
0000
0000
0000
0000
0000
0000
0000
0000
0000
0000
0000
0020
0000
0000
0000
0000
0000
0000
0000
0000
0000
0000
0000
0000
0000
0000
0000
0000
0000
0000
0000
0000
0000
0000
0000
0031
0000
0000
0000
0000
0000
0000
0000
0000
0000
0000
0000
0000
0000
0000
0000
0000
0000
0000
0000
0000
0000
0000
0000
1000
0000
0000
0000
0000
0000
0000
0000
0000
0000
0000
0000
0000
0000
0000
0000
0000
0000
0000
0000
0000
0000
0000
0000
0010
0000
0000
0000
0000
0000
0000
0000
0000
0000
0000
0000
0000
0000
0000
0000
0100
0000
0000
0000
0000
0000
0000
0000
,
0001
0000
0000
0001
0000
0000
0010
0000
0000
0010
0000
0100
1000
0000
0000
1000
0000
0000
0010
0000
0000
0010
0000
0100
,
0001
0000
0000
0001
0000
0000
1000
0000
0000
1000
0000
0100
0010
0000
0000
0010
0000
0001
1000
0000
0000
1000
0000
0010
,
0100
0000
0010
1000
0000
0001
0010
0000
0100
0010
0000
0001
1000
0010
0100
0001
1000
0100
0020
0000
0000
0000
0030
0000
,
0001
0000
0001
0000
0001
0000
0000
0000
1000
0000
1000
0000
1000
0000
0000
0010
0000
0000
0110
0000
0000
2000
3000
0000
,
0001
0000
0000
0001
0000
0000
0010
0000
0000
0000
0000
0000
0200
0000
0000
0000
0000
0000
1300
0000
0000
0000
0001
0000
0000
0000
0000
0000
0200
0000
0010
0000
0000
0000
0300
0000
0001
0000
0000
0000
1000
0000
0100
0000
0000
0000
0000
0000
,
1000
0000
0000
1000
0000
0000
0010
0000
0000
0000
0000
0000
0200
0000
0000
0000
0000
0000
0300
0000
0000
0000
0001
0000
0000
0000
0000
0000
1000
0000
0100
0000
0000
0000
0000
0000
0010
0000
0000
0000
0001
0000
1000
0000
0000
0000
0000
0000
,
0010
0000
0000
0010
0000
0000
0100
0000
0000
0000
0000
0000
0002
0000
0000
0000
0000
0000
1003
0000
0000
0000
0100
0000
0000
0000
0000
0000
0020
0000
0100
0000
0000
0000
0030
0000
0001
0000
0000
0000
1000
0000
0010
0000
0000
0000
0000
0000
,
0100
0000
0000
0010
0000
0000
1000
0000
0000
0000
0000
0000
0100
0000
0000
0000
0000
0000
0010
0000
0000
0000
0001
0000
1000
0000
0000
0000
0000
0000
0010
0000
0000
0000
0200
0000
0000
0000
0000
0000
0000
0000
0300
0000
0000
0000
0000
0000
,
0020
0000
0000
0030
0000
0000
0000
0000
0000
0000
0000
0000
0000
0000
0000
0000
1000
0000
0000
0000
0000
0000
0000
0000
0001
0000
0000
0000
0000
0000
0000
0000
0000
0000
0000
0000
0000
0000
0000
0000
0000
0000
0000
0000
0000
0000
0000
0000
0020
0000
0000
0030
0000
0000
0000
0000
0000
0000
0000
0000
0000
0000
0000
0000
0000
0000
0000
0000
0000
0000
0000
0000
0100
0000
0000
0000
0000
0000
0000
0000
0000
0000
0000
0000
0000
0000
0000
0000
1000
0000
0000
0000
0000
0000
0000
0000
0002
0000
0000
0003
0000
0000
0000
0000
0000
0000
0000
0000
0000
0000
0000
0000
0100
0000
0000
0000
0000
0000
0000
0000
0010
0000
0000
0000
0000
0000
0000
0000
0000
0000
0000
0000
0000
0000
0000
0000
0000
0000
0000
0000
0000
0000
0000
0000
2000
0000
0000
3000
0000
0000
0000
0000
0000
0000
0000
0000
0000
0000
0000
0000
0200
0000
0000
0000
0000
0000
0000
0000
0010
0000
0000
0000
0000
0000
0000
0000
0000
0000
0000
0000
0000
0000
0000
0000
0300
0000
0000
0000
0000
0000
0000
0000
,
2000
0000
0000
3000
0000
0000
0000
0000
0000
0000
0000
0000
0000
0000
0000
0000
0002
0000
0000
0000
0000
0000
0000
0000
0100
0000
0000
0000
0000
0000
0000
0000
0003
0000
0000
0000
0000
0000
0000
0000
2000
0000
0000
0000
0000
0000
0000
0000
0100
0000
0000
0000
0000
0000
0000
0000
3000
0000
0000
0000
0000
0000
0000
0000
0002
0000
0000
0000
0000
0000
0000
0000
0100
0000
0000
0000
0000
0000
0000
0000
0003
0000
0000
0000
0000
0000
0000
0000
2000
0000
0000
0000
0000
0000
0000
0000
0100
0000
0000
0000
0000
0000
0000
0000
3000
0000
0000
0000
0000
0000
0000
0000
0002
0000
0000
0000
0000
0000
0000
0000
0100
0000
0000
0000
0000
0000
0000
0000
0003
0000
0000
0000
0000
0000
0000
0000
2000
0000
0000
0000
0000
0000
0000
0000
0100
0000
0000
0000
0000
0000
0000
0000
3000
0000
0000
0000
0000
0000
0000
0000
0001
0000
0000
0000
0000
0000
0000
0000
0100
0000
0000
0000
0000
0000
0000
0000
0000
0000
0000
0000
0000
0000
0000
0000
0010
0000
0000
0000
0000
0000
0000
0000
,
0001
0000
0010
1000
0000
0010
0001
0000
0010
1000
0000
0001
0010
0001
1000
0010
0100
0001
1000
0100
0010
0001
1000
0010
,
0200
0000
0000
0300
0000
0000
0002
0000
0000
0003
0000
0000
2000
0000
0000
0000
3000
0000
0000
0000
0240
0000
0000
0000
0000
0000
0000
0000
0030
0000
0000
0000
0000
0000
0000
0000
0300
0000
0000
0000
0000
0000
0000
0000
0000
0000
0000
0000
;

//--------------- dance-single - XMOD FS BR XO JA JH DS RH BU- ----------------
#NOTEDATA:;
#STEPSTYPE:dance-single;
#DESCRIPTION:XMOD FS BR XO JA JH DS RH BU-;
#DIFFICULTY:Challenge;
#METER:13;
#RADARVALUES:0,0,0,0,0;
#NOTES:
0000
0000
0000
0000
,
2000
3000
0000
0000
0000
0000
0000
0000
0011
0000
0000
0000
1100
0000
0000
0000
0000
0000
0000
0000
0011
0000
0000
0000
0000
0000
0000
0000
1100
0000
0000
0000
0011
0000
0000
0000
0000
0000
0000
0000
1100
0000
0000
0000
0000
0000
0000
0000
0011
0000
0000
0000
1100
0000
0000
0000
0000
0000
0000
0000
0000
0000
0000
0000
,
1000
0000
0000
0001
0000
0000
0000
0000
0000
0000
0000
0000
2002
0000
0000
0000
0000
0000
0000
0000
0000
0000
0000
0000
0000
0000
0000
0000
0000
0000
3003
0000
0400
0000
0000
0000
0000
0000
0000
0000
0000
0000
0000
0000
0000
0000
0000
0000
,
0000
0000
0000
0300
,
2000
0000
0000
0010
0000
0000
3001
0000
0000
0010
0000
0100
0000
0000
1000
0001
0000
0000
0100
0000
0010
1000
0000
0000
,
0002
0000
0000
0000
0000
0000
0010
0000
0000
0000
0000
0000
1003
0000
0000
0000
0000
0000
0010
0000
0000
0000
0100
0000
0000
0000
0000
0000
0001
0000
1000
0000
0000
0000
0000
0000
0100
0000
0000
00M0
0000
0000
0100
0000
0000
0000
0000
0000
,
0002
0000
0000
0100
0000
0000
1003
0000
0000
0100
0000
0010
0000
0000
0001
0100
0000
0000
0010
0000
1000
0100
0000
0000
,
0020
0000
0030
0100
0000
1000
0001
0000
0000
0100
0000
0010
0000
0000
1000
0100
0000
0000
1000
0000
0001
0100
0000
0000
,
0020
0000
0000
1030
0000
0000
0001
0000
0000
0010
0000
0100
1000
0000
0001
0100
0000
0000
0010
0000
1000
0100
0000
0000
,
0020
0000
0000
0031
0000
0000
1000
0000
0000
0010
0000
0100
0001
0000
1000
0100
0000
0000
0011
0000
0000
1010
0000
0000
,
0200
0000
0000
0301
0000
0000
1000
0000
1000
0000
1000
0000
0001
0000
0001
0100
0001
1000
0400
0000
0000
0300
0000
0000
,
1001
0000
0000
0000
0000
0000
1000
0010
0100
0001
0010
0100
,
1000
0000
0010
0100
0000
0010
1000
0000
0001
0010
0000
0010
0100
0000
1000
0001
0000
0100
0010
0000
0000
2000
0000
0000
,
3001
0000
0010
0100
0000
0010
0001
0000
1000
0010
0000
0010
0100
0000
0000
0101
0000
0000
1100
0000
0001
0100
0000
0001
,
1000
0000
0100
0010
0000
0100
1000
0000
0001
0100
0000
0010
0001
0000
0010
0100
0000
0001
1000
0000
0000
0200
0000
0300
,
0010
0001
1000
0010
1000
0001
0010
0001
0100
0001
1000
0100
1000
0000
0001
0000
0000
0100
0010
1000
0001
1000
0100
1000
,
0001
0000
0100
0010
0000
0100
0001
0000
1000
0100
0000
0010
0001
0000
0001
1000
0000
0010
0100
0000
0000
0002
0000
0000
,
1003
0000
0100
0010
0000
0100
1000
0000
1000
0001
0000
0100
0010
0000
0000
1010
0000
0000
0011
0000
1000
0010
0000
1000
,
0001
0000
0010
0100
0000
0010
0001
0000
1000
0010
0000
0100
1000
0000
0100
0010
0000
0010
1000
0000
0000
0002
0000
0003
,
1100
0000
0000
0101
0000
0000
1010
0000
0000
0000
2002
0000
0000
0000
0000
0000
0000
0000
3003
0000
0000
0000
0000
0000
,
1000
0000
0000
0001
0000
0000
0000
0000
0000
0000
0000
0000
0000
0000
0000
0000
0000
0000
0000
0000
0000
0000
0000
0000
0100
0000
0000
0000
0000
0000
0000
0000
0000
0000
0000
0000
0000
0000
0000
0000
0000
0000
0000
0000
0000
0000
0000
0000
0010
0000
0000
0000
0000
0000
0000
0000
0000
0000
0000
0000
0000
0000
0000
0000
1000
0000
0000
0000
0000
0000
0000
0000
0100
0000
0000
0000
0000
0000
0000
0000
0000
0000
0000
0000
0000
0000
0000
0000
0000
0000
0000
0000
0000
0000
0000
0000
0010
0000
0000
0000
0000
0000
0000
0000
0000
0000
0000
0000
0000
0000
0000
0000
0001
0000
0000
0000
0000
0000
0000
0000
0100
0000
0000
0000
0000
0000
0000
0000
0000
0000
0000
0000
0000
0000
0000
0000
0001
0000
0000
0000
0000
0000
0000
0000
1000
0000
0000
0000
0000
0000
0000
0000
0100
0000
0000
0000
0000
0000
0000
0000
0010
0000
0000
0000
0000
0000
0000
0000
0001
0000
0000
0000
0000
0000
0000
0000
0000
0000
0000
0000
0000
0000
0000
0000
0100
0000
0000
0000
0000
0000
0000
0000
,
0010
0000
1000
0001
0000
0010
0100
1000
0001
0100
0000
0001
1000
0100
1000
0001
0100
0001
1000
0000
0100
0000
0010
0000
,
0001
0000
0001
0100
00M0
0100
1000
0000
1000
0010
0M00
0010
0002
0000
1003
0010
0M00
0010
0001
0000
0001
0100
00M0
0100
,
2000
0000
0000
3000
0001
1000
0010
0000
0100
0000
0000
0010
1000
0000
0001
0020
0000
0000
0130
0000
0000
1000
0000
0001
,
0200
0000
0000
0000
0000
0000
0300
0000
0000
0010
0000
0000
0010
0000
0000
0000
0000
0000
1001
0000
0000
0000
0000
0000
0001
0000
0100
0000
0010
0000
1000
0000
0000
0000
0000
0000
0100
0000
0000
00M0
0000
0000
0100
0000
0000
0000
0000
0000
,
0001
0000
0000
1000
0000
0100
0010
0000
0000
1001
0000
0000
0001
0100
0010
1000
0001
0010
0001
1000
0010
1000
0001
1000
,
0200
0000
0000
0310
0000
0000
0001
0000
0001
0000
0100
00M0
0100
0000
1000
0000
1000
0000
0001
0100
0010
1000
0001
0000
,
0010
0000
0010
0000
0010
0000
0000
0000
0100
0000
0100
0000
0100
0000
0000
1000
0000
0000
1001
0000
0000
0001
0100
0010
,
1000
0000
0001
0010
0000
0001
1000
0000
0010
0100
0000
0010
1000
0000
0001
1000
0000
0200
0000
0000
0300
0020
0000
0000
,
0030
0000
0000
0000
0100
0000
1000
0000
0000
0000
0001
0000
0100
0000
0000
0000
0001
0000
1000
0000
0000
0000
0001
0000
0010
0000
0000
0M00
0000
0000
0010
0000
0000
0000
0000
0000
1000
0000
0000
0000
0001
0000
0010
0000
0000
0000
0100
0000
,
0000
0000
1000
0010
0000
1000
0001
0000
0010
0100
0000
0010
0001
0000
1000
0001
0000
0200
0000
0000
0300
0020
0000
0030
,
1000
0100
1000
0001
0100
0010
1000
0001
1000
0100
0000
0010
0001
0000
1000
0010
0000
0400
0000
0000
0000
0000
0300
0000
,
0001
0000
1000
0100
0000
1000
0001
0000
0100
0001
0000
2000
0100
3000
0001
0100
0000
0001
1000
0000
0100
1000
0000
0002
,
0100
0003
2000
0100
3000
0002
0100
0003
2000
0100
3000
0002
0100
0003
2000
0100
3000
0002
0100
0003
1000
0100
0000
0010
,
1000
0000
0010
0001
0000
0010
1000
0000
0010
0001
0000
1000
0010
0100
0001
1000
0010
0100
0004
4000
0000
0000
0003
3000
,
0200
0000
0300
0000
2000
0000
3000
0000
0002
0000
0003
0000
0200
0000
0300
0000
0020
0000
0000
0000
0000
0030
0000
0000
,
2010
0000
3002
0000
0013
0100
1000
0001
0100
0000
0010
1000
0100
1000
0001
0100
,
0001
0000
1000
0000
0100
0000
0010
0000
0002
0000
0000
0000
0103
00M0
0100
0000
1000
0000
0001
0000
0100
0000
0010
0000
1000
0000
0000
0000
0012
0000
0000
0000
,
0203
0000
0000
0000
0000
0000
0000
0000
0000
0000
0000
0000
0310
0000
0000
0000
1000
0000
0000
0000
0010
0000
0000
0000
1000
0000
0000
0000
0000
0000
0000
0000
0000
0000
0000
0000
0001
0000
0000
0000
0000
0000
0000
0000
0000
0000
0000
0000
1000
0000
0000
0000
0000
0000
0100
0000
0000
0000
0000
0000
0010
0000
0000
0000
0000
0000
0001
0000
0000
0000
0000
0000
2000
0000
0000
0000
0000
0000
0000
0000
0000
0000
0000
0000
3010
0000
0000
0M00
0000
0000
0010
0000
0000
0000
0000
0000
,
0001
0000
0000
0000
0000
0000
0100
0000
0000
0000
0000
0000
0010
0000
0000
1000
0000
0000
0001
0000
0000
0010
0000
0000
0200
0000
0000
0300
0000
0000
0200
0000
0000
0300
0000
0000
0010
0000
0000
0000
0001
0000
1000
0000
0000
0010
0000
0000
,
0100
M00M
0000
0000
1002
0000
0103
0000
0010
0100
0001
2000
0100
3000
0002
0000
,
0103
0000
0000
0000
0010
0000
1000
0000
0001
0000
0010
0000
0100
0000
1000
0000
0002
0000
0000
0000
0103
00M0
0100
0000
1000
0000
0001
0000
0100
0000
0010
0000
,
2000
0000
0000
0000
0000
0000
3001
0000
0010
0000
0001
0000
0010
0000
0000
0000
0000
0000
0100
0000
0000
0000
0000
0000
1000
0000
0000
0010
0000
0000
1000
0000
0000
0001
0000
0000
0010
0000
0000
0001
0000
0000
1000
0000
0000
0010
0000
0000
,
0200
0300
0002
0003
2000
3000
0200
0300
0020
0000
0000
0030
,
2001
0000
0000
0000
0000
0000
0000
0000
3001
0100
0010
0001
0010
1000
0100
1000
,
0010
0100
1000
0100
0010
1000
0100
0010
1000
0010
0001
1000
0010
0100
0001
1000
,
0200
0000
0000
0000
0000
0000
0000
0000
0010
0000
0000
0000
0000
0000
0000
0300
2002
3003
0000
0000
0000
0000
0000
0000
0000
0000
0000
0000
0000
0000
0000
0000
1000
0000
0000
0000
0001
0000
0010
0000
0001
0000
0000
0000
0000
0000
0000
0000
1000
0000
0000
0000
0001
0000
0100
0000
0001
0000
0000
0000
0000
0000
0000
0000
,
1000
0000
0000
0000
0000
0000
0001
0000
0000
0010
0000
0000
0001
0000
0000
0000
0000
0000
0000
0000
0000
0000
0000
0000
1000
0000
0000
0000
0010
0000
0000
0000
0100
0000
0000
0000
0001
0000
0000
0000
0100
0000
0000
0000
0010
0000
0000
0000
2000
0000
0000
0000
0000
0000
3000
0000
0000
0000
0000
0000
0002
0000
0000
0000
0000
0000
0003
0000
0000
0000
0000
0000
0010
0000
0000
0000
0000
0000
0100
0000
0000
0000
0000
0000
0010
0000
0000
0000
0000
0000
0100
0000
0000
0000
0000
0000
,
2000
0000
3001
0000
0110
0000
M00M
0000
1001
0000
1000
0000
0001
0100
0020
0000
,
0000
0000
0000
0000
0000
0000
0030
0000
0000
0000
0000
0000
0100
0000
0000
0000
0000
0000
0000
0000
0000
0000
0000
0000
0001
0000
0000
0000
0000
0000
0000
0000
0000
0000
0000
0000
1000
0000
0100
0000
0000
0000
1000
0000
0000
0100
0000
0000
1000
0000
0000
0000
0000
0000
0001
0000
0000
0000
0000
0000
2000
0000
0000
0000
0000
0000
0000
0000
0000
0000
0000
0000
3010
0000
0000
0000
0000
0000
0M00
0000
0000
0000
0000
0000
0010
0000
0000
0000
0000
0000
0000
0000
0000
0000
0000
0000
,
0101
0000
0000
0000
0000
0000
0000
0000
0000
0000
0000
0000
0000
0000
0000
0000
0000
0000
1000
0001
0100
0000
0000
0000
,
2002
0000
0000
3003
,
0001
0000
0000
0000
0000
0000
0000
0000
0000
0000
0000
0000
0100
0000
0000
0000
0000
0000
0000
0000
0010
0000
0000
0000
1000
0000
0000
0000
0000
0000
0000
0000
0000
0000
0000
0000
0001
0000
0000
0000
0010
0000
0000
0000
0001
0000
0000
0000
1000
0000
0000
0000
0000
0000
0000
0000
0010
0000
0000
0000
0000
0000
0000
0000
0100
0000
0000
0000
0001
0000
0000
0000
0000
0000
0000
0000
0000
0000
0000
0000
0000
0000
0000
0000
1000
0100
0000
0000
0000
0000
0000
0000
0000
0000
0000
0000
,
0010
0001
0000
0000
0000
0000
0000
0000
0000
0000
0000
0000
0000
0000
0000
0000
1000
0010
0000
0000
0000
0000
0000
0000
0100
0000
0000
0000
0000
0000
0000
0000
0001
0000
0000
0000
1000
0000
0000
0000
0000
0000
0000
0000
0001
0000
0000
0000
0010
0000
0000
0000
0000
0000
0000
0000
0100
0000
0000
0000
1000
0000
0000
0000
0000
0000
0000
0000
0000
0000
0000
0000
0010
0000
0000
0000
0000
0000
0000
0000
0100
0000
0000
0000
0001
0000
0000
0000
0000
0000
0000
0000
0000
0000
0000
0000
,
1000
0000
0000
0100
0000
0000
0010
0000
0000
0001
0000
0000
0100
0000
0010
0000
1000
0100
0000
0000
0000
0010
0000
0001
,
1000
0000
0000
0000
0000
0000
0000
0000
0000
0000
0000
0000
0000
0000
0000
0000
0000
0000
0000
0000
0000
0000
0000
0010
0000
0000
0000
0000
0000
0000
0000
0000
0000
0000
0000
0000
0000
0000
0000
0000
0000
0000
0000
0000
0000
0000
0000
0000
0100
0000
0000
0000
0000
0000
0000
0000
0000
0000
0000
0000
0000
0000
0000
0000
0000
0000
0000
0000
0000
0000
0000
0000
0001
0000
0000
0000
0000
0000
0000
0000
0000
0000
0000
0000
0000
0000
0000
0000
0000
0000
0000
0000
0000
0000
0000
0000
1000
0000
0000
0000
0000
0000
0000
0000
0000
0000
0000
0000
0000
0000
0000
0000
0100
0000
0000
0000
0000
0000
0000
0000
0010
0000
0000
0000
0000
0000
0000
0000
0000
0000
0000
0000
0000
0000
0000
0000
0000
0000
0000
0000
0000
0000
0000
0000
0001
0000
0000
0000
0000
0000
0000
0000
0000
0000
0000
0000
0000
0000
0000
0000
0000
0000
0000
0000
0000
0000
0000
0000
0100
0000
0000
0000
0000
0000
0000
0000
0000
0000
0000
0000
0000
0000
0000
0000
0010
0000
0000
0000
0000
0000
0000
0000
,
1000
0000
0000
0000
0000
0000
0000
0000
0000
0000
0000
0000
0100
0000
0000
0000
0000
0000
0000
0000
0010
0000
0000
0000
0001
0000
0000
0000
0000
0000
0000
0000
0000
0000
0000
0000
1000
0000
0000
0000
0010
0000
0000
0000
1000
0000
0000
0000
0001
0000
0000
0000
0000
0000
0000
0000
0010
0000
0000
0000
0000
0000
0000
0000
0100
0000
0000
0000
1000
0000
0000
0000
0000
0000
0000
0000
0000
0000
0000
0000
0000
0000
0000
0000
0001
0100
0000
0000
0000
0000
0000
0000
0000
0000
0000
0000
,
0010
1000
0000
0000
0000
0000
0000
0000
0000
0000
0000
0000
0000
0000
0000
0000
0001
0010
0000
0000
0000
0000
0000
0000
0100
0000
0000
0000
0000
0000
0000
0000
1000
0000
0000
0000
0001
0000
0000
0000
0000
0000
0000
0000
1000
0000
0000
0000
0010
0000
0000
0000
0000
0000
0000
0000
0100
0000
0000
0000
0001
0000
0000
0000
0000
0000
0000
0000
0000
0000
0000
0000
0010
0000
0000
0000
0000
0000
0000
0000
0100
0000
0000
0000
1000
0000
0000
0000
0000
0000
0000
0000
0000
0000
0000
0000
,
0001
0000
0000
0100
0000
0000
0010
0000
0000
1000
0000
0000
0100
0000
0010
0000
0000
0000
0001
0000
0100
0000
0010
0000
,
1000
0000
1000
0000
1000
0000
1000
0000
1000
0000
1000
0000
0001
0000
0001
0000
0001
0000
0004
0000
0000
0003
0000
0000
,
2000
3000
0200
0300
0020
0030
0002
0003
2000
0000
3000
0020
0100
0030
2000
3000
,
0002
0000
0000
0000
0000
0000
0003
0000
0000
0020
0000
0000
0100
0000
0000
0030
0000
0000
0001
0000
0000
0000
0000
0000
0100
0000
0000
0000
0000
0000
0100
0000
0000
0000
0000
0000
0010
0000
0000
0000
1000
0000
0001
0000
0000
0000
0000
0000
,
2000
0000
0000
3000
0000
0000
0200
0000
0000
0300
0000
0000
0020
0000
0000
0030
0000
0000
0002
0000
0000
0003
0000
0000
2000
0000
0000
0000
0000
0000
3000
0000
0000
0020
0000
0000
0100
0000
0000
0030
0000
0000
1000
0000
0000
0000
0001
0000
,
2000
0000
0000
0000
0000
0000
0000
0000
0000
0000
0000
0000
0000
0000
0000
0000
0000
0000
0000
0000
0000
0000
0000
0000
0020
0000
0000
0030
0000
0000
0000
0000
0000
0000
0000
0000
0000
0000
0000
0000
0000
0000
0000
0000
0000
0000
0000
0000
0002
0000
0000
0003
0000
0000
0000
0000
0000
0000
0000
0000
0000
0000
0000
0000
0000
0000
0000
0000
0000
0000
0000
0000
3200
0000
0000
0300
0000
0000
0000
0000
0000
0000
0000
0000
0000
0000
0000
0000
0000
0000
0000
0000
0000
0000
0000
0000
0020
0000
0000
0000
0000
0000
0000
0000
0000
0000
0000
0000
0000
0000
0000
0000
0000
0000
0000
0000
0000
0000
0000
0000
0031
0000
0000
0000
0000
0000
0000
0000
0000
0000
0000
0000
0000
0000
0000
0000
0000
0000
0000
0000
0000
0000
0000
0000
1000
0000
0000
0000
0000
0000
0000
0000
0000
0000
0000
0000
0000
0000
0000
0000
0000
0000
0000
0000
0000
0000
0000
0000
0010
0000
0000
0000
0000
0000
0000
0000
0000
0000
0000
0000
0000
0000
0000
0000
0100
0000
0000
0000
0000
0000
0000
0000
,
0001
0000
0000
0001
0000
0000
0010
0000
0000
0010
0000
0100
1000
0000
0000
1000
0000
0000
0010
0000
0000
0010
0000
0100
,
0001
0000
0000
0001
0000
0000
1000
0000
0000
1000
0000
0100
0010
0000
0000
0010
0000
0001
1000
0000
0000
1000
0000
0010
,
0100
0000
0010
1000
0000
0001
0010
0000
0100
0010
0000
0001
1000
0010
0100
0001
1000
0100
0020
0000
0000
0000
0030
0000
,
0001
0000
0001
0000
0001
0000
0000
0000
1000
0000
1000
0000
1000
0000
0000
0010
0000
0000
0110
0000
0000
2000
3000
0000
,
0001
0000
0000
0001
0000
0000
0010
0000
0000
0000
0000
0000
0200
0000
0000
0000
0000
0000
1300
0000
0000
0000
0001
0000
0000
0000
0000
0000
0200
0000
0010
0000
0000
0000
0300
0000
0001
0000
0000
0000
1000
0000
0100
0000
0000
0000
0000
0000
,
1000
0000
0000
1000
0000
0000
0010
0000
0000
0000
0000
0000
0200
0000
0000
0000
0000
0000
0300
0000
0000
0000
0001
0000
0000
0000
0000
0000
1000
0000
0100
0000
0000
0000
0000
0000
0010
0000
0000
0000
0001
0000
1000
0000
0000
0000
0000
0000
,
0010
0000
0000
0010
0000
0000
0100
0000
0000
0000
0000
0000
0002
0000
0000
0000
0000
0000
1003
0000
0000
0000
0100
0000
0000
0000
0000
0000
0020
0000
0100
0000
0000
0000
0030
0000
0001
0000
0000
0000
1000
0000
0010
0000
0000
0000
0000
0000
,
0100
0000
0000
0010
0000
0000
1000
0000
0000
0000
0000
0000
0100
0000
0000
0000
0000
0000
0010
0000
0000
0000
0001
0000
1000
0000
0000
0000
0000
0000
0010
0000
0000
0000
0200
0000
0000
0000
0000
0000
0000
0000
0300
0000
0000
0000
0000
0000
,
0020
0000
0000
0030
0000
0000
0000
0000
0000
0000
0000
0000
0000
0000
0000
0000
1000
0000
0000
0000
0000
0000
0000
0000
0001
0000
0000
0000
0000
0000
0000
0000
0000
0000
0000
0000
0000
0000
0000
0000
0000
0000
0000
0000
0000
0000
0000
0000
0020
0000
0000
0030
0000
0000
0000
0000
0000
0000
0000
0000
0000
0000
0000
0000
0000
0000
0000
0000
0000
0000
0000
0000
0100
0000
0000
0000
0000
0000
0000
0000
0000
0000
0000
0000
0000
0000
0000
0000
1000
0000
0000
0000
0000
0000
0000
0000
0002
0000
0000
0003
0000
0000
0000
0000
0000
0000
0000
0000
0000
0000
0000
0000
0100
0000
0000
0000
0000
0000
0000
0000
0010
0000
0000
0000
0000
0000
0000
0000
0000
0000
0000
0000
0000
0000
0000
0000
0000
0000
0000
0000
0000
0000
0000
0000
2000
0000
0000
3000
0000
0000
0000
0000
0000
0000
0000
0000
0000
0000
0000
0000
0200
0000
0000
0000
0000
0000
0000
0000
0010
0000
0000
0000
0000
0000
0000
0000
0000
0000
0000
0000
0000
0000
0000
0000
0300
0000
0000
0000
0000
0000
0000
0000
,
2000
0000
0000
3000
0000
0000
0000
0000
0000
0000
0000
0000
0000
0000
0000
0000
0002
0000
0000
0000
0000
0000
0000
0000
0100
0000
0000
0000
0000
0000
0000
0000
0003
0000
0000
0000
0000
0000
0000
0000
2000
0000
0000
0000
0000
0000
0000
0000
0100
0000
0000
0000
0000
0000
0000
0000
3000
0000
0000
0000
0000
0000
0000
0000
0002
0000
0000
0000
0000
0000
0000
0000
0100
0000
0000
0000
0000
0000
0000
0000
0003
0000
0000
0000
0000
0000
0000
0000
2000
0000
0000
0000
0000
0000
0000
0000
0100
0000
0000
0000
0000
0000
0000
0000
3000
0000
0000
0000
0000
0000
0000
0000
0002
0000
0000
0000
0000
0000
0000
0000
0100
0000
0000
0000
0000
0000
0000
0000
0003
0000
0000
0000
0000
0000
0000
0000
2000
0000
0000
0000
0000
0000
0000
0000
0100
0000
0000
0000
0000
0000
0000
0000
3000
0000
0000
0000
0000
0000
0000
0000
0001
0000
0000
0000
0000
0000
0000
0000
0100
0000
0000
0000
0000
0000
0000
0000
0000
0000
0000
0000
0000
0000
0000
0000
0010
0000
0000
0000
0000
0000
0000
0000
,
0001
0000
0010
1000
0000
0010
0001
0000
0010
1000
0000
0001
0010
0001
1000
0010
0100
0001
1000
0100
0010
0001
1000
0010
,
0200
0000
0000
0300
0000
0000
0002
0000
0000
0003
0000
0000
2000
0000
0000
0000
3000
0000
0000
0000
0240
0000
0000
0000
0000
0000
0000
0000
0030
0000
0000
0000
0000
0000
0000
0000
0300
0000
0000
0000
0000
0000
0000
0000
0000
0000
0000
0000
;
