#VERSION:0.83;
#TITLE:Supernova;
#SUBTITLE:;
#ARTIST:Technical Hitch;
#TITLETRANSLIT:;
#SUBTITLETRANSLIT:;
#ARTISTTRANSLIT:;
#GENRE:;
#CREDIT:NAOKI;
#MUSIC:Technical Hitch - Supernova.ogg;
#BANNER:Supernova-bn.png;
#BACKGROUND:Supernova-bg.png;
#JACKET:Supernova-jacket.png;
#CDTITLE:naokicdtitle.png;
#SAMPLESTART:288.042;
#SAMPLELENGTH:16.963;
#SELECTABLE:YES;
#OFFSET:-0.064;
#BPMS:0.000=170.000;
#STOPS:;
#BGCHANGES:;
#FGCHANGES:;

//--------------- dance-single - N@OKI 3/30*|58*/118*-77 ----------------
#NOTEDATA:;
#STEPSTYPE:dance-single;
#DESCRIPTION:N@OKI 3/30*|58*/118*-77;
#CREDIT:NAOKI;
#DIFFICULTY:Challenge;
#METER:16;
#RADARVALUES:0,0,0,0,0;
#CREDIT:NAOKI;
#NOTES:
0000
0000
0000
0000
,
1000
0000
0000
0000
0000
0000
0001
0000
0000
0000
0000
0000
0400
0000
0000
0300
0000
0000
0010
0000
1000
0000
0000
0000
,
0000
0000
0000
0000
0000
0000
0M00
0M00
,
0M00
0000
0000
0M00
0000
0M00
0000
0M00
0000
0M00
0000
0000
0M00
0000
0000
0M00
0000
0000
0M00
0000
0000
0M00
0000
0000
,
0000
0000
0000
0000
0000
0000
0001
0010
0000
0100
1000
0001
0000
1000
0010
0000
,
0200
0300
0000
0000
0010
0000
1000
0000
,
0002
0003
0000
0000
1000
0100
0010
0001
2000
3000
0010
0100
0010
1000
0000
0000
,
0001
0010
0000
0000
0000
0000
0000
0000
0100
0000
0000
0000
1000
0000
0000
0000
,
0001
0000
0200
0300
,
0001
0000
0000
0000
0000
0000
0000
0000
0000
0000
0000
0000
0000
0000
0000
0000
0000
0000
0000
0000
0000
0000
0000
0000
1000
0000
0000
0000
0000
0000
0000
0000
0000
0000
0000
0000
0100
0000
0000
0000
0000
0000
0000
0000
0000
0000
0000
0000
0010
0000
0000
0000
0000
0000
0000
0000
0000
0000
0000
0000
0000
0000
0000
0000
0000
0000
0000
0001
0000
0000
0000
0000
0000
0000
0000
0000
0000
0000
0000
0000
0000
0000
0000
0000
0000
0000
1000
0000
0000
0000
0000
0000
0000
0000
0000
0000
0000
0000
0000
0000
0000
0000
0000
0000
0000
0000
0000
0000
0000
0000
0000
0000
0000
0000
0000
0000
0000
0000
0000
0000
0000
0000
0000
0000
0000
0010
0000
0000
0000
0000
0000
0000
0000
0000
0000
0000
0000
0000
0000
0000
0000
0000
0000
0000
0000
0000
0000
0000
0000
0000
0000
0000
0000
0000
0000
0000
0000
0000
0000
0000
0000
0000
0000
0100
0000
0000
0000
0000
0000
0000
0000
0000
0000
0000
0000
0000
0000
0000
0000
0000
0000
0000
0000
0000
0000
0000
0000
0000
0000
0000
0000
0000
,
0000
0000
0000
0001
0000
0000
0000
0000
0000
0000
0000
0000
0000
0000
0000
1000
0000
0000
0000
0000
0000
0000
0000
0000
0000
0000
0000
0000
0000
0000
0000
0000
,
0001
0000
0000
0000
,
1000
0010
1000
0100
0010
0001
0100
0010
1000
0100
0010
0001
0100
0010
2000
3000
,
0000
0000
0001
0000
0100
0001
0010
0100
1000
0010
0100
0001
0010
0100
1000
0001
,
0100
0001
1000
0001
0100
0010
1000
0001
0010
0001
1000
0001
0010
0100
1000
0001
,
0100
0001
1000
0001
0100
0010
1000
0001
0010
0001
1000
0001
0010
0100
1000
0001
,
0100
0010
1000
0001
0010
0001
1000
0010
0100
0001
1000
0100
0000
0000
0000
0000
,
0000
0000
0010
0000
0000
0000
0001
0000
0000
0000
1000
0000
0010
0000
0100
0000
0001
0000
1000
0000
0000
0000
0000
0000
0000
0200
0000
0000
0300
0000
0000
0000
,
1000
0010
0100
0001
0010
0001
1000
0010
1000
0001
1000
0100
0010
0001
0100
0010
,
1000
0100
1000
0001
0100
0001
1000
0100
1000
0100
0010
0001
0100
0001
0010
0100
,
1000
0010
0100
0001
0010
0001
0100
0010
1000
0100
0010
0001
0100
0010
0100
0001
,
0010
0001
1000
0010
1000
0001
0010
0001
0100
0010
1000
0001
0010
0001
0100
0010
,
1000
0100
1000
0001
0100
0001
1000
0100
1000
0001
0100
0010
1000
0100
0010
0100
,
1000
0010
1000
0100
0010
0001
0100
0010
1000
0100
0010
0001
0100
0010
1000
0010
,
0100
0001
1000
0100
0010
0001
1000
0010
1000
0001
0010
0001
0010
0100
1000
0001
,
0100
0010
1000
0010
0100
0001
1000
0100
0010
0001
1000
0010
0100
0001
0100
0010
,
1000
0100
0010
0001
0100
0001
0010
0100
1000
0001
0100
0010
1000
0100
1000
0010
,
0100
0001
1000
0100
0010
0001
1000
0001
0100
0010
1000
0001
0010
0100
1000
0100
,
0010
0001
1000
0010
1000
0001
0010
0001
1000
0010
0100
0001
0010
0100
1000
0001
,
0100
0001
1000
0100
0010
0001
0100
0010
0100
0001
0010
0001
1000
0010
1000
0100
,
1000
0001
0100
0010
0100
0001
0010
0001
1000
0010
1000
0100
0010
0001
1000
0010
,
0100
0010
1000
0100
0010
0001
0100
0010
1000
0001
0010
0100
1000
0100
0010
0001
,
2000
3000
0000
0000
0000
0000
0000
0000
0000
0000
0000
0000
0020
0000
0000
0000
0000
0000
0000
0000
0030
0000
0000
0000
0200
0000
0000
0000
0000
0000
0000
0000
0300
0000
0000
0000
0002
0000
0000
0000
0000
0000
0000
0000
0003
0000
0000
0000
1000
0000
0000
0000
0100
0000
0000
0000
1000
0000
0000
0000
0000
0000
0000
0000
,
0010
1000
0001
0010
0001
1000
0010
1000
0001
0010
0100
1000
0001
0100
0001
0100
,
0010
1000
0001
1000
0100
1000
0010
1000
0001
0010
0001
1000
0010
0100
0001
0010
,
0100
1000
0001
0200
0300
0000
0010
1000
0001
0010
0001
0100
0010
1000
0010
0100
,
0001
0010
0100
1000
0010
0100
0001
0010
0100
1000
0010
0100
0001
1000
0001
0010
,
0100
1000
0010
0100
0010
1000
0100
0010
0100
1000
0010
0100
0001
0010
0001
0100
,
0001
0010
0100
1000
0010
0100
0001
0010
0001
0100
0010
1000
0001
0010
0001
1000
,
0010
1000
0001
1000
0100
0010
0001
0100
0010
1000
0100
0010
0001
0010
0100
1000
,
0010
1000
0001
0010
0001
1000
0010
1000
0001
0010
0100
1000
0010
0100
0001
1000
,
0100
1000
0010
0100
0001
0100
0010
1000
0001
0010
0001
0100
0010
1000
0100
1000
,
0010
0100
0001
0100
0010
1000
0100
0000
0000
0010
0001
1000
0010
1000
0001
0010
,
0100
1000
0001
1000
0010
0100
0010
1000
0100
0010
0001
0010
0001
0100
0001
0100
,
0010
1000
0001
0010
0100
1000
0010
1000
0001
0010
0001
0100
0010
1000
0100
1000
,
0010
0100
0001
0010
0001
1000
0010
0100
0001
0010
0100
1000
0010
0000
0000
0000
,
0400
0300
0000
0000
0001
0000
0000
0000
1000
0000
0000
0000
0400
0300
0000
0000
1000
0000
0000
0000
0001
0000
0000
0000
0400
0300
0000
0000
0001
0000
0000
0000
1000
0000
0000
0000
0400
0300
0000
0000
1000
0000
0000
0000
0001
0000
0000
0000
0200
0300
0000
0000
0010
0000
0000
0000
1000
0000
0000
0000
0010
0000
0000
0000
,
0100
0001
1000
0100
1000
0010
1000
0001
0010
0100
0010
0001
0010
0100
1000
0100
,
0010
0100
1000
0001
0100
0010
0100
0001
0100
0010
1000
0010
0100
0010
1000
0001
,
0010
0100
1000
0100
0010
0001
1000
0010
0100
0001
0100
0010
1000
0001
0010
0100
,
0000
0000
0000
0000
,
0000
0000
0000
0000
,
1000
0010
0100
0001
,
1000
0100
0010
0001
,
0100
0010
1000
0001
,
0010
0100
1000
0010
,
0100
0001
1000
0100
,
0010
0001
0100
0010
,
1000
0001
0010
0100
,
1000
0001
0100
0001
0010
0001
0200
0300
0000
0020
0030
0000
0200
0300
000M
0000
,
M000
000M
M000
000M
,
M000
000M
M000
000M
,
M000
000M
M000
000M
,
M000
000M
0000
0000
,
1000
0010
0100
0001
1000
0100
0010
0001
1000
0010
0100
0001
1000
0100
0010
0001
,
0100
0010
1000
0001
0010
0100
1000
0001
0100
0010
1000
0001
0010
0100
1000
0001
,
1000
0010
0100
0001
1000
0100
0010
0001
1000
0010
0100
0001
1000
0100
0010
0001
,
0100
0010
1000
0001
0010
0100
1000
0100
0010
0001
1000
0010
0100
0001
0100
0010
,
1000
0100
1000
0001
1000
0010
0100
0001
1000
0100
1000
0010
0100
0001
1000
0100
,
1000
0010
0100
0001
1000
0100
1000
0010
0100
0001
1000
0100
1000
0010
0100
0001
,
1000
0100
1000
0010
0100
0001
0010
0100
1000
0100
0010
0001
1000
0010
0100
0001
,
1000
0100
1000
0001
0100
0010
1000
0100
0010
0001
0100
0001
1000
0001
0010
0100
,
1000
0010
0100
0001
1000
0100
1000
0001
0100
0010
0100
0001
0010
0100
1000
0001
,
0100
0010
1000
0001
0010
0001
1000
0010
1000
0001
0010
0100
1000
0010
0100
0001
,
1000
0100
1000
0001
0100
0010
1000
0001
1000
0100
0010
0001
0100
0010
1000
0001
,
0010
0001
0100
0010
1000
0001
0010
0100
0010
0001
1000
0010
0100
0001
0100
0010
,
1000
0100
0010
0001
1000
0010
1000
0001
0010
0100
1000
0001
0100
0001
1000
0100
,
0010
0001
1000
0010
0100
0001
1000
0100
1000
0001
0100
0001
0010
0100
0010
0001
,
1000
0010
0100
0001
0010
0100
1000
0001
1000
0010
0100
0010
1000
0100
0010
0001
,
0100
0001
1000
0001
0010
0100
0010
0100
1000
0001
0100
0010
1000
0100
1000
0001
,
0100
0010
1000
0001
0010
0100
1000
0001
0100
0001
1000
0100
0010
0001
1000
0010
,
0100
0001
1000
0100
1000
0010
1000
0001
0010
0100
1000
0100
0010
0001
1000
0010
,
0100
0001
1000
0001
0010
0100
1000
0001
0100
0001
1000
0100
1000
0010
0100
0010
,
1000
0100
0010
0001
1000
0001
0100
0001
1000
0100
1000
0001
1000
0010
0100
0001
,
0010
0100
1000
0001
0100
0010
1000
0001
0010
0001
0100
0010
1000
0010
1000
0001
,
0010
0100
0010
0001
1000
0010
0100
0001
0010
0100
1000
0001
0100
0010
1000
0001
,
1000
0100
0010
0001
0100
0001
1000
0100
1000
0010
0100
0001
0010
0100
1000
0001
,
0100
0000
0001
0000
1000
0000
0100
0000
0020
0030
0000
0000
0000
0000
0000
0000
0001
0000
0100
0000
0010
0000
1000
0000
0001
0000
0010
0000
0001
0000
0100
0000
,
0001
0010
0100
1000
0010
1000
0100
0010
0001
0100
0010
1000
0001
0010
0001
1000
,
0001
0100
0010
0100
0001
1000
0100
1000
0010
0100
0001
1000
0100
0010
0001
1000
,
0010
1000
0001
0010
0100
1000
0001
0100
0010
1000
0010
0100
0001
1000
0001
0010
,
0100
1000
0100
0010
0001
1000
0010
0100
0001
0010
0001
0100
0010
1000
0100
1000
,
0010
0100
0001
1000
0100
0010
0001
1000
0010
1000
0100
1000
0010
0100
0001
0010
,
0001
0100
0010
1000
0100
1000
0001
0100
0001
1000
0100
0010
0001
1000
0010
1000
,
0001
0010
0100
0010
0001
1000
0001
0100
0010
1000
0001
1000
0100
0010
0001
1000
,
0010
0000
0000
0000
0100
0001
1000
0100
0010
0001
0010
0100
1000
0001
0100
0010
,
1000
0001
1000
0100
0010
0001
1000
0010
1000
0001
0010
0001
1000
0010
1000
0001
,
0010
0001
1000
0010
0100
0001
1000
0100
1000
0001
0100
0001
1000
0100
1000
0001
,
0100
0001
1000
0001
0010
0100
1000
0010
1000
0001
0010
0001
0100
0010
0100
0001
,
0010
0100
1000
0001
0100
0001
0010
0001
0100
0010
1000
0100
0010
0001
0100
0010
,
1000
0100
1000
0010
0100
0010
1000
0001
0010
0001
0100
0010
1000
0100
0010
0001
,
0100
0010
1000
0100
0010
0001
1000
0010
1000
0001
0010
0001
1000
0010
1000
0001
,
0010
0100
1000
0001
0100
0010
1000
0100
1000
0001
0100
0001
0010
0100
0010
0001
,
1000
0010
0100
0001
0010
0001
1000
0010
1000
0100
0010
0100
1000
0010
1000
0001
,
0010
0100
1000
0100
0010
0001
1000
0010
1000
0001
0010
0001
1000
0010
1000
0001
,
0010
0100
1000
0001
0100
0010
0100
0001
0010
0100
1000
0010
0100
0001
0010
0100
,
1000
0010
0100
0001
1000
0100
1000
0001
0100
0001
1000
0100
0010
0001
0100
0010
,
1000
0100
1000
0010
0100
0001
0010
0100
0010
0001
0100
0010
1000
0001
0010
0001
,
1000
0010
1000
0001
0010
0100
1000
0010
1000
0100
0010
0001
0100
0010
1000
0100
,
0010
0001
0010
0001
1000
0010
1000
0001
0010
0001
1000
0010
0100
0001
0010
0100
,
1000
0010
0100
0001
1000
0100
1000
0010
1000
0100
0010
0001
0100
0010
0100
0001
,
0010
0100
0010
0001
1000
0010
1000
0100
0010
0100
1000
0010
1000
0001
0010
0001
,
0200
0300
0000
0000
0010
0000
0000
0000
1000
0000
0000
0000
0200
0300
0000
0000
0010
0000
0000
0000
0001
0000
0000
0000
0200
0300
0000
0000
0010
0000
0000
0000
1000
0000
0000
0000
0200
0300
0000
0000
0010
0000
0000
0000
0001
0000
0000
0000
0200
0300
0000
0000
0010
0000
0000
0000
1000
0000
0000
0000
0100
0000
0000
0000
,
1000
0010
0100
0001
0010
0001
0100
0001
1000
0100
0010
0001
0100
0001
1000
0100
,
0010
0001
1000
0010
0100
0010
1000
0001
0010
0001
1000
0010
0100
0001
0100
0010
,
1000
0100
1000
0001
0100
0010
0100
0001
1000
0100
1000
0001
0100
0010
0100
0001
,
0010
0100
0010
0001
1000
0010
1000
0001
0010
0100
0010
0001
1000
0010
1000
0100
,
0010
0100
1000
0001
0100
0001
1000
0100
0010
0100
1000
0001
0100
0001
1000
0100
,
0010
0100
1000
0001
0100
0001
1000
0100
0010
0100
1000
0010
0100
0010
1000
0001
,
0010
0100
0010
0001
1000
0010
1000
0001
0010
0100
0010
0001
1000
0010
1000
0001
,
0010
0100
1000
0010
0100
0010
1000
0100
0010
0100
1000
0001
0100
0010
0100
0001
,
0010
0100
0010
0001
0100
0010
1000
0100
0010
0100
1000
0010
0100
0010
1000
0001
,
0010
0100
0010
0001
0100
0010
0100
0001
0010
0100
1000
0001
0100
0010
1000
0001
,
1000
0000
0000
0000
0000
0000
0100
0000
0000
0000
0000
0000
0010
0000
0000
0000
0000
0000
0001
0000
0000
0000
0000
0000
1000
0000
0000
0000
0000
0000
0001
0000
0000
0000
0000
0000
0100
0000
0000
0000
0000
0000
0000
0010
0000
0000
0000
0000
0000
0000
0000
0000
0000
1000
0000
0000
0000
0000
0000
0000
0000
0000
0000
0000
0000
0000
0000
0001
0000
0000
0000
0000
0000
0000
0000
0000
0000
0000
0000
0000
0000
0000
0000
0000
0000
0000
0000
0000
0000
0000
0000
0000
0000
0000
0000
0000
,
1000
0100
0010
0001
,
1000
0010
0100
0001
,
0010
0100
1000
0001
,
0100
0000
0000
0000
0010
0000
0000
0000
1000
0000
0000
0000
0001
0010
0001
0010
,
0100
1000
0001
1000
0010
0100
0001
1000
0100
1000
0001
0100
0010
1000
0001
0010
,
0001
1000
0010
0100
0001
1000
0100
1000
0001
0100
0010
1000
0001
0010
0001
1000
,
0010
1000
0001
0010
0100
1000
0001
0100
0001
1000
0100
0010
0001
1000
0010
1000
,
0001
0010
0100
1000
0001
0100
0001
1000
0100
0010
0001
1000
0010
0100
0001
1000
,
0100
1000
0010
1000
0001
0010
0001
1000
0010
0100
0001
1000
0100
1000
0001
0100
,
0010
1000
0001
0010
0001
1000
0010
0100
0001
1000
0100
1000
0001
0100
0001
1000
,
0001
0010
0100
1000
0001
1000
0010
1000
0001
0010
0001
1000
0001
0100
0010
1000
,
0001
0010
0100
1000
0100
0010
0001
1000
0010
0100
0001
0100
0010
1000
0001
0010
,
0100
0010
0001
1000
0010
0100
0001
1000
0100
0010
0001
1000
0010
0100
0001
1000
,
0100
1000
0010
1000
0001
0010
0001
0100
0001
1000
0100
0010
0001
1000
0010
0100
,
0001
0010
0001
0100
0010
1000
0100
1000
0001
0100
0001
0010
0100
1000
0100
1000
,
0001
0100
0010
1000
0100
0010
0001
1000
0010
1000
0001
0010
0100
1000
0001
0100
,
0010
0100
0001
1000
0100
0010
0100
1000
0001
0100
0001
1000
0001
0010
0100
1000
,
0001
0100
0001
1000
0100
0010
0001
1000
0010
1000
0100
0010
0001
0100
0001
1000
,
0100
0010
0100
1000
0001
0100
0010
1000
0001
0010
0100
1000
0001
1000
0010
0100
,
0010
1000
0001
1000
0100
1000
0010
1000
0001
0100
0001
0010
0001
1000
0001
0010
,
0100
1000
0001
0100
0010
0100
0001
1000
0100
0010
0001
1000
0010
1000
0001
0010
,
0100
1000
0001
0100
0010
1000
0001
1000
0100
0010
0001
1000
0010
0100
0010
1000
,
0001
0010
0001
0100
0010
1000
0100
1000
0010
0100
0001
1000
0100
0010
0001
1000
,
0010
0100
0010
1000
0010
0100
0001
0010
0100
0010
0001
0010
0100
1000
0001
0100
,
0010
0100
0001
1000
0100
0010
0001
1000
0010
1000
0001
0010
0100
1000
0001
0100
,
0001
1000
0100
1000
0010
0100
0001
0010
0100
1000
0010
0100
0001
0010
0001
0100
,
0010
1000
0100
1000
0010
0100
0001
1000
0100
0010
0001
0010
0100
1000
0001
0100
,
0010
1000
0001
0010
0001
0100
0010
1000
0100
1000
0001
0100
0010
1000
0010
0100
,
0001
0010
0001
0100
0010
1000
0001
0010
0001
0100
0010
1000
0001
0010
0001
1000
,
0010
1000
0001
0010
0100
1000
0001
0100
0001
1000
0100
1000
0001
0100
0001
1000
,
0100
0010
0001
1000
0010
0100
0001
1000
0100
1000
0010
1000
0001
0010
0100
1000
,
0001
0010
0001
0100
0001
1000
0010
1000
0100
1000
0001
0100
0010
1000
0100
0010
,
0001
0100
0010
1000
0100
0010
0001
0100
0010
1000
0100
0010
0001
0100
0010
1000
,
0100
1000
0010
0100
0001
0010
0100
1000
0010
0100
0001
0010
0100
1000
0001
1000
,
0010
0100
0001
1000
0100
0010
0001
1000
0001
0100
0010
1000
0001
0010
0100
1000
,
0010
0100
0001
1000
0100
0010
0001
0100
0010
1000
0100
0010
0001
0100
0010
1000
,
0001
1000
0100
0010
0001
0010
0100
1000
0001
0010
0001
0100
0010
1000
0100
1000
,
0010
1000
0001
0010
0100
0010
0001
0100
0001
1000
0100
0010
0100
1000
0010
0100
,
0001
0100
0010
1000
0001
0010
0100
1000
0010
1000
0100
1000
0010
0100
0001
0010
,
0001
0100
0010
1000
0100
0010
0001
1000
0010
1000
0001
0010
0100
1000
0100
0010
,
0001
0100
0001
1000
0100
0010
0100
0010
0001
0100
0001
1000
0100
1000
0010
0100
,
0010
1000
0001
1000
0100
0010
0001
0100
0010
1000
0001
1000
0100
0010
0100
1000
,
0010
1000
0100
1000
0001
0100
0010
1000
0100
0010
0001
0100
0010
1000
0100
1000
,
0001
0100
0001
1000
0100
0010
0001
0100
0001
0010
0100
1000
0010
1000
0100
0010
,
0001
0000
0000
0000
0000
0000
0000
0000
0000
0000
0000
0000
0000
0000
0000
0000
1000
0000
0000
0000
0000
0000
0000
0000
0010
0000
0000
0000
0000
0000
0000
0000
1000
0000
0000
0000
0000
0000
0000
0000
0000
0000
0000
0000
0000
0000
0000
0000
0001
0000
0000
0000
0000
0000
0000
0000
0000
0000
0000
0000
0000
0000
0000
1000
0000
0000
0000
0000
0000
0000
0000
0000
0100
0000
0000
0000
0000
0000
0000
0000
0000
1000
0000
0000
0000
0000
0000
0000
0000
0000
0000
0000
0000
0000
0000
0000
0001
0000
0000
0000
0000
0000
0000
0000
0000
0000
0000
0000
0100
0000
0000
0000
0000
0000
0000
0000
0000
0000
0000
0000
0010
0000
0000
0000
0000
0000
0000
0000
0000
0000
0000
0000
1000
0000
0000
0000
0000
0000
0000
0000
0000
0000
0000
0000
0001
0000
0000
0000
0000
0000
0000
0000
0000
0000
0000
0000
0010
0000
0000
0000
0000
0000
0000
0000
0000
0000
0000
0000
0001
0000
0000
0000
0000
0000
0000
0000
0000
0000
0000
0000
1000
0000
0000
0000
0000
0000
0000
0000
0000
0000
0000
0000
,
0010
1000
0100
0010
0001
0100
0001
1000
0100
0010
0001
1000
0010
0100
0010
1000
,
0100
1000
0010
1000
0001
0010
0001
0100
0010
1000
0010
0100
0001
1000
0001
0010
,
0100
1000
0010
1000
0100
0010
0001
0100
0010
1000
0100
1000
0001
0100
0001
0010
,
0001
0100
0010
1000
0100
0010
0001
0010
0100
1000
0001
0100
0001
1000
0100
1000
,
0040
0030
0000
0000
0100
0000
0000
0000
0001
0000
0000
0000
0040
0030
0000
0000
0001
0000
0000
0000
0100
0000
0000
0000
0040
0030
0000
0000
0100
0000
0000
0000
0001
0000
0000
0000
0010
0000
0000
0000
0001
0000
0000
0000
1000
0000
0000
0000
0010
0000
0000
0000
1000
0000
0000
0000
0100
0000
0000
0000
0010
0000
0000
0000
,
0100
1000
0001
0100
0010
1000
0010
0100
0001
0010
0001
0100
0010
1000
0100
0010
,
0001
0100
0001
0010
0100
1000
0010
0100
0001
0010
0001
0100
0001
1000
0100
1000
,
0010
0100
0001
1000
0100
1000
0001
0100
0010
1000
0001
0010
0100
0010
0001
1000
,
0010
0100
0001
1000
0100
1000
0001
0100
0010
1000
0001
0010
0100
0010
0001
1000
,
0001
0100
0010
1000
0100
1000
0010
1000
0001
0010
0100
1000
0010
1000
0001
0010
,
0001
0100
0001
1000
0100
1000
0001
0100
0010
1000
0001
0010
0100
1000
0100
1000
,
0010
0100
0001
1000
0100
0010
0001
0100
0001
1000
0100
1000
0010
1000
0001
0010
,
0001
0100
0001
1000
0010
1000
0100
1000
0001
0100
0001
1000
0100
1000
0010
1000
,
0001
0010
0001
0100
0001
1000
0100
1000
0001
0100
0001
0010
0001
1000
0010
1000
,
0100
1000
0001
0100
0001
0010
0001
1000
0100
0010
0001
0010
0100
1000
0001
1000
,
0010
1000
0001
0010
0100
0010
0001
0100
0010
0100
0001
1000
0100
1000
0010
1000
,
0001
0010
0001
1000
0010
0100
0010
1000
0100
0010
0001
0010
0100
1000
0001
0100
,
0010
0100
0001
0010
0001
0100
0001
1000
0100
0010
0001
1000
0010
0100
0010
1000
,
0001
0010
0100
1000
0010
1000
0100
0010
0001
0100
0001
0010
0100
1000
0010
0100
,
0001
0010
0001
1000
0010
0100
0001
1000
0100
0010
0100
1000
0001
0100
0010
1000
,
0001
0010
0001
0100
0010
1000
0001
0010
0100
1000
0010
1000
0001
0010
0100
0010
,
0001
0100
0010
1000
0100
1000
0001
1000
0010
0100
0010
1000
0100
0010
0100
1000
,
0001
1000
0010
1000
0100
1000
0010
1000
0001
0010
0100
1000
0100
0010
0001
1000
,
0010
0100
0001
1000
0100
0010
0001
0100
0001
0010
0100
1000
0001
0100
0001
1000
,
0100
0010
0001
1000
0010
0100
0001
0010
0001
0100
0010
1000
0001
0010
0100
1000
,
0010
0100
0001
1000
0100
1000
0010
1000
0001
0010
0100
1000
0010
1000
0100
0010
,
0001
0100
0001
0010
0100
1000
0100
0010
0001
1000
0001
0100
0010
1000
0001
0010
,
0100
1000
0001
0100
0001
0010
0001
1000
0100
0010
0001
0010
0100
1000
0010
1000
,
0100
0010
0001
1000
0010
0100
0001
0010
0100
1000
0010
1000
0100
0010
0100
1000
,
0010
0100
0001
1000
0100
0010
0001
0100
0001
0010
0100
1000
0010
0100
0010
1000
,
0001
0010
0100
1000
0001
0100
0001
0010
0001
0100
0001
1000
0010
1000
0100
1000
,
0001
0100
0010
1000
0001
0010
0100
1000
0010
0100
0001
0100
0010
1000
0100
0010
,
0001
0100
0001
0010
0100
1000
0010
1000
0100
0010
0001
0100
0001
0010
0100
1000
,
0010
1000
0001
0010
0001
0100
0010
0100
0001
0010
0001
0100
0001
1000
0100
1000
,
0010
0100
0001
0100
0010
1000
0100
0010
0001
0100
0001
0010
0100
1000
0100
1000
,
0001
0100
0010
1000
0001
0010
0100
1000
0010
0100
0001
1000
0100
1000
0010
0100
,
0001
0010
0100
1000
0001
0100
0001
1000
0100
0010
0001
0100
0010
1000
0001
0010
,
0001
1000
0010
0100
0001
0010
0100
1000
0010
1000
0100
1000
0010
0100
0001
0100
,
0010
0000
0000
0000
1000
0000
0000
0000
0100
0000
0000
0000
0010
0000
0000
0000
0001
0000
0000
0000
0010
0000
0000
0000
0100
0000
0000
0000
1000
0000
0000
0000
0020
0030
0000
0000
0100
0000
0000
0000
0001
0000
0000
0000
0020
0030
0000
0000
0100
0000
0000
0000
1000
0000
0000
0000
0020
0030
0000
0000
1000
0000
0000
0000
,
0400
0300
0000
0000
0010
0000
0000
0000
0001
0000
0000
0000
0400
0300
0000
0000
0001
0000
0000
0000
0010
0000
0000
0000
0400
0300
0000
0000
1000
0000
0000
0000
0020
0030
0000
0000
1000
0000
0000
0000
0100
0000
0000
0000
0020
0030
0000
0000
0100
0000
0000
0000
1000
0000
0000
0000
0020
0030
0000
0000
1000
0000
0000
0000
,
0400
0300
0000
0000
0010
0000
0000
0000
0001
0000
0000
0000
0400
0300
0000
0000
0001
0000
0000
0000
0010
0000
0000
0000
0400
0300
0000
0000
1000
0000
0000
0000
0020
0030
0000
0000
1000
0000
0000
0000
0100
0000
0000
0000
0020
0030
0000
0000
0100
0000
0000
0000
1000
0000
0000
0000
0020
0030
0000
0000
1000
0000
0000
0000
,
0100
0010
0001
1000
0010
0100
0010
1000
0001
0010
0001
0010
0100
1000
0001
1000
,
0010
0100
0001
0100
0010
1000
0001
1000
0100
1000
0010
1000
0001
0010
0001
0100
,
0001
0010
0100
1000
0001
0100
0010
1000
0001
0010
0100
1000
0001
0100
0010
1000
,
0100
1000
0001
1000
0010
0100
0001
0100
0010
1000
0001
0010
0100
1000
0100
0010
,
0001
1000
0001
0100
0001
0010
0100
0010
0001
0010
0100
1000
0100
0010
0100
1000
,
0001
1000
0100
1000
0010
0100
0010
1000
0010
0100
0001
0100
0010
0100
0001
1000
,
0001
0010
0100
1000
0001
0100
0010
1000
0001
0010
0100
1000
0001
0100
0010
1000
,
0100
0010
0001
1000
0010
0100
0001
1000
0100
0010
0001
1000
0010
0100
0001
1000
,
0001
0010
0100
1000
0010
1000
0001
0010
0001
1000
0010
1000
0001
0010
0100
1000
,
0001
0100
0001
1000
0100
1000
0001
0100
0001
1000
0100
0010
0001
0010
0100
1000
,
0010
0100
0001
1000
0100
0010
0001
1000
0010
0100
0001
1000
0100
0010
0001
1000
,
0010
1000
0001
0010
0100
1000
0010
1000
0001
0010
0001
0100
0010
1000
0100
1000
,
0010
0100
0001
1000
0100
0010
0001
0100
0010
1000
0010
0100
0001
0100
0010
1000
,
0001
0010
0001
1000
0010
0100
0001
1000
0100
1000
0010
0100
0001
1000
0100
1000
,
0001
0100
0010
1000
0001
0010
0100
1000
0010
0100
0001
1000
0100
1000
0001
1000
,
0010
0100
0010
1000
0100
1000
0010
0100
0001
1000
0001
0010
0100
1000
0010
1000
,
0100
0010
0001
0010
0100
0010
0001
1000
0010
0100
0001
0010
0100
1000
0001
1000
,
0010
0100
0010
0100
0001
1000
0100
0010
0001
0100
0010
1000
0010
0100
0001
1000
,
0100
1000
0010
0100
0010
1000
0100
0010
0001
0100
0001
0010
0100
0010
0001
1000
,
0010
0100
0001
0100
0010
1000
0100
1000
0100
0010
0001
0100
0001
0010
0100
1000
,
0010
1000
0100
0010
0001
0100
0010
0100
0001
0010
0100
1000
0010
0100
0001
0010
,
0100
1000
0010
0100
0010
1000
0001
0010
0001
0100
0001
1000
0100
1000
0001
0100
,
0010
1000
0010
1000
0100
1000
0100
0010
0100
1000
0001
0100
0010
1000
0001
0010
,
0100
0010
0001
0100
0010
0100
0001
0010
0001
0100
0010
1000
0100
0010
0001
1000
,
0010
0100
0001
0010
0100
1000
0010
1000
0100
0010
0001
0100
0010
1000
0100
1000
,
0010
0100
0010
1000
0100
0010
0100
1000
0001
0100
0001
0010
0001
0100
0010
0100
,
0001
0010
0001
0010
0001
0100
0001
0100
0010
1000
0001
0010
0100
1000
0010
1000
,
0100
0010
0001
0100
0010
0100
0001
0010
0100
1000
0010
0100
0001
0010
0001
0100
,
0010
1000
0010
1000
0100
1000
0001
0100
0001
0010
0100
1000
0010
0100
0010
1000
,
0100
0010
0001
0100
0001
0010
0100
1000
0010
1000
0001
0010
0001
0100
0010
1000
,
0100
1000
0001
0100
0010
0100
0001
1000
0100
1000
0010
0100
0001
0010
0100
1000
,
0010
0100
0001
0010
0001
0100
0010
1000
0100
1000
0010
0100
0001
0100
0010
1000
,
0100
1000
0001
0100
0001
1000
0100
1000
0001
0010
0001
0100
0001
1000
0010
1000
,
0200
0300
0000
0000
1000
0000
0000
0000
0010
0000
0000
0000
0200
0300
0000
0000
0010
0000
0000
0000
1000
0000
0000
0000
0200
0300
0000
0000
1000
0000
0000
0000
0010
0000
0000
0000
0200
0300
0000
0000
0010
0000
0000
0000
1000
0000
0000
0000
0200
0300
0000
0000
0010
0000
0000
0000
0001
0000
0000
0000
0100
0000
0000
0000
,
0010
1000
0010
0100
0001
0010
0100
1000
0100
0010
0001
1000
0010
0100
0001
0100
,
0010
1000
0100
0010
0001
0100
0001
1000
0001
0010
0100
1000
0010
0100
0001
0010
,
0001
1000
0010
1000
0100
1000
0000
0000
0000
0000
0000
0000
0000
0000
0000
0000
,
0000
0000
0000
0000
,
0001
0100
0010
1000
0001
0010
0100
1000
0010
0100
0010
1000
0100
0010
0001
1000
,
0010
0100
0001
1000
0001
0010
0001
0100
0010
1000
0100
1000
0001
0100
0010
1000
,
0100
0010
0100
0010
0001
0100
0010
1000
0001
0010
0001
0100
0010
1000
0100
1000
,
0001
1000
0010
0100
0001
0010
0001
1000
0001
0100
0010
1000
0001
1000
0100
0010
,
0001
0100
0010
0100
0001
0010
0001
0100
0001
0010
0100
1000
0010
0100
0001
1000
,
0100
0010
0100
1000
0010
0100
0001
0010
0100
1000
0010
0100
0001
0100
0010
1000
,
0100
1000
0001
0100
0001
0010
0100
1000
0010
0100
0010
0100
0001
0010
0001
0100
,
0010
1000
0010
0100
0001
1000
0100
0010
0001
0010
0100
1000
0001
1000
0010
1000
,
0100
0010
0001
1000
0010
0100
0001
1000
0100
0010
0100
1000
0010
0100
0001
1000
,
0100
1000
0010
1000
0001
0100
0001
0010
0001
0010
0001
1000
0010
1000
0010
1000
,
0100
1000
0010
0100
0001
0010
0100
1000
0010
1000
0100
0010
0001
0100
0001
0010
,
0001
0100
0010
1000
0010
0100
0001
1000
0100
1000
0001
1000
0010
0100
0001
1000
,
0100
1000
0010
0100
0001
0010
0001
0100
0010
1000
0001
0010
0100
1000
0100
1000
,
0010
0100
0010
1000
0001
0010
0100
0010
0001
1000
0001
0100
0010
1000
0100
1000
,
0010
0100
0001
1000
0100
0010
0001
0010
0100
1000
0010
1000
0100
0010
0100
1000
,
0010
0100
0001
0010
0001
1000
0010
1000
0100
1000
0010
0100
0001
0010
0100
1000
,
0100
0010
0001
0100
0010
0100
0001
1000
0100
1000
0010
0100
0001
0010
0001
0100
,
0010
1000
0001
1000
0100
0010
0001
0010
0001
0100
0001
0100
0010
1000
0010
1000
,
0100
0010
0100
1000
0001
0100
0001
0010
0100
1000
0010
1000
0100
0010
0001
1000
,
0010
0100
0001
0010
0100
1000
0010
0100
0001
0010
0001
1000
0010
0100
0010
1000
,
0100
0010
0100
1000
0001
0100
0001
1000
0100
1000
0001
0100
0010
0100
0001
1000
,
0100
1000
0010
1000
0001
0100
0001
0010
0001
0100
0010
1000
0001
0010
0100
1000
,
0010
1000
0100
0010
0001
0100
0001
0010
0001
0100
0010
1000
0100
1000
0010
1000
,
0100
0010
0001
0100
0001
0010
0100
1000
0010
0100
0001
0010
0100
1000
0010
0100
,
0001
0010
0001
1000
0001
0100
0010
1000
0001
0010
0001
1000
0001
0100
0010
1000
,
0001
0010
0001
1000
0001
0100
0010
1000
0001
0010
0001
1000
0001
0100
0010
1000
,
0100
1000
0010
1000
0001
0010
0100
1000
0010
1000
0001
1000
0100
0010
0001
1000
,
0010
1000
0001
1000
0100
0010
0001
1000
0010
0100
0001
1000
0100
0010
0100
1000
,
0010
0100
0010
1000
0010
0100
0001
1000
0100
0010
0100
0010
0001
1000
0010
1000
,
0001
0010
0100
0010
0001
0010
0100
1000
0010
0100
0001
1000
0100
0010
0100
1000
,
0001
0100
0001
1000
0100
1000
0010
1000
0001
0100
0001
1000
0100
1000
0010
1000
,
0001
0010
0001
0100
0010
1000
0010
0100
0001
0010
0001
0100
0010
1000
0001
1000
,
0100
0010
0001
0100
0010
0100
0001
1000
0100
0010
0001
0100
0010
0100
0001
1000
,
0100
0010
0001
0100
0010
0100
0001
1000
0100
0010
0001
0100
0010
0100
0001
0010
,
0001
0100
0010
1000
0100
0010
0100
1000
0001
0100
0010
1000
0100
0010
0100
1000
,
0001
0100
0010
1000
0100
0010
0100
1000
0001
0100
0010
1000
0100
1000
0001
0100
,
0010
1000
0010
0100
0010
1000
0001
0010
0100
0010
0001
0010
0100
1000
0001
1000
,
0010
0100
0001
0100
0010
0100
0001
1000
0100
0010
0100
1000
0100
0010
0001
0100
,
0010
1000
0100
0010
0100
1000
0010
0100
0001
0010
0100
0010
0001
0100
0010
1000
,
0100
0010
0100
1000
0010
0100
0001
0010
0100
1000
0010
0100
0001
0010
0100
1000
,
0001
0100
0010
1000
0100
1000
0001
0100
0010
1000
0100
1000
0001
0100
0010
0100
,
0001
0010
0100
1000
0010
1000
0001
0010
0100
1000
0010
1000
0100
0010
0100
1000
,
0010
0100
0010
0100
0001
0010
0001
1000
0010
0100
0001
0010
0001
1000
0010
0100
,
0001
0010
0001
1000
0010
0100
0001
0010
0001
1000
0010
0100
0001
0010
0001
0100
,
0001
0010
0100
1000
0010
1000
0001
0010
0100
1000
0010
1000
0001
0010
0100
1000
,
0010
0100
0010
1000
0100
1000
0001
0100
0010
1000
0100
1000
0001
0100
0001
0010
,
0001
0100
0010
1000
0100
1000
0010
1000
0100
0010
0001
0100
0001
1000
0100
0010
,
0001
0100
0001
1000
0100
0010
0001
0100
0001
0010
0100
1000
0010
0100
0010
1000
,
0100
1000
0010
1000
0100
0010
0001
0100
0001
0010
0001
0100
0010
1000
0010
0100
,
0001
0010
0100
1000
0010
1000
0001
0010
0100
1000
0010
0100
0001
0100
0010
1000
,
0100
1000
0010
0100
0001
0010
0001
0100
0010
1000
0100
1000
0001
0100
0010
1000
,
0100
1000
0001
0100
0010
1000
0100
0010
0100
1000
0010
1000
0100
0010
0100
1000
,
0001
0100
0010
0100
0001
0010
0001
1000
0010
0100
0001
0010
0001
1000
0010
0100
,
0001
0010
0100
1000
0010
1000
0001
0010
0100
1000
0010
1000
0100
0010
0001
0010
,
0100
1000
0100
0010
0001
0100
0001
1000
0100
0010
0001
0100
0001
1000
0100
0010
,
0001
0100
0001
0010
0100
1000
0010
1000
0001
0010
0100
1000
0010
0100
0001
0010
,
0100
1000
0001
0100
0010
1000
0100
1000
0010
1000
0001
0010
0001
0100
0001
1000
,
0100
0010
0100
1000
0010
0100
0001
0010
0001
0100
0010
1000
0010
0100
0001
0010
,
0001
0100
0001
1000
0100
1000
0010
1000
0100
0010
0001
0100
0001
0010
0100
1000
,
0010
1000
0100
0010
0001
0100
0010
0100
0001
0010
0001
1000
0010
0100
0010
1000
,
0100
0010
0001
1000
0010
0100
0001
0010
0001
0100
0010
1000
0100
0010
0001
0100
,
0010
0100
0001
0010
0100
1000
0010
1000
0100
0010
0001
0100
0001
1000
0100
1000
,
0010
0100
0001
1000
0100
0010
0100
1000
0001
1000
0010
0100
0001
0100
0010
1000
,
0100
1000
0001
0010
0100
1000
0010
1000
0001
0010
0001
1000
0010
0100
0010
1000
,
0001
0010
0100
1000
0010
0100
0001
0010
0100
1000
0010
0100
0001
0010
0100
1000
,
0010
0100
0010
1000
0100
0010
0001
0100
0010
1000
0100
0010
0001
0100
0010
1000
,
0100
0010
0100
1000
0010
0100
0001
0010
0100
1000
0010
0100
0001
0010
0100
1000
,
0010
0100
0001
0010
0100
1000
0010
0100
0001
0010
0100
1000
0010
0100
0001
0010
,
0001
0100
0010
1000
0100
0010
0001
0100
0010
1000
0100
0010
0001
0100
0010
1000
,
0100
0010
0100
1000
0010
0100
0001
0010
0100
1000
0010
0100
0001
0010
0100
1000
,
0010
0100
0010
1000
0100
0010
0001
0100
0010
1000
0100
1000
0001
0100
0010
1000
,
0100
1000
0001
0100
0010
1000
0100
1000
0001
0100
0010
1000
0100
0010
0001
0100
,
0001
0010
0100
1000
0010
1000
0001
0010
0100
1000
0010
1000
0001
0010
0100
1000
,
0010
1000
0100
0010
0001
0100
0001
1000
0100
0010
0001
0100
0001
1000
0100
0010
,
0001
0100
0010
0100
0001
0010
0001
1000
0010
0100
0001
0010
0001
1000
0010
0100
,
0001
0010
0001
1000
0010
0100
0001
0010
0001
0100
0001
1000
0100
1000
0010
0100
,
0001
0100
0010
1000
0100
1000
0010
0100
0001
0010
0001
0100
0010
1000
0001
0010
,
0100
0000
1000
0000
0001
0000
0100
0000
0010
0000
1000
0000
0001
0000
0000
0010
0000
0000
0100
0000
0000
1000
0000
0000
,
0001
0000
0100
0000
0010
0000
1000
0000
0000
0100
0000
0000
,
0010
0000
0000
0000
0000
0001
0000
0000
0000
0000
0000
1000
0000
0000
0000
0000
;
