#TITLE:SupaMax;
#SUBTITLE:;
#ARTIST:Paul Bazooka;
#TITLETRANSLIT:;
#SUBTITLETRANSLIT:;
#ARTISTTRANSLIT:;
#GENRE:;
#CREDIT:NAOKI;
#MUSIC:SupaMax.ogg;
#BANNER:SupaMax-bn.png;
#BACKGROUND:SupaMax-bg.png;
#CDTITLE:naokicdtitle.png;
#SAMPLESTART:105.372;
#SAMPLELENGTH:14.625;
#SELECTABLE:YES;
#OFFSET:0.009;
#BPMS:0.000=140.000
,22.000=280.000
,23.000=140.000
,39.000=210.000
,40.500=140.000
,54.000=210.000
,55.000=140.000
,55.500=210.000
,56.000=140.000
,182.000=280.000
,183.000=140.000
,185.000=280.000
,185.875=140.000
,196.000=70.000
,196.750=140.000
,245.500=280.000
,245.813=140.000
,246.125=70.000
,246.375=233.333
,247.500=100.000
,248.000=140.000
,255.500=280.000
,255.750=140.000
,255.875=70.000
,256.125=140.000
,256.250=280.000
,256.750=140.000
,256.875=70.000
,257.125=140.000
,257.250=280.000
,257.750=140.000
,257.875=70.000
,258.125=140.000
,258.250=280.000
,258.500=140.000
,262.250=70.000
,262.500=280.000
,263.500=140.000
,263.750=70.000
,264.000=140.000
,271.000=280.000
,274.000=140.000
,275.000=280.000
,275.500=70.000
,275.750=140.000
,277.000=286720.000
,278.000=280.000
,278.875=31.111
,279.000=140.000
,294.000=280.000
,294.500=140.000
,294.750=70.000
,295.000=140.000
,303.000=210.000
,306.000=140.000
;
#STOPS:22.000=0.027
,22.125=0.040
,22.313=0.040
,22.500=0.027
,22.625=0.027
,22.750=0.018
,22.833=0.018
,22.917=0.018
,39.250=0.071
,39.750=0.071
,40.250=0.071
,54.250=0.071
,54.750=0.071
,55.750=0.072
,182.000=0.107
,182.500=0.107
,185.000=0.026
,185.125=0.027
,185.250=0.026
,185.375=0.027
,185.500=0.026
,185.625=0.027
,185.750=0.027
,196.750=0.107
,245.500=0.012
,245.563=0.013
,245.625=0.012
,245.688=0.013
,245.771=0.018
,271.479=0.107
,271.979=0.107
,272.479=0.107
,272.979=0.107
,273.479=0.107
,273.958=0.107
,277.000=0.107
,277.250=0.107
,277.500=0.107
,277.750=0.107
,303.479=0.071
,303.979=0.072
,304.479=0.071
,304.979=0.072
,305.479=0.071
,305.979=0.072
;
#DISPLAYBPM:140.000;
#BGCHANGES:;
#FGCHANGES:;

//--------------- dance-single - NAOKI XO FS BPM gimmicks ----------------
#NOTES:
     dance-single:
     NAOKI XO FS BPM gimmicks:
     Challenge:
     12:
     0,0,0,0,0:
0000
0000
0000
0000
,
0000
0000
0000
0000
,
1000
1000
0001
0100
0010
0010
1000
0001
,
0100
0000
0000
0000
0000
0000
0000
0000
0100
0000
0000
0000
0000
0000
0000
0000
0010
0000
0000
0000
0000
0000
0000
0000
1000
0000
0000
0000
0000
0000
0000
0000
0001
0000
0000
0000
0000
0000
0000
0000
0001
0000
0000
0000
0000
0000
0000
0000
0020
0000
0000
0030
0000
0000
0000
0000
0100
0000
0000
0000
0000
0000
0000
0000
,
1000
0001
0010
0001
1000
0001
0010
0001
1000
0001
0010
0100
1000
0001
1000
0010
,
1000
0000
0000
0000
0000
0000
0000
0000
0000
0000
0000
0000
0001
0000
0000
0000
0000
0000
0000
0000
0000
0000
0000
0000
1000
0000
0000
0000
0000
0000
0000
0000
0000
0000
0000
0000
0010
0000
0000
0000
0000
0000
0000
0000
0000
0000
0000
0000
1000
0000
0000
0000
0000
0000
0000
0000
0000
0000
0000
0000
0001
0000
0000
0000
0000
0000
0000
0000
0000
0000
0000
0000
0010
0000
0000
0000
0000
0000
0000
0000
0000
0000
0000
0000
0100
0000
0000
0000
0000
0000
0000
0000
0000
0000
0000
0000
2000
0000
0000
0000
0000
0000
000M
0000
0000
0000
0000
0000
0000
0000
0000
000M
0000
0000
0000
0000
0000
0000
0000
0000
000M
0000
0000
0000
0000
0000
000M
0000
0000
0000
0000
0000
000M
0000
0000
0000
000M
0000
0000
0000
000M
0000
0000
0000
3010
0000
0000
0000
0000
0000
0000
0000
0000
0000
0000
0000
0000
0000
0000
0000
0000
0000
0000
0000
0000
0000
0000
0000
0100
0000
0000
0000
0000
0000
0000
0000
0000
0000
0000
0000
0000
0000
0000
0000
0000
0000
0000
0000
0000
0000
0000
0000
,
0101
0000
0001
0000
1000
0100
0010
0001
0000
0000
1000
1000
0020
0000
0130
0000
,
0002
0000
0000
0000
1003
0000
0000
0000
0100
0000
0010
0000
0001
0000
0200
0000
0300
0000
0010
0000
1000
0000
0001
0000
0040
0030
0400
0300
0040
0030
0400
0300
,
2000
0000
3001
0000
0400
0300
0010
1000
0002
0000
0013
0000
2000
0000
3000
0000
,
0010
0100
1000
0001
0200
0300
0010
0100
0001
1000
0100
0010
0002
M003
0200
0300
,
0020
003M
1000
0000
1100
0000
0100
0000
0020
0000
0031
0000
1000
0010
0100
0010
,
1000
0000
0001
0000
0010
0100
1000
0200
0300
0010
0001
1000
0040
0030
0400
0300
,
0002
0000
1003
0000
0400
0300
0010
0001
2000
0000
3010
0000
0002
0000
0003
0000
,
0010
0000
0000
0000
0100
0000
0000
0000
0010
0000
0000
0000
0100
0000
0000
0000
0001
0000
0000
0000
1000
0000
0000
0000
0100
0000
0000
0000
0010
0000
0000
0000
0002
0000
0000
0003
0M00
0000
0000
0000
2000
0000
0000
3000
00M0
0000
0000
0000
0001
0000
0000
0000
0100
0000
0000
0000
0020
0000
0000
0000
003M
0000
0000
0000
,
1000
0000
0001
0010
0200
0000
1300
0000
0001
0100
0010
0100
0001
0000
0010
0000
,
0100
0000
1000
0001
0200
0000
0310
0000
1000
0000
0001
0010
0100
0000
1000
0000
,
0001
0000
0100
0010
2000
0000
3001
0000
0010
0100
1000
0100
0010
0000
0001
0000
,
1000
0000
0010
0100
0001
0000
0020
0030
0200
0300
1000
0100
0010
0000
0001
0000
,
1001
0000
1000
0010
0200
0000
0301
0000
1000
0100
0010
0100
1000
0000
0001
0000
,
0100
0000
0010
1000
0200
0000
0310
0000
0001
0000
1000
0010
0100
0000
0001
0000
,
1000
0000
0100
0010
0002
0000
1003
0000
0010
0100
0001
0100
0010
0000
1000
0000
,
0001
0000
1000
0000
0100
M00M
0100
0000
0001
0000
1000
0000
0100
M00M
0100
0000
0002
0000
0000
0000
1003
0000
0000
0000
0001
0000
0010
0000
0100
0000
1000
0000
,
0001
0100
0010
0100
0002
0000
1003
0100
0010
0100
1000
0001
1000
0010
0100
0100
,
0001
1000
0100
0010
1000
0010
0100
1000
0001
1000
0010
0100
1000
0100
0010
1000
,
0002
0013
0000
0000
0200
1300
0000
0000
0002
0000
0000
0003
1000
0000
0010
0000
0100
0000
0010
0000
1000
0000
0001
0000
1000
0000
0100
0000
0010
0000
0100
0000
,
1000
0000
0001
0000
0100
0000
0010
0000
0001
0000
0010
0000
0100
0000
0001
0000
1000
0000
0001
0000
0010
0000
0100
0000
1000
0000
0001
0000
0200
0310
0000
0000
,
2000
3001
0000
0000
0020
0130
0000
0000
2000
0000
0000
0000
3001
0000
0000
0000
0100
0000
0000
0000
0020
0030
0200
0300
0002
0003
2000
3000
0200
0300
0020
0030
,
0001
0000
1000
0000
0010
0000
0100
0000
1000
0000
0100
0000
0020
0030
0000
0000
0200
0300
0000
0000
0002
0003
2000
3000
0200
0300
0020
0030
0002
0003
1000
0000
,
0020
0000
0130
0000
0000
0000
0000
0000
0200
0000
0301
0000
0000
0000
0000
0000
0102
0000
0000
0000
0000
0000
0000
0000
1003
0000
0000
0000
0000
0000
0000
0000
2100
0000
0000
0000
0000
0000
0000
0000
3001
0000
0000
0000
0100
0000
0000
0000
0020
0000
0000
0000
0000
0030
0000
0000
1000
0000
0000
0000
0001
0000
0000
0000
,
0010
0000
0000
0000
0100
0000
0000
0000
1000
0000
0000
0000
0001
0000
0000
0000
0100
0000
0000
0000
0010
0000
0000
0000
1000
0000
0000
0000
0100
0000
0000
0000
0020
0000
0000
0000
0000
0030
0000
0000
0002
0000
0000
0000
0000
0000
0000
0000
2000
0000
0000
0000
0000
0000
0000
0000
3003
0000
0000
0000
0000
0000
0000
0000
,
0202
0000
0000
0000
0303
0000
0000
0000
2200
0000
0000
3300
0000
0000
0022
0000
0000
0030
0000
0000
2000
0000
0000
0000
0000
0000
0000
0000
0000
0003
0000
0000
,
3000
0000
0010
0000
0000
0100
0000
0000
0001
0010
0100
1000
0000
0100
0000
0010
,
0002
0000
0103
0010
2000
3000
0100
0020
0030
0001
0100
0010
1000
0001
0010
0100
,
1000
0100
0010
0001
1000
0010
0100
0100
0000
0010
0000
1000
0000
0001
0010
0100
,
2000
0000
3001
0100
0020
0030
0100
2000
3000
0100
0001
0000
0010
0000
1000
0000
,
0010
0000
0001
0000
0100
0010
0000
0001
0000
0010
0000
1000
0000
0001
0010
0100
,
2000
0000
0000
0000
0000
0000
0000
0000
0000
0000
0000
0000
0000
0000
0000
0000
0000
0000
0000
0000
0000
0000
0000
0000
3000
0000
0000
0000
0000
0000
0000
0000
0000
0000
0000
0000
0000
0000
0000
0000
0000
0000
0000
0000
0000
0000
0000
0000
0022
0000
0000
0000
0000
0000
0000
0000
0000
0000
0000
0000
0000
0000
0000
0000
0000
0000
0033
0000
0000
0000
0000
0000
0000
0000
0000
0000
0000
0000
0000
0000
0000
0000
0000
0000
0100
0000
0000
0000
0000
0000
0000
0000
0000
0000
0000
0000
1000
0000
0000
0000
0000
0000
0000
0000
0000
0000
0001
0000
0000
0000
0000
0000
0000
0000
0000
0100
0000
0000
0000
0000
0000
0000
0000
0000
0000
0010
0000
0000
0000
0000
0000
0000
0000
0000
1000
0000
0000
0000
0000
0000
0000
0000
0000
0000
0001
0000
0000
0000
0000
0000
0000
0000
0000
0000
0010
0000
0000
0000
0000
0000
0000
0000
0000
0100
0000
0000
0000
0000
0000
0000
0000
0000
0000
0010
0000
0000
0000
0000
0000
0000
0000
0000
0001
0000
0000
0000
0000
0000
0000
0000
0000
0000
,
4000
3000
0040
0030
0400
0300
0004
0003
4000
3000
0400
0300
0040
0030
0004
0003
0200
0000
0000
0000
0000
0000
0300
0000
0020
0000
0000
0000
0000
0000
0030
0000
,
1000
0001
0010
0100
2000
0000
3000
0020
0000
0030
0002
0000
0003
0020
0000
0030
,
2000
0000
3000
0200
0000
0300
0002
0000
0003
0200
0000
0300
0010
0000
0001
0000
,
0200
0000
0300
0000
0020
0000
0030
2000
3000
0001
0010
0200
0300
0010
0002
1003
,
0010
0000
0200
0300
0010
0000
1000
0000
0002
0003
1000
0000
0100
0000
0020
0030
0100
0000
1000
0000
0002
0003
0100
0000
0010
0000
2000
3000
0100
0000
0010
0000
,
0001
0001
0100
0100
0010
0010
1000
1000
,
0001
0000
0001
0000
0010
0000
0010
0000
0100
0000
0100
0000
1000
0000
1000
0010
,
0100
0000
0001
1000
0000
0100
0010
0000
0001
1000
0000
0010
0100
0000
0001
0100
,
1000
0100
0001
0100
1000
0100
0001
0000
20M0
0000
3M02
0000
0013
0100
1000
0000
,
1001
0000
0000
0000
0001
0000
0000
0000
04M0
00M0
00M0
00M0
00M0
00M0
03M0
0000
0010
0000
0000
0000
1000
0000
0000
0000
0001
0000
0010
0000
0100
0000
1000
0000
,
0002
0003
0100
0010
0100
0001
0100
0010
1000
0000
0001
0000
0010
0000
0100
0000
,
1000
0000
0000
0000
0000
0000
0100
0000
0000
0000
0000
0000
0020
0030
0000
0000
0000
0000
0001
0000
0000
0000
0000
0000
1000
0000
0000
0000
0000
0000
0000
0000
0000
0000
0000
0000
0020
0030
0000
0000
0000
0000
0100
0000
0000
0000
0000
0000
0001
0000
0000
0000
0000
0000
2000
3000
0000
0000
0000
0000
0100
0000
0000
0000
0000
0000
0002
0003
0000
0000
0000
0000
0100
0000
0000
0000
0000
0000
0010
0000
0000
0000
0000
0000
0001
0000
0000
0000
0000
0000
1000
0000
0000
0000
0000
0000
,
0M20
0000
0030
0000
2000
3000
0002
0003
2000
3000
0000
0000
04M0
0300
0000
0000
0010
0000
0000
0000
0000
0000
0000
0000
0001
0000
0000
0000
0000
0000
0000
0000
0100
0000
0000
0000
0000
0000
0000
0000
0010
0000
0000
0000
0000
0000
0000
0000
1000
0000
0000
0000
0000
0000
0000
0000
0200
0000
0000
0000
0000
0000
0000
0000
,
0020
0030
0000
0000
1300
0000
0000
0000
0002
0000
0003
0000
0200
0000
0300
0000
0010
0000
1000
0000
0001
0000
0000
0000
0010
0000
0000
0000
0400
0300
0000
0000
,
2000
0000
0000
0000
0000
0000
0000
0000
0000
0000
0000
0000
3000
0000
0000
0000
0000
0000
0000
0000
0000
0000
0000
0000
0002
0000
0000
0000
0000
0000
0000
0000
0000
0000
0000
0000
0003
0000
0000
0000
0000
0000
0000
0000
0000
0000
0000
0000
0100
0000
0000
0000
0000
0000
0000
0000
0000
0000
0000
0000
0000
0000
0000
0000
0000
0000
0000
0000
0000
0000
0000
0000
0010
0000
0000
0000
0000
0000
0000
0000
0000
0000
0000
0000
1000
0000
0000
0000
0000
0000
0000
0000
0000
0000
0000
0000
0100
0000
0000
0000
0000
0000
0000
0000
0000
0000
0000
0000
0000
0000
0000
0000
0000
0000
0000
0000
0000
0000
0020
0000
0000
0030
0000
0000
0000
0000
0000
0000
0000
0000
0000
0000
0000
0000
0000
0000
0000
0000
0000
0000
0000
0000
0000
0000
0002
0000
0000
0000
0000
0000
0000
0000
0000
0000
0000
0000
0003
0000
0000
0000
0000
0000
0000
0000
0000
0000
0000
0000
0100
0000
0000
0000
0000
0000
0000
0000
0000
0000
0000
0000
0000
0000
0000
0000
0000
0000
0000
0000
0000
0000
0000
0000
,
4000
3000
0100
0000
0110
0000
0010
1000
0002
0003
0010
0000
0100
1000
0000
0001
,
0100
0000
0000
0000
0000
0000
0010
0000
0000
1000
0000
0000
0001
0000
0010
0000
0100
0000
1000
0000
0001
0000
1000
0000
0010
0000
0100
0000
0001
0000
1000
0000
0100
0000
0010
0000
0001
0000
0000
0000
0000
0000
0100
0000
0000
0000
0000
0000
,
1000
0000
0001
0000
0010
0000
1000
0000
0001
0010
0100
0000
1000
0000
0001
0100
,
0010
0000
1000
0001
0010
0000
0100
1000
0001
0000
0100
0010
1000
0000
0100
0000
,
0001
0000
1000
0000
0010
0000
0001
0000
1000
0010
0100
0000
0001
0000
1000
0100
,
0010
0000
0001
1000
0010
0000
0100
0000
0001
0000
0020
0000
0130
0000
1000
0000
,
0002
0103
0010
2000
3001
0010
0200
1300
,
1100
0000
0100
0000
0010
0000
0001
0000
0101
0000
0100
0010
2000
3000
0100
0010
,
0002
0000
0000
0000
0000
0003
0000
0000
0000
0000
0000
0000
1000
0000
0000
0000
0000
0000
0010
0000
0000
0000
0000
0000
0200
0000
0000
0000
0000
0300
0000
0000
0000
0000
0000
0000
0001
0000
0000
0000
0000
0000
1000
0000
0000
0000
0000
0000
0200
0000
0000
0000
0300
0000
0000
0000
0000
0000
0000
0000
0010
0000
0000
0000
0000
0000
0001
0000
0000
0000
0000
0000
1000
0000
0000
0000
0000
0000
0010
0000
0000
0000
0000
0000
0100
0000
0000
0000
0000
0000
1000
0000
0000
0000
0000
0000
,
0000
0000
0000
0000
0000
0000
1M00
0000
0000
0000
0000
0000
0010
0000
0000
0000
0000
0000
0100
0000
0000
0000
0000
0000
0002
0000
0000
0000
0000
0000
0003
0000
0000
0000
0000
0000
4000
0000
0000
0000
0000
0000
0000
0000
3000
0000
0000
0000
0000
0000
0000
0220
0000
0000
0000
0000
0000
0330
0000
0000
0000
0000
0000
0000
0000
0000
0000
0000
0000
0000
0000
0000
2002
0000
0000
0000
0000
0000
0000
0000
0000
0000
0000
0000
0003
0000
0000
0000
3000
0000
0000
0000
0000
0000
0000
0000
,
0004
0000
0000
0003
0000
0000
0000
0000
0400
0000
0000
0300
0000
0000
0000
0000
0110
0000
0000
0000
0000
0000
0000
0000
0001
0000
0000
0000
1000
0000
0000
0000
0100
0000
0000
0000
0010
0000
0000
0000
2000
3000
0000
0000
0010
0000
0000
0000
0100
0000
0000
0000
1000
0000
0000
0000
0000
0000
0000
0000
0001
0000
0000
0000
,
0100
0010
1000
0001
0010
0010
0100
0100
2000
0000
3001
0000
0101
0000
0200
0000
,
0310
0000
2000
0000
3001
0000
0020
0000
0430
0300
1000
0001
1000
0010
0001
0010
,
1000
0010
0001
0010
2000
3000
0002
0003
0040
0130
0000
0000
2002
0000
3000
0003
,
0400
0000
0300
0000
0040
0000
0030
0000
1000
0000
0000
0000
0001
0000
0000
0000
1000
0000
0001
0000
1000
0001
1000
0001
1000
0000
0010
0000
0100
0000
0010
0000
,
2000
0000
0000
0000
0000
0000
0000
0000
0000
0000
0000
0000
0000
0000
0000
0000
0000
0000
0000
0000
0000
0000
0000
0000
3001
0000
0000
0000
0000
0000
0000
0000
0000
0000
0000
0000
0010
0000
0000
0000
0000
0000
0000
0000
0000
0000
0000
0000
0200
0000
0000
0000
0000
0000
0300
0000
0000
0000
0000
0000
0000
0000
0000
0000
0000
0000
0000
0000
0000
0000
0000
0000
1000
0000
0000
0000
0000
0000
0000
0000
0000
0000
0000
0000
0000
0000
0000
0000
0000
0000
0000
0000
0000
0000
0000
0000
1001
0000
0000
0000
0000
0000
0000
0000
0000
0000
0000
0000
0000
0000
0000
0000
0000
0000
0000
0000
0000
0000
0000
0000
0001
0000
0000
0000
0000
0000
0000
0000
0000
0000
0000
0000
0000
0000
0000
0000
0000
0000
0000
0000
0000
0000
0000
00M0
0200
0000
0000
0000
0000
0000
0000
0000
0000
0000
0000
0000
0000
0000
0000
0000
0000
0000
0300
0000
0000
0000
0000
M000
0020
0000
0000
0000
0000
0000
0000
0000
0000
0000
0000
0000
0000
0000
0000
0000
0000
0000
0030
0000
0000
0000
0000
000M
,
2000
0000
0000
0000
0000
0000
0000
0000
0000
0000
0000
0000
0000
0000
0000
0000
0000
0000
3000
0000
0000
0000
0000
00M0
0002
0000
0000
0000
0000
0000
0000
0000
0000
0000
0000
0000
0000
0000
0000
0000
0000
0000
0003
0000
0000
0000
0000
0M00
0020
0000
0000
0000
0000
0000
0000
0000
0000
0000
0000
0000
0000
0000
0000
0000
0000
0000
0030
0000
0000
0000
0000
M000
0200
0000
0000
0000
0000
0000
0000
0000
0000
0000
0000
0000
0000
0000
0000
0000
0000
0000
0300
0000
0000
0000
0000
0000
1000
0000
0000
0000
0000
0000
0000
0000
0000
0000
0000
0000
0001
0000
0000
0000
0000
0000
0000
0000
0000
0000
0000
0000
1000
0000
0000
0000
0000
0000
0000
0000
0000
0000
0000
0000
0001
0000
0000
0000
0000
0000
0000
0000
0000
0000
0000
0000
0200
0000
0000
0000
0000
0000
0000
0000
0000
0000
0000
0000
0300
0000
0000
0000
0000
0000
0000
0000
0000
0000
0000
0000
0000
0000
0000
0000
0000
0000
0000
0000
0000
0000
0000
0000
0001
0000
0000
0000
0000
0000
0000
0000
0000
0000
0000
0000
,
1000
0000
0001
0000
1000
0000
0000
0000
0100
00M0
0100
0000
0100
0000
0100
0000
0200
0000
0000
0300
0000
0000
0000
0000
0010
0000
0000
0000
0001
0000
0000
0000
,
1000
0000
0000
0000
0000
0000
0000
0000
0000
0000
0000
0000
0010
0000
0000
0000
0000
0000
0000
0000
0000
0000
0000
0000
0100
0000
0000
0000
0000
0000
0000
0000
0001
0000
0000
0000
1000
0000
0000
0000
0000
0000
0100
0000
0000
0000
0000
0000
0020
0000
0000
0000
0000
0000
0030
0000
0000
0000
0000
0000
0200
0000
0000
0000
0000
0000
0300
0000
0000
1000
0000
0000
0001
0000
0000
0000
0000
0000
0000
0000
0000
0000
0000
0000
0100
0000
0000
0000
0000
0000
0020
0000
0000
0030
0000
0000
,
1000
0001
0010
0100
2000
3001
01M1
01M0
,
00M1
1000
01M0
0000
11M0
0000
10M0
0001
01M0
0000
0010
0000
1000
0001
0010
0001
,
1000
0001
0010
0001
1000
0000
0010
0000
0220
0000
0330
0000
1002
0000
0013
0000
,
0100
0000
0000
0000
0000
0000
0000
0000
0000
0000
0000
0000
1000
0000
0000
0000
0000
0000
0000
0000
0000
0000
0000
0000
0000
0000
0000
0000
0000
0000
0000
0000
0000
0000
0000
0000
0001
0000
0000
0000
0000
0000
0000
0000
0000
0000
0000
0000
0100
0000
0000
0000
0000
0000
0000
0000
0000
0000
0000
0000
0010
0000
0000
0000
0000
0000
0000
0000
0000
0000
0000
0000
0100
0000
0000
0000
0000
0000
0000
0000
0000
0000
0000
0000
0001
0000
0000
0000
0000
0000
0000
0000
0000
0000
0000
0000
1000
0000
0000
0000
0000
0000
0000
0000
0000
0000
0000
0000
0100
0000
0000
0000
0000
0000
0000
0000
0000
0000
0000
0000
0001
0000
0000
0000
0000
0000
0000
0000
0000
0000
0000
0000
0100
0000
0000
0000
0000
0000
0000
0000
0000
0000
0000
0000
0010
0000
0000
0000
0000
0000
0000
0000
0000
0000
0001
0000
0000
0000
0000
0000
0000
0000
0000
0000
0000
0000
0000
0000
1000
0000
0000
0000
0000
0000
0000
0000
0000
0000
0000
0000
0002
0000
0000
0003
0000
0000
0000
0000
0000
0000
0000
0000
,
0100
0000
0000
0000
0000
0000
0000
0000
0000
0000
0000
0000
0010
0000
0000
0000
0000
0000
0000
0000
0000
0000
0000
0000
0100
0000
0000
0000
0000
0000
0000
0000
0000
0000
0000
0000
0010
0000
0000
0000
0000
0000
0000
0000
0000
0000
0000
0000
2000
0000
0000
0000
0000
0000
0000
0000
0000
0000
0000
0000
0000
0000
0000
0000
0000
0000
0000
0000
0000
0000
0000
0000
3001
0000
0000
0000
0000
0000
0000
0000
0000
0000
0000
0000
0000
0000
0000
0000
0000
0000
0000
0000
0000
0000
0000
0000
0012
0000
0000
0000
0000
0000
0000
0000
0000
0000
0000
0000
0000
0000
0000
0000
0000
0000
0000
0000
0000
0000
0000
0000
1003
0000
0000
0000
0000
0000
0000
0000
0000
0000
0000
0000
0000
0000
0000
0000
0000
0000
0000
0000
0000
0000
0000
0M00
0020
0000
0000
0000
0000
0000
0000
0000
0000
0000
0000
0000
0000
0000
0000
0000
0000
0000
0000
0000
0000
0030
0000
000M
0200
0000
0000
0000
0000
0000
0000
0000
0000
0000
0000
0000
0000
0000
0000
0000
0000
0000
0000
0000
0000
0300
0000
M000
,
0102
0000
0000
0000
0000
0000
0000
0000
0000
0000
0000
0000
0000
0000
0000
0000
0000
0000
0000
0000
0000
0003
0000
0M00
2000
0000
0000
0000
0000
0000
0000
0000
0000
0000
0000
0000
0000
0000
0000
0000
0000
0000
0000
0000
0000
3000
0000
00M0
1200
0000
0000
0000
0000
0000
0000
0000
0000
0000
0000
0000
0000
0000
0000
0000
0000
0000
0000
0000
0000
0300
0000
000M
0020
0000
0000
0000
0000
0000
0000
0000
0000
0000
0000
0000
0000
0000
0000
0000
0000
0000
0000
0000
0000
0030
0000
0000
0001
0000
0000
0000
0000
0000
0000
0000
0000
0000
0000
0000
0010
0000
0000
0000
0000
0000
0000
0000
0000
0000
0000
0000
0100
0000
0000
0000
0000
0000
0000
0000
0000
0000
0000
0000
1000
0000
0000
0000
0000
0000
0000
0000
0000
0000
0000
0000
0001
0000
0000
0000
0000
0000
0000
0000
0000
0000
0000
0000
0100
0000
0000
0000
0000
0000
0000
0000
0000
0000
0000
0000
0040
0000
0000
0000
0000
0000
0030
0000
0000
0000
0000
0000
1000
0000
0000
0000
0000
0000
0000
0000
0000
0000
0000
0000
,
0001
0000
0100
0000
0040
0030
1000
0000
0001
0000
0010
0000
0100
0000
0010
0000
0002
0000
0000
0000
1003
0000
0000
0000
0001
0000
0100
0000
0010
0000
0100
0000
,
0001
0000
0000
0000
0100
0000
0000
0000
0010
0000
0000
0000
1000
0000
0000
0000
0002
0000
0000
0000
0003
0000
0000
0000
0020
0000
0000
0000
0030
0000
0000
0000
2000
0000
0000
0000
0000
0000
3000
0000
0010
0000
0000
0000
0000
0001
0000
0000
1000
0000
0000
0000
0010
0000
0000
0000
0100
0000
0000
0000
0010
0000
0000
0000
,
1000
0000
0000
0000
0010
0000
0000
0000
0100
0000
0000
0000
0001
0000
0000
0000
2000
0000
0000
0000
3000
0000
0000
0000
0200
0000
0000
0000
0300
0000
0000
0000
0002
0000
0000
0000
0000
0000
0003
0000
0100
0000
0000
0000
0000
1000
0000
0000
0001
0000
0000
0000
0010
0000
0000
0000
0100
0000
0000
0000
0010
0000
0000
0000
,
0001
0000
0000
0000
0010
0000
0000
0000
0100
0000
0000
0000
1000
0000
0000
0000
0002
0000
0000
0000
0003
0000
0000
0000
0200
0000
0000
0000
0300
0000
0000
0000
2000
0000
0000
0000
0000
0000
3000
0000
0100
0000
0000
0000
0000
0001
0000
0000
1000
0000
0000
0000
0100
0000
0000
0000
0010
0000
0000
0000
0100
0000
0000
0000
,
1000
0000
0100
0000
0010
0000
0001
0000
2000
0000
3000
0000
0020
0000
0030
0000
0002
0000
0000
0003
0010
0000
1000
0000
0100
M00M
0100
0000
0001
0000
0010
0000
,
2000
0000
3000
0000
0010
0000
0001
0000
0100
M00M
0100
0000
1000
0000
0010
0000
0002
0000
0003
0000
0010
0000
1000
0000
0100
M00M
0100
0000
0001
0000
0010
0000
,
2000
0000
0000
0000
0000
0000
3000
0000
0000
0000
0000
0000
0010
0000
0000
0000
0000
0000
0001
0000
0000
0000
0000
0000
0100
0000
0000
M00M
0000
0000
0100
0000
0000
0000
0000
0000
1000
0000
0000
0000
0000
0000
0010
0000
0000
0000
0000
0000
0002
0000
0000
0000
0000
0000
0003
0000
0000
0000
0000
0000
0010
0000
0000
0000
0000
0000
1000
0000
0000
0000
0000
0000
0200
0000
0000
0000
0000
0300
0000
0000
0000
0000
0000
0000
0010
0000
0000
0000
0000
0000
0001
0000
0000
0000
0000
0000
,
0200
0000
0000
0000
0300
0000
0000
0000
0000
0000
0000
0000
0010
0000
0000
0000
0000
0000
1000
0000
0000
0000
0000
0000
0200
0000
0000
0300
0000
0000
0000
0000
0000
0000
0000
0000
0010
0000
0000
0000
0000
0000
0001
0000
0000
0000
0000
0000
0200
0000
0300
0000
0000
0000
0000
0000
0000
0000
0000
0000
0010
0000
0000
0000
0000
0000
1000
0000
0000
0000
0000
0000
0001
0000
0000
0000
0000
0000
0010
0000
0000
0000
0000
0000
0100
0000
0000
0000
0000
0000
0010
0000
0000
0000
0000
0000
,
0001
0000
0000
0010
0000
0000
0100
0000
0000
1000
0000
0000
0001
0000
0000
0100
0000
0000
0010
0000
0000
0100
0000
0000
0001
1000
0000
0000
0000
0000
0000
0000
0000
0000
0000
0000
2002
0000
0000
0000
0000
0000
0000
0000
0000
0000
0000
0000
,
3003
0000
0000
0000
0000
0000
0000
0000
0000
00M0
0000
0000
0000
0000
0000
0000
0000
0000
0M00
0000
0000
0000
0000
0000
0000
0000
00M0
0000
0000
0000
0000
0000
0000
0000
0M00
0000
0000
0000
0000
0000
0000
00M0
0000
0000
0000
0M00
0000
0000
0000
00M0
0000
0000
0000
0M00
0000
0000
0000
00M0
0000
0000
0000
0M00
0000
0000
,
0000
00M0
0000
0000
0000
0M00
0000
0000
0000
00M0
0000
0000
0000
0M00
0000
0000
0000
00M0
0000
0000
0000
0M00
0000
0000
0000
0000
0000
0000
0000
0000
0000
0000
0000
0000
0000
0000
0000
0000
0000
0000
0000
0000
0000
0000
0000
0000
0000
0000
0000
0000
0000
0000
0000
0000
0000
0000
0000
0000
0000
0000
0000
0000
0000
0000
;
