#VERSION:0.83;
#TITLE:Scream out!;
#SUBTITLE:;
#ARTIST:A-One;
#TITLETRANSLIT:;
#SUBTITLETRANSLIT:;
#ARTISTTRANSLIT:;
#GENRE:;
#CREDIT:NAOKI;
#MUSIC:Scream out!.ogg;
#BANNER:Scream_out-bn.png;
#BACKGROUND:Scream_out-bg.png;
#CDTITLE:naokicdtitle.png;
#SAMPLESTART:46.585;
#SAMPLELENGTH:11.636;
#SELECTABLE:YES;
#OFFSET:-0.040;
#BPMS:0.000=165.000;
#STOPS:;
#BGCHANGES:;
#FGCHANGES:;

//--------------- dance-single - 15*/15*/15* ----------------
#NOTEDATA:;
#STEPSTYPE:dance-single;
#DESCRIPTION:15*/15*/15*;
#DIFFICULTY:Easy;
#METER:13;
#RADARVALUES:0,0,0,0,0;
#NOTES:
0000
0000
0000
0000
,
0000
0000
0000
0000
,
1000
0010
0100
0001
1000
0100
0010
0001
,
0100
0000
0010
0000
1000
0000
0001
0000
0010
0000
0100
0000
1000
0010
0100
0001
,
0010
0100
1000
0010
0100
0001
0010
0001
0100
0010
1000
0100
0010
0001
0100
0001
,
0010
0100
1000
0010
0100
0001
0010
0001
1000
0010
0100
0001
1000
0100
0010
0001
,
0200
0000
0310
0000
0100
0001
1000
0100
0010
0001
0100
0010
1000
0001
0020
0000
,
0000
0000
0000
0030
0200
0000
0300
0000
2000
0000
0000
3000
0002
0000
0000
0003
,
1000
0000
0010
0100
0000
0001
0000
1000
0000
0100
0000
0010
0000
0001
0100
0001
,
1000
0000
0100
0010
0000
0001
0000
1000
0000
0010
0000
0100
0000
0001
0010
0001
,
1000
0010
1000
0001
0000
0010
0000
0100
0000
1000
0000
0001
0000
1000
0010
1000
,
0001
0010
0001
1000
0000
0001
0000
0100
0000
0010
0000
1000
0001
0010
0100
1000
,
0001
0000
0100
0010
0000
1000
0000
0001
0000
0010
0000
0100
0000
1000
0010
1000
,
0001
0000
0010
0100
0000
1000
0000
0001
0000
0100
0000
0010
0000
1000
0100
1000
,
0001
0100
0001
1000
0000
0100
0000
0010
0000
0001
0000
1000
0000
0010
0100
0001
,
1000
0100
1000
0001
0000
1000
0010
0100
0002
0000
0003
2100
0000
3000
0102
0000
,
1003
0100
1000
0001
0100
0010
1000
0002
,
0010
2003
0010
3200
0310
0001
0100
0010
,
2000
0001
3100
0010
0001
1000
0010
0100
,
0001
0010
0001
1000
0010
0100
0001
1000
0100
1000
0001
0100
0001
1000
0100
0010
,
0001
0100
0001
1000
0100
0010
0001
2000
,
0010
3002
0010
0203
0310
1000
0100
0010
,
0002
1000
0103
0010
1000
0100
0010
0002
,
0003
0200
0300
0020
0030
2000
0000
3000
,
0001
0000
0000
0010
0100
0000
1000
0000
0010
0000
1000
0000
0001
0000
0010
0000
,
0001
0000
0000
0100
0010
0000
1000
0000
0001
0000
1000
0000
0100
0000
0010
0000
,
0001
0000
0100
0000
0020
0030
1000
0000
0100
00M0
0100
0000
0001
0000
2000
3000
,
0100
0000
2000
3000
0001
0000
2000
3000
0010
0000
2000
0000
3001
0000
0001
0000
,
0010
0000
0000
0100
1000
0000
0010
0000
1000
0000
0001
0000
0010
0000
0001
0000
,
0100
0000
0000
0010
1000
0000
0100
0000
1000
0000
0001
0000
0100
0000
0001
0000
,
0020
0000
0030
0000
0200
0000
0300
2000
,
3000
0000
0020
0030
0200
0300
0002
0000
0003
0000
0020
0000
0000
0000
0030
0000
,
0001
0100
0010
1000
0010
0100
0001
1000
0100
0010
0001
0010
0100
1000
0001
0100
,
0010
1000
0001
0010
0001
1000
0010
1000
0001
0010
0100
1000
0001
0100
0001
1000
,
0001
0010
0100
1000
0001
0100
0001
1000
0100
1000
0001
0100
0010
1000
0001
1000
,
0100
0010
0001
1000
0001
0100
0010
1000
0001
1000
0100
0010
0001
1000
0010
1000
,
0001
0010
0001
0100
0001
1000
0100
1000
0001
0100
0001
0010
0001
1000
0010
0100
,
0001
1000
0001
0010
0100
1000
0010
1000
0001
0010
0100
1000
0001
1000
0010
1000
,
0001
0010
0100
1000
0001
1000
0010
0100
0001
1000
0001
0010
0100
1000
0001
1000
,
0010
1000
0001
0010
0100
1000
0001
1000
0010
0100
0001
1000
0100
0010
0001
1000
,
0010
0100
0001
0100
0010
1000
0001
0010
0100
1000
0100
0010
0001
1000
0010
0100
,
0001
0010
0001
1000
0010
1000
0001
0010
0100
0010
0001
1000
0010
1000
0001
1000
,
0100
0010
0001
1000
0010
1000
0001
0010
0100
1000
0001
1000
0010
0100
0001
1000
,
0001
0010
0100
1000
0001
0100
0010
1000
0100
0010
0001
1000
0010
0100
0001
1000
,
0100
1000
0010
1000
0001
0010
0001
1000
0010
1000
0100
1000
0001
0100
0010
1000
,
0001
0010
0001
1000
0001
0100
0010
0100
0001
1000
0100
1000
0010
1000
0001
0010
,
0001
0100
0010
1000
0001
0010
0100
1000
0001
0100
0001
1000
0100
0010
0001
1000
,
0001
0100
0010
1000
0001
1000
0100
0010
0001
0100
0010
1000
0001
0010
0100
1000
,
0010
0000
0100
0001
0000
1000
0100
0000
0010
0000
0001
0000
0001
0000
0001
0000
,
0100
0000
0010
1000
0000
0001
0010
0000
0100
0000
1000
0000
1000
0000
1000
0000
,
0001
0000
0100
0001
0000
1000
0001
0000
0010
0000
0100
0000
0100
0000
0100
0000
,
1000
0000
0010
0000
1000
0100
0010
0001
2000
0000
0010
0000
3002
0000
0010
0000
,
1003
0000
0010
1000
0000
0001
1000
0000
0100
0000
0010
0000
0010
0000
0010
0000
,
0001
0000
0100
0001
0000
1000
0001
0000
0010
0000
0100
0000
0100
0000
0100
0000
,
0010
0000
0001
1000
0000
0010
0100
0000
0001
0000
1000
0000
1000
0000
1000
0000
,
0200
0000
0310
0000
0001
0100
0010
1000
0002
0000
0000
0003
2000
0000
0000
3000
,
0001
0000
0010
0100
0000
1000
0000
0001
0000
0100
0000
0010
0000
1000
0100
1000
,
0001
0000
0100
0010
0000
1000
0000
0001
0000
0010
0000
0100
0000
1000
0010
1000
,
0001
0010
0001
1000
0000
0010
0000
0100
0000
0001
0000
1000
0000
0001
0010
0001
,
1000
0010
1000
0001
0000
0010
0000
0100
0000
1000
0000
0001
0100
0010
1000
0001
,
0010
0000
0100
1000
0000
0001
0000
1000
0000
0010
0000
0100
0000
0001
0010
0001
,
1000
0000
0010
0100
0000
0001
0000
1000
0000
0100
0000
0010
0000
0001
0100
0001
,
1000
0100
1000
0001
0000
0100
0000
0010
0000
1000
0000
0001
0000
0010
0100
1000
,
0001
0100
0001
1000
0000
0001
0010
0100
2000
0000
3000
0102
0000
0003
2100
0000
,
3001
0100
0001
1000
0100
0010
0001
2000
,
0010
3002
0010
0203
0310
1000
0100
0010
,
0002
1000
0103
0010
1000
0001
0010
0100
,
1000
0010
1000
0001
0010
0100
1000
0001
0100
0001
1000
0100
1000
0001
0100
0010
,
1000
0100
1000
0001
0100
0010
1000
0002
,
0010
2003
0010
3200
0310
0001
0100
0010
,
2000
0001
3100
0010
0001
0100
0010
2000
,
3000
0200
0300
0020
0030
0002
0000
0003
,
1000
0000
0000
0010
0100
0000
0001
0000
0010
0000
0001
0000
1000
0000
0010
0000
,
1000
0000
0000
0100
0010
0000
0001
0000
1000
0000
0001
0000
0100
0000
0010
0000
,
1000
0000
0100
0000
0020
0030
0001
0000
0100
00M0
0100
0000
1000
0000
0002
0003
,
0100
0000
0002
0003
1000
0000
0002
0003
0010
0000
0002
0000
1003
0000
1000
0000
,
0010
0000
0000
0100
0001
0000
0010
0000
0001
0000
1000
0000
0010
0000
1000
0000
,
0100
0000
0000
0010
0001
0000
0100
0000
0001
0000
1000
0000
0100
0000
1000
0000
,
0020
0000
0030
0000
0200
0000
0300
0002
,
0003
0000
0020
0030
0200
0300
2000
0000
3000
0000
0020
0000
0000
0000
0030
0000
,
1000
0100
0010
0001
0010
0100
1000
0001
0100
0010
1000
0010
0100
0001
1000
0100
,
0010
0001
1000
0010
1000
0001
0010
0001
1000
0010
0100
0001
1000
0100
1000
0001
,
1000
0010
0100
0001
1000
0100
1000
0001
0100
0001
1000
0100
0010
0001
1000
0001
,
0100
0010
1000
0001
1000
0100
0010
0001
1000
0001
0100
0010
1000
0001
0010
0001
,
1000
0010
1000
0100
1000
0001
0100
0001
1000
0100
1000
0010
1000
0001
0010
0100
,
1000
0001
1000
0010
0100
0001
0010
0001
1000
0010
0100
0001
1000
0001
0010
0001
,
1000
0010
0100
0001
1000
0001
0010
0100
1000
0001
1000
0010
0100
0001
1000
0001
,
0010
0001
1000
0010
0100
0001
1000
0001
0010
0100
1000
0001
0100
0010
1000
0001
,
0010
0100
1000
0100
0010
0001
1000
0010
0100
0001
0100
0010
1000
0001
0010
0100
,
1000
0010
1000
0001
0010
0001
1000
0010
0100
0010
1000
0001
0010
0001
1000
0001
,
0100
0010
1000
0001
0010
0001
1000
0010
0100
0001
1000
0001
0010
0100
1000
0001
,
1000
0010
0100
0001
1000
0100
0010
0001
0100
0010
1000
0001
0010
0100
1000
0001
,
0100
0001
0010
0001
1000
0010
1000
0001
0010
0001
0100
0001
1000
0100
0010
0001
,
1000
0010
1000
0001
1000
0100
0010
0100
1000
0001
0100
0001
0010
0001
1000
0010
,
1000
0100
0010
0001
1000
0010
0100
0001
1000
0100
1000
0001
0100
0010
1000
0001
,
1000
0100
0010
0001
1000
0001
0100
0010
1000
0100
0010
0001
1000
0010
0100
0001
,
0010
0000
0100
1000
0000
0001
0100
0000
0010
0000
1000
0000
1000
0000
1000
0000
,
0100
0000
0010
0001
0000
1000
0010
0000
0100
0000
0001
0000
0001
0000
0001
0000
,
1000
0000
0100
1000
0000
0001
1000
0000
0010
0000
0100
0000
0100
0000
0100
0000
,
0001
0000
0010
0000
0001
0100
0010
1000
0002
0000
0010
0000
2003
0000
0010
0000
,
3001
0000
0010
0001
0000
1000
0001
0000
0100
0000
0010
0000
0010
0000
0010
0000
,
1000
0000
0100
1000
0000
0001
1000
0000
0010
0000
0100
0000
0100
0000
0100
0000
,
0010
0000
1000
0001
0000
0010
0100
0000
1000
0000
0001
0000
0001
0000
0001
0000
,
0200
0000
0310
0000
1000
0100
0010
0001
2000
0000
0000
3000
0002
0000
0000
0003
,
1000
0000
0010
0100
0000
0001
0000
1000
0000
0100
0000
0010
0000
0001
0100
0001
,
1000
0000
0100
0010
0000
0001
0000
1000
0000
0010
0000
0100
0000
0001
0010
0001
,
1000
0010
1000
0001
0000
0010
0000
0100
0000
1000
0000
0001
0000
1000
0010
1000
,
0001
0000
0010
0100
0000
1000
0000
0001
0000
0100
0010
1000
0001
1000
0100
0010
,
0001
0000
0100
0010
0000
1000
0000
0001
0000
0010
0000
0100
0000
1000
0010
1000
,
0001
0000
0010
0100
0000
1000
0000
0001
0000
0100
0000
0010
0000
1000
0100
1000
,
0001
0100
0001
1000
0000
0100
0000
0010
0000
0001
0000
1000
0000
0010
0100
0001
,
1000
0100
1000
0001
0000
0100
0001
1000
0200
0000
0300
0020
0000
0030
0002
0000
,
1003
0010
0100
0001
1000
0001
0010
0100
,
0010
0000
0001
0000
1000
0000
0010
0000
0100
0001
1000
0001
0010
0001
1000
0010
,
0100
0000
0001
0000
1000
0000
0100
0000
1000
0000
0001
0000
0100
0000
0010
1000
,
0001
0010
0001
1000
0010
1000
0001
0010
0100
1000
0001
0100
0001
1000
0100
0010
,
0002
1003
0010
1000
0001
1000
0100
0010
,
0001
0100
0001
1000
0100
1000
0001
0100
,
0010
0000
1000
0000
0001
0000
0010
0100
1000
0001
0100
0001
1000
0100
0010
0001
,
0100
0010
1000
0001
0010
0100
1000
0001
1000
0010
0100
0001
1000
0100
0010
0001
,
2000
0000
0000
0000
3010
0000
0100
0001
1000
0100
1000
0001
0100
0001
1000
0100
,
0010
0000
0001
0100
0010
0000
1000
0001
0020
0000
0000
0030
0100
1000
0001
0100
,
0020
0000
0000
0030
1000
0100
0010
0001
1000
0010
1000
0010
0100
0001
1000
0000
,
0200
0000
0000
0300
0010
0000
0002
0000
0100
0000
0000
0000
1003
0000
0100
0000
,
1000
0000
0010
0100
0000
0001
1000
0000
0200
0000
0310
0000
0001
0100
0010
1000
,
0001
0000
0010
0100
0000
1000
0001
0000
0100
0010
1000
0001
0010
0100
1000
0001
,
0200
0000
0310
1000
0000
0001
0010
0000
0100
0000
1000
0001
0000
0100
0010
0000
,
0100
0001
1000
0100
0010
0001
0100
0010
2000
0000
0000
0000
3001
0000
0001
0000
,
1000
0000
0000
0100
0000
0000
0010
0000
0001
0000
0100
0000
0010
0000
1000
0000
,
0001
0000
0000
0010
0000
0000
0100
0000
1000
0000
0001
0000
0100
0000
0010
0000
,
1000
0000
0100
0000
0010
0001
0000
0100
,
0000
0010
0000
1000
0000
0001
1000
0001
,
0010
0000
0000
0100
1000
0000
0010
0000
1000
0000
0001
0000
0010
0000
0001
0000
,
0100
0000
0000
0010
1000
0000
0001
0000
0010
0000
0100
0000
1000
0000
0001
0000
,
0200
0000
0300
0000
0020
0000
0030
2000
,
3000
0000
0200
0300
0020
0030
0002
0000
0003
0000
0200
0000
0000
0000
0300
0000
,
0001
0010
0100
1000
0100
0010
0001
1000
0010
0100
0001
0100
0010
1000
0001
0010
,
0100
1000
0001
0100
0001
1000
0100
1000
0001
0100
0010
1000
0001
0010
0001
1000
,
0001
0100
0010
1000
0001
0010
0001
1000
0010
1000
0001
0010
0100
1000
0001
1000
,
0010
0100
0001
1000
0001
0010
0100
1000
0001
1000
0010
0100
0001
1000
0100
1000
,
0001
0100
0001
0010
0001
1000
0010
1000
0001
0010
0001
0100
0001
1000
0100
0010
,
0001
1000
0001
0100
0010
1000
0100
1000
0001
0100
0010
1000
0001
1000
0100
1000
,
0001
0100
0010
1000
0001
1000
0100
0010
0001
1000
0001
0100
0010
1000
0001
1000
,
0100
1000
0001
0100
0010
1000
0001
1000
0100
0010
0001
1000
0010
0100
0001
1000
,
0100
0010
0001
0010
0100
1000
0001
0100
0010
1000
0010
0100
0001
1000
0100
0010
,
0001
0100
0001
1000
0100
1000
0001
0100
0010
0100
0001
1000
0100
1000
0001
1000
,
0010
0100
0001
1000
0100
1000
0001
0100
0010
1000
0001
1000
0100
0010
0001
1000
,
0001
0100
0010
1000
0001
0010
0100
1000
0010
0100
0001
1000
0100
0010
0001
1000
,
0010
1000
0100
1000
0001
0100
0001
1000
0100
1000
0010
1000
0001
0010
0100
1000
,
0001
0100
0001
1000
0001
0010
0100
0010
0001
1000
0010
1000
0100
1000
0001
0100
,
0001
0010
0100
1000
0001
0100
0010
1000
0001
0010
0001
1000
0010
0100
0001
1000
,
0001
0010
0100
1000
0001
1000
0010
0100
0001
0010
0100
1000
0001
0100
0010
1000
,
0100
0000
0010
0001
0000
1000
0010
0000
0100
0000
0001
0000
0001
0000
0001
0000
,
0010
0000
0100
1000
0000
0001
0100
0000
0010
0000
1000
0000
1000
0000
1000
0000
,
0001
0000
0010
0001
0000
1000
0001
0000
0100
0000
0010
0000
0010
0000
0010
0000
,
1000
0000
0100
0000
1000
0010
0100
0001
2000
0000
0100
0000
3002
0000
0100
0000
,
1003
0000
0100
1000
0000
0001
1000
0000
0010
0000
0100
0000
0100
0000
0100
0000
,
0001
0000
0010
0001
0000
1000
0001
0000
0100
0000
0010
0000
0010
0000
0010
0000
,
0100
0000
0001
1000
0000
0100
0010
0000
0001
0000
1000
0000
1000
0000
1000
0000
,
0020
0000
0130
0000
0001
0010
0100
1000
0002
0000
0100
0003
2000
0000
0100
3000
,
0001
0000
0100
0010
0000
1000
0000
0001
0000
0010
0000
0100
0000
1000
0010
1000
,
0001
0000
0010
0100
0000
1000
0000
0001
0000
0100
0000
0010
0000
1000
0100
1000
,
0001
0100
0001
1000
0000
0100
0000
0010
0000
0001
0000
1000
0000
0001
0100
0001
,
1000
0100
1000
0001
0000
0100
0000
0010
0000
1000
0000
0001
1000
0100
0010
0001
,
1000
0000
0010
0100
0000
0001
0000
1000
0000
0100
0000
0010
0000
0001
0100
0001
,
1000
0000
0100
0010
0000
0001
0000
1000
0000
0010
0000
0100
0000
0001
0010
0001
,
1000
0010
1000
0001
0000
0010
0000
0100
0000
1000
0000
0001
0000
0100
0010
1000
,
0001
0010
0001
1000
0000
0010
0000
0100
0001
1000
0001
0010
0000
0100
1000
0001
,
0100
0000
0010
1000
0000
0001
0000
0010
0000
0100
0000
1000
0000
0001
0100
0001
,
1000
0000
0100
0010
0000
0001
0000
1000
0000
0010
0000
0100
0000
0001
0010
0001
,
1000
0010
1000
0001
0000
0010
0000
0100
0000
1000
0000
0001
0000
1000
0010
1000
,
0001
0000
0010
0100
0000
1000
0000
0001
0000
0100
0010
1000
0001
1000
0100
0010
,
0001
0000
0100
0010
0000
1000
0000
0001
0000
0010
0000
0100
0000
1000
0010
1000
,
0001
0000
0010
0100
0000
1000
0000
0001
0000
0100
0000
0010
0000
1000
0100
1000
,
0001
0100
0001
1000
0000
0100
0000
0010
0000
0001
0000
1000
0000
0010
0100
0001
,
1000
0100
1000
0001
0100
0010
0000
1000
0010
0100
0001
0010
0100
1000
0001
0100
,
0020
0000
0030
0000
;

//--------------- dance-single - 2-8/32/32/40 ----------------
#NOTEDATA:;
#STEPSTYPE:dance-single;
#DESCRIPTION:2-8/32/32/40;
#DIFFICULTY:Medium;
#METER:14;
#RADARVALUES:0,0,0,0,0;
#NOTES:
0000
0000
0000
0000
,
0000
0000
0000
0000
,
1000
0010
0100
0001
1000
0100
0010
0001
,
0100
0000
0010
0000
1000
0000
0001
0000
0010
0000
0100
0000
1000
0010
0100
0001
,
0010
0100
1000
0010
0100
0001
0010
0001
0100
0010
1000
0100
0010
0001
0100
0001
,
0010
0100
1000
0010
0100
0001
0010
0001
1000
0010
0100
0001
1000
0100
0010
0001
,
0200
0000
0310
0000
0100
0001
1000
0100
0010
0001
0100
0010
1000
0001
0020
0000
,
0000
0000
0000
0030
0200
0000
0300
0000
2000
0000
0000
3000
0002
0000
0000
0003
,
1000
0010
1000
0001
0010
0001
1000
0010
0100
0010
1000
0001
0010
0001
0100
0001
,
1000
0100
1000
0001
0100
0001
1000
0100
0010
0100
1000
0001
0100
0010
1000
0001
,
0010
0001
1000
0010
1000
0001
0010
0100
0010
0001
1000
0010
1000
0100
1000
0001
,
0100
0001
1000
0100
1000
0001
0100
0010
1000
0001
0010
0001
1000
0010
0100
0001
,
1000
0100
1000
0001
0100
0001
1000
0100
0010
0100
1000
0001
0100
0001
0010
0001
,
1000
0010
1000
0001
0010
0001
1000
0010
0100
0010
1000
0001
0010
0100
1000
0001
,
0100
0001
1000
0100
1000
0001
0100
0010
1000
0001
1000
0100
0010
0001
1000
0001
,
0100
0010
0100
0001
1000
0100
0010
0001
0100
0010
1000
0100
0010
0001
0100
0001
,
1000
0100
1000
0001
0100
0010
1000
0002
,
0010
2003
0010
3200
0310
0001
0100
0010
,
2000
0001
3100
0010
0001
1000
0010
0100
,
0001
0010
0001
1000
0010
0100
0001
1000
0100
1000
0001
0100
0001
1000
0100
0010
,
0001
0100
0001
1000
0100
0010
0001
2000
,
0010
3002
0010
0203
0310
1000
0100
0010
,
0002
1000
0103
0010
1000
0100
0010
0002
,
0003
0200
0300
0020
0030
2000
0000
3000
,
0001
0010
0001
0100
0001
1000
0100
1000
,
0001
0100
0001
0010
0001
1000
0010
1000
,
0001
0000
0010
0000
0200
0300
1000
0000
0010
0M00
0010
0000
0001
0000
2000
3000
,
0010
0000
2000
3000
0001
0000
2000
3000
0100
0000
2000
0000
3001
0000
0001
0000
,
1000
0100
1000
0010
1000
0001
0010
0001
,
1000
0010
1000
0100
1000
0001
0100
0001
,
0020
0000
0030
0000
0200
0000
0300
2000
,
3000
0000
0020
0030
0200
0300
0002
0000
0003
0000
0020
0000
0000
0000
0030
0000
,
0001
0100
0010
1000
0010
0100
0001
1000
0100
0010
0001
0010
0100
1000
0001
0100
,
0010
1000
0001
0010
0001
1000
0010
1000
0001
0010
0100
1000
0001
0100
0001
1000
,
0001
0010
0100
1000
0001
0100
0001
1000
0100
1000
0001
0100
0010
1000
0001
1000
,
0100
0010
0001
1000
0001
0100
0010
1000
0001
1000
0100
0010
0001
1000
0010
1000
,
0001
0010
0001
0100
0001
1000
0100
1000
0001
0100
0001
0010
0001
1000
0010
0100
,
0001
1000
0001
0010
0100
1000
0010
1000
0001
0010
0100
1000
0001
1000
0010
1000
,
0001
0010
0100
1000
0001
1000
0010
0100
0001
1000
0001
0010
0100
1000
0001
1000
,
0010
1000
0001
0010
0100
1000
0001
1000
0010
0100
0001
1000
0100
0010
0001
1000
,
0010
0100
0001
0100
0010
1000
0001
0010
0100
1000
0100
0010
0001
1000
0010
0100
,
0001
0010
0001
1000
0010
1000
0001
0010
0100
0010
0001
1000
0010
1000
0001
1000
,
0100
0010
0001
1000
0010
1000
0001
0010
0100
1000
0001
1000
0010
0100
0001
1000
,
0001
0010
0100
1000
0001
0100
0010
1000
0100
0010
0001
1000
0010
0100
0001
1000
,
0100
1000
0010
1000
0001
0010
0001
1000
0010
1000
0100
1000
0001
0100
0010
1000
,
0001
0010
0001
1000
0001
0100
0010
0100
0001
1000
0100
1000
0010
1000
0001
0010
,
0001
0100
0010
1000
0001
0010
0100
1000
0001
0100
0001
1000
0100
0010
0001
1000
,
0001
0100
0010
1000
0001
1000
0100
0010
0001
0100
0010
1000
0001
0010
0100
1000
,
0010
1000
0001
0010
0001
1000
0010
1000
0001
0010
0100
1000
0001
1000
0010
1000
,
0001
0010
0001
1000
0010
1000
0001
0010
0100
1000
0001
0100
0001
1000
0001
0010
,
0100
1000
0001
0100
0001
1000
0100
1000
0001
0100
0010
1000
0001
1000
0100
1000
,
0001
0100
0001
1000
0100
1000
0010
1000
0001
0010
0100
1000
0001
0100
0010
1000
,
0100
1000
0001
0100
0001
1000
0100
1000
0001
0100
0010
1000
0001
1000
0100
1000
,
0001
0100
0001
1000
0100
1000
0001
0100
0010
1000
0001
0010
0001
1000
0001
0100
,
0010
1000
0001
0010
0001
1000
0010
1000
0001
0010
0100
1000
0001
1000
0010
1000
,
0001
0010
0001
1000
0010
0100
0001
1000
0001
0010
0100
1000
0001
0100
0010
1000
,
0001
0010
0001
1000
0010
1000
0001
0010
0100
0010
0001
1000
0010
1000
0100
1000
,
0001
0100
0001
1000
0100
1000
0001
0100
0010
0100
0001
1000
0100
0010
0001
1000
,
0010
1000
0001
0010
0001
1000
0010
0100
0010
1000
0001
0010
0001
0100
0001
1000
,
0100
1000
0001
0100
0001
1000
0100
0010
0001
1000
0010
1000
0001
0010
0100
1000
,
0001
0100
0001
1000
0100
1000
0001
0100
0010
0100
0001
1000
0100
1000
0010
1000
,
0001
0010
0001
1000
0010
1000
0001
0010
0100
0010
0001
1000
0010
0100
0001
1000
,
0100
1000
0001
0100
0001
1000
0100
0010
0100
1000
0001
0100
0010
1000
0001
1000
,
0100
0010
0001
1000
0001
0100
0010
1000
0100
0010
0001
0100
0010
1000
0100
1000
,
0001
0100
0001
1000
0100
0010
0001
2000
,
0010
3002
0010
0203
0310
1000
0100
0010
,
0002
1000
0103
0010
1000
0001
0010
0100
,
1000
0010
1000
0001
0010
0100
1000
0001
0100
0001
1000
0100
1000
0001
0100
0010
,
1000
0100
1000
0001
0100
0010
1000
0002
,
0010
2003
0010
3200
0310
0001
0100
0010
,
2000
0001
3100
0010
0001
0100
0010
2000
,
3000
0200
0300
0020
0030
0002
0000
0003
,
1000
0010
1000
0100
1000
0001
0100
0001
,
1000
0100
1000
0010
1000
0001
0010
0001
,
1000
0000
0010
0000
0200
0300
0001
0000
0010
0M00
0010
0000
1000
0000
0002
0003
,
0010
0000
0002
0003
1000
0000
0002
0003
0100
0000
0002
0000
1003
0000
1000
0000
,
0001
0100
0001
0010
0001
1000
0010
1000
,
0001
0010
0001
0100
0001
1000
0100
1000
,
0020
0000
0030
0000
0200
0000
0300
0002
,
0003
0000
0020
0030
0200
0300
2000
0000
3000
0000
0020
0000
0000
0000
0030
0000
,
1000
0100
0010
0001
0010
0100
1000
0001
0100
0010
1000
0010
0100
0001
1000
0100
,
0010
0001
1000
0010
1000
0001
0010
0001
1000
0010
0100
0001
1000
0100
1000
0001
,
1000
0010
0100
0001
1000
0100
1000
0001
0100
0001
1000
0100
0010
0001
1000
0001
,
0100
0010
1000
0001
1000
0100
0010
0001
1000
0001
0100
0010
1000
0001
0010
0001
,
1000
0010
1000
0100
1000
0001
0100
0001
1000
0100
1000
0010
1000
0001
0010
0100
,
1000
0001
1000
0010
0100
0001
0010
0001
1000
0010
0100
0001
1000
0001
0010
0001
,
1000
0010
0100
0001
1000
0001
0010
0100
1000
0001
1000
0010
0100
0001
1000
0001
,
0010
0001
1000
0010
0100
0001
1000
0001
0010
0100
1000
0001
0100
0010
1000
0001
,
0010
0100
1000
0100
0010
0001
1000
0010
0100
0001
0100
0010
1000
0001
0010
0100
,
1000
0010
1000
0001
0010
0001
1000
0010
0100
0010
1000
0001
0010
0001
1000
0001
,
0100
0010
1000
0001
0010
0001
1000
0010
0100
0001
1000
0001
0010
0100
1000
0001
,
1000
0010
0100
0001
1000
0100
0010
0001
0100
0010
1000
0001
0010
0100
1000
0001
,
0100
0001
0010
0001
1000
0010
1000
0001
0010
0001
0100
0001
1000
0100
0010
0001
,
1000
0010
1000
0001
1000
0100
0010
0100
1000
0001
0100
0001
0010
0001
1000
0010
,
1000
0100
0010
0001
1000
0010
0100
0001
1000
0100
1000
0001
0100
0010
1000
0001
,
1000
0100
0010
0001
1000
0001
0100
0010
1000
0100
0010
0001
1000
0010
0100
0001
,
0010
0001
1000
0010
1000
0001
0010
0001
1000
0010
0100
0001
1000
0001
0010
0001
,
1000
0010
1000
0001
0010
0001
1000
0010
0100
0001
1000
0100
1000
0001
1000
0010
,
0100
0001
1000
0100
1000
0001
0100
0001
1000
0100
0010
0001
1000
0001
0100
0001
,
1000
0100
1000
0001
0100
0001
0010
0100
1000
0010
0100
0001
1000
0100
0010
0001
,
0100
0001
1000
0100
1000
0001
0100
0001
1000
0100
0010
0001
1000
0001
0100
0001
,
1000
0100
1000
0001
0100
0001
1000
0100
0010
0001
1000
0010
1000
0001
1000
0100
,
0010
0001
1000
0010
1000
0001
0010
0001
1000
0010
0100
0001
1000
0001
0010
0001
,
1000
0010
1000
0100
1000
0001
0100
0001
1000
0100
0010
0001
1000
0010
0100
0001
,
1000
0100
1000
0001
0100
0001
1000
0100
0010
0100
1000
0001
0100
0001
0010
0001
,
1000
0010
1000
0001
0010
0001
1000
0010
0100
0010
1000
0001
0010
0100
1000
0001
,
0100
0001
1000
0100
1000
0001
0100
0010
0100
0001
1000
0100
1000
0010
1000
0001
,
0010
0001
1000
0010
1000
0001
0010
0100
1000
0001
0100
0001
1000
0100
0010
0001
,
1000
0010
1000
0001
0010
0001
1000
0010
0100
0010
1000
0001
0010
0001
0100
0001
,
1000
0100
1000
0001
0100
0001
1000
0100
0010
0100
1000
0001
0100
0010
1000
0001
,
0010
0001
1000
0010
1000
0001
0010
0100
0010
0001
1000
0010
0100
0001
1000
0001
,
0010
0100
0010
0001
1000
0010
0100
0001
0010
0100
1000
0010
0100
0001
0010
0001
,
2000
3010
0100
0001
1000
0001
0010
0100
,
0010
0000
0001
0000
1000
0000
0010
0000
0100
0001
1000
0001
0010
0001
1000
0010
,
0100
0000
0001
0000
1000
0000
0100
0000
1000
0000
0001
0000
0100
0000
0010
1000
,
0001
0010
0001
1000
0010
1000
0001
0010
0100
1000
0001
0100
0001
1000
0100
0010
,
0002
1003
0010
1000
0001
1000
0100
0010
,
0001
0100
0001
1000
0100
1000
0001
0100
,
0010
0000
1000
0000
0001
0000
0010
0100
1000
0001
0100
0001
1000
0100
0010
0001
,
0100
0010
1000
0001
0010
0100
1000
0001
1000
0010
0100
0001
1000
0100
0010
0001
,
2000
0000
0000
0000
3010
0000
0100
0001
1000
0100
1000
0001
0100
0001
1000
0100
,
0010
0000
0001
0100
0010
0000
1000
0001
0020
0000
0000
0030
0100
1000
0001
0100
,
0020
0000
0000
0030
1000
0100
0010
0001
1000
0010
1000
0010
0100
0001
1000
0000
,
0200
0000
0000
0300
0010
0000
0002
0000
0100
0000
0000
0000
1003
0000
0100
0000
,
1000
0000
0010
0100
0000
0001
1000
0000
0200
0000
0310
0000
0001
0100
0010
1000
,
0001
0000
0010
0100
0000
1000
0001
0000
0100
0010
1000
0001
0010
0100
1000
0001
,
0200
0000
0310
1000
0000
0001
0010
0000
0100
0000
1000
0001
0000
0100
0010
0000
,
0100
0001
1000
0100
0010
0001
0100
0010
2000
0000
0000
0000
3001
0000
0001
0000
,
1000
0000
0000
0100
0000
0000
0010
0000
0001
0000
0100
0000
0010
0000
1000
0000
,
0001
0000
0000
0010
0000
0000
0100
0000
1000
0000
0001
0000
0100
0000
0010
0000
,
1000
0000
0100
0000
0010
0001
0000
0100
,
0000
0010
0000
1000
0000
0001
0010
0100
,
1000
0010
1000
0100
1000
0001
0100
0001
,
1000
0100
1000
0010
1000
0001
0010
0001
,
0200
0000
0300
0000
0020
0000
0030
2000
,
3000
0000
0200
0300
0020
0030
0002
0000
0003
0000
0200
0000
0000
0000
0300
0000
,
0001
0010
0100
1000
0100
0010
0001
1000
0010
0100
0001
0100
0010
1000
0001
0010
,
0100
1000
0001
0100
0001
1000
0100
1000
0001
0100
0010
1000
0001
0010
0001
1000
,
0001
0100
0010
1000
0001
0010
0001
1000
0010
1000
0001
0010
0100
1000
0001
1000
,
0010
0100
0001
1000
0001
0010
0100
1000
0001
1000
0010
0100
0001
1000
0100
1000
,
0001
0100
0001
0010
0001
1000
0010
1000
0001
0010
0001
0100
0001
1000
0100
0010
,
0001
1000
0001
0100
0010
1000
0100
1000
0001
0100
0010
1000
0001
1000
0100
1000
,
0001
0100
0010
1000
0001
1000
0100
0010
0001
1000
0001
0100
0010
1000
0001
1000
,
0100
1000
0001
0100
0010
1000
0001
1000
0100
0010
0001
1000
0010
0100
0001
1000
,
0100
0010
0001
0010
0100
1000
0001
0100
0010
1000
0010
0100
0001
1000
0100
0010
,
0001
0100
0001
1000
0100
1000
0001
0100
0010
0100
0001
1000
0100
1000
0001
1000
,
0010
0100
0001
1000
0100
1000
0001
0100
0010
1000
0001
1000
0100
0010
0001
1000
,
0001
0100
0010
1000
0001
0010
0100
1000
0010
0100
0001
1000
0100
0010
0001
1000
,
0010
1000
0100
1000
0001
0100
0001
1000
0100
1000
0010
1000
0001
0010
0100
1000
,
0001
0100
0001
1000
0001
0010
0100
0010
0001
1000
0010
1000
0100
1000
0001
0100
,
0001
0010
0100
1000
0001
0100
0010
1000
0001
0010
0001
1000
0010
0100
0001
1000
,
0001
0010
0100
1000
0001
1000
0010
0100
0001
0010
0100
1000
0001
0100
0010
1000
,
0100
1000
0001
0100
0001
1000
0100
1000
0001
0100
0010
1000
0001
1000
0100
1000
,
0001
0100
0001
1000
0100
1000
0001
0100
0010
1000
0001
0010
0001
1000
0001
0100
,
0010
1000
0001
0010
0001
1000
0010
1000
0001
0010
0100
1000
0001
1000
0010
1000
,
0001
0010
0001
1000
0010
1000
0100
0010
0001
0100
0010
1000
0001
0010
0100
1000
,
0010
1000
0001
0010
0001
1000
0010
1000
0001
0010
0100
1000
0001
1000
0010
1000
,
0001
0010
0001
1000
0010
1000
0001
0010
0100
1000
0001
0100
0001
1000
0001
0010
,
0100
1000
0001
0100
0001
1000
0100
1000
0001
0100
0010
1000
0001
1000
0100
1000
,
0001
0100
0010
1000
0010
0100
0001
1000
0001
0010
0100
1000
0001
0100
0010
1000
,
0001
0010
0001
1000
0010
1000
0001
0010
0100
0010
0001
1000
0010
1000
0100
1000
,
0001
0100
0001
1000
0100
1000
0001
0100
0010
0100
0001
1000
0100
0010
0001
1000
,
0010
1000
0001
0010
0001
1000
0010
0100
0010
1000
0001
0010
0001
0100
0001
1000
,
0100
1000
0001
0100
0001
1000
0100
0010
0001
1000
0010
1000
0001
0010
0100
1000
,
0001
0100
0001
1000
0100
1000
0001
0100
0010
0100
0001
1000
0100
1000
0010
1000
,
0001
0010
0001
1000
0010
1000
0001
0010
0100
0010
0001
1000
0010
0100
0001
1000
,
0100
1000
0001
0100
0001
1000
0100
0010
0100
1000
0001
0100
0010
1000
0001
1000
,
0100
0010
0001
1000
0001
0100
0010
1000
0100
0010
0001
0100
0010
1000
0100
1000
,
0001
0100
0001
1000
0100
1000
0001
0100
0010
0100
0001
1000
0100
1000
0010
1000
,
0001
0010
0001
1000
0010
1000
0001
0010
0100
0010
0001
1000
0010
0100
0001
1000
,
0100
1000
0001
0100
0001
1000
0100
0010
0100
1000
0001
0100
0001
0010
0001
1000
,
0010
1000
0001
0010
0001
1000
0010
0100
0001
1000
0100
1000
0001
0100
0010
1000
,
0001
0010
0001
1000
0010
1000
0001
0010
0100
0010
0001
1000
0010
1000
0100
1000
,
0001
0100
0001
1000
0100
1000
0001
0100
0010
0100
0001
1000
0100
0010
0001
1000
,
0010
1000
0001
0010
0001
1000
0010
0100
0001
1000
0001
0010
0100
1000
0001
1000
,
0010
0100
0010
1000
0001
0010
0100
1000
0010
0100
0001
0010
0100
1000
0001
0100
,
0020
0000
0030
0000
;

//--------------- dance-single - 2-22/46/32/40 ----------------
#NOTEDATA:;
#STEPSTYPE:dance-single;
#DESCRIPTION:2-22/46/32/40;
#DIFFICULTY:Hard;
#METER:14;
#RADARVALUES:0,0,0,0,0;
#NOTES:
0000
0000
0000
0000
,
0000
0000
0000
0000
,
1000
0010
0100
0001
1000
0100
0010
0001
,
0100
0000
0010
0000
1000
0000
0001
0000
0010
0000
0100
0000
1000
0010
0100
0001
,
0010
0100
1000
0010
0100
0001
0010
0001
0100
0010
1000
0100
0010
0001
0100
0001
,
0010
0100
1000
0010
0100
0001
0010
0001
1000
0010
0100
0001
1000
0100
0010
0001
,
0200
0000
0310
0000
0100
0001
1000
0100
0010
0001
0100
0010
1000
0001
0020
0000
,
0000
0000
0000
0030
0200
0000
0300
0000
2000
0000
0000
3000
0002
0000
0000
0003
,
1000
0010
1000
0001
0010
0001
1000
0010
0100
0010
1000
0001
0010
0001
0100
0001
,
1000
0100
1000
0001
0100
0001
1000
0100
0010
0100
1000
0001
0100
0010
1000
0001
,
0010
0001
1000
0010
1000
0001
0010
0100
0010
0001
1000
0010
1000
0100
1000
0001
,
0100
0001
1000
0100
1000
0001
0100
0010
1000
0001
0010
0001
1000
0010
0100
0001
,
1000
0100
1000
0001
0100
0001
1000
0100
0010
0100
1000
0001
0100
0001
0010
0001
,
1000
0010
1000
0001
0010
0001
1000
0010
0100
0010
1000
0001
0010
0100
1000
0001
,
0100
0001
1000
0100
1000
0001
0100
0010
1000
0001
1000
0100
0010
0001
1000
0001
,
0100
0010
0100
0001
1000
0100
0010
0001
0100
0010
1000
0100
0010
0001
0100
0001
,
1000
0100
0010
0001
1000
0010
0100
0001
1000
0100
1000
0001
0100
0010
1000
0001
,
1000
0100
0010
0001
1000
0001
0100
0010
1000
0001
0010
0001
1000
0001
0100
0010
,
1000
0001
1000
0100
0010
0001
1000
0001
0100
0010
0100
0001
1000
0100
1000
0001
,
0100
0001
0010
0100
1000
0010
1000
0100
0010
0001
1000
0010
0100
0001
0010
0001
,
1000
0010
0100
0001
1000
0100
0010
0001
1000
0010
1000
0001
0010
0100
1000
0001
,
1000
0010
0100
0001
1000
0001
0010
0100
1000
0001
0100
0001
1000
0001
0010
0100
,
1000
0001
1000
0010
0100
0010
1000
0001
0010
0100
1000
0001
0100
0001
1000
0100
,
0010
0001
1000
0010
0100
0001
0010
0100
1000
0001
0100
0010
1000
0010
0100
0001
,
1000
0100
1000
0001
0100
0001
1000
0100
1000
0001
0100
0001
1000
0001
0010
0100
,
1000
0010
1000
0001
0010
0001
1000
0010
1000
0001
0010
0001
1000
0001
0100
0010
,
1000
0001
1000
0100
0010
0001
1000
0001
0100
0010
0100
0001
1000
0001
0010
0100
,
1000
0001
0100
0010
1000
0001
1000
0100
0010
0001
1000
0010
0100
0001
1000
0001
,
0010
0001
1000
0010
1000
0001
0010
0001
0100
0010
1000
0001
1000
0100
1000
0001
,
0100
0001
1000
0100
1000
0001
0100
0001
1000
0100
0010
0001
1000
0010
1000
0001
,
0020
0000
0030
0000
0200
0000
0300
2000
,
3000
0000
0020
0030
0200
0300
0002
0000
0003
0000
0020
0000
0000
0000
0030
0000
,
0001
0100
0010
1000
0010
0100
0001
1000
0100
0010
0001
0010
0100
1000
0001
0100
,
0010
1000
0001
0010
0001
1000
0010
1000
0001
0010
0100
1000
0001
0100
0001
1000
,
0001
0010
0100
1000
0001
0100
0001
1000
0100
1000
0001
0100
0010
1000
0001
1000
,
0100
0010
0001
1000
0001
0100
0010
1000
0001
1000
0100
0010
0001
1000
0010
1000
,
0001
0010
0001
0100
0001
1000
0100
1000
0001
0100
0001
0010
0001
1000
0010
0100
,
0001
1000
0001
0010
0100
1000
0010
1000
0001
0010
0100
1000
0001
1000
0010
1000
,
0001
0010
0100
1000
0001
1000
0010
0100
0001
1000
0001
0010
0100
1000
0001
1000
,
0010
1000
0001
0010
0100
1000
0001
1000
0010
0100
0001
1000
0100
0010
0001
1000
,
0010
0100
0001
0100
0010
1000
0001
0010
0100
1000
0100
0010
0001
1000
0010
0100
,
0001
0010
0001
1000
0010
1000
0001
0010
0100
0010
0001
1000
0010
1000
0001
1000
,
0100
0010
0001
1000
0010
1000
0001
0010
0100
1000
0001
1000
0010
0100
0001
1000
,
0001
0010
0100
1000
0001
0100
0010
1000
0100
0010
0001
1000
0010
0100
0001
1000
,
0100
1000
0010
1000
0001
0010
0001
1000
0010
1000
0100
1000
0001
0100
0010
1000
,
0001
0010
0001
1000
0001
0100
0010
0100
0001
1000
0100
1000
0010
1000
0001
0010
,
0001
0100
0010
1000
0001
0010
0100
1000
0001
0100
0001
1000
0100
0010
0001
1000
,
0001
0100
0010
1000
0001
1000
0100
0010
0001
0100
0010
1000
0001
0010
0100
1000
,
0010
1000
0001
0010
0001
1000
0010
1000
0001
0010
0100
1000
0001
1000
0010
1000
,
0001
0010
0001
1000
0010
1000
0001
0010
0100
1000
0001
0100
0001
1000
0001
0010
,
0100
1000
0001
0100
0001
1000
0100
1000
0001
0100
0010
1000
0001
1000
0100
1000
,
0001
0100
0001
1000
0100
1000
0010
1000
0001
0010
0100
1000
0001
0100
0010
1000
,
0100
1000
0001
0100
0001
1000
0100
1000
0001
0100
0010
1000
0001
1000
0100
1000
,
0001
0100
0001
1000
0100
1000
0001
0100
0010
1000
0001
0010
0001
1000
0001
0100
,
0010
1000
0001
0010
0001
1000
0010
1000
0001
0010
0100
1000
0001
1000
0010
1000
,
0001
0010
0001
1000
0010
0100
0001
1000
0001
0010
0100
1000
0001
0100
0010
1000
,
0001
0010
0001
1000
0010
1000
0001
0010
0100
0010
0001
1000
0010
1000
0100
1000
,
0001
0100
0001
1000
0100
1000
0001
0100
0010
0100
0001
1000
0100
0010
0001
1000
,
0010
1000
0001
0010
0001
1000
0010
0100
0010
1000
0001
0010
0001
0100
0001
1000
,
0100
1000
0001
0100
0001
1000
0100
0010
0001
1000
0010
1000
0001
0010
0100
1000
,
0001
0100
0001
1000
0100
1000
0001
0100
0010
0100
0001
1000
0100
1000
0010
1000
,
0001
0010
0001
1000
0010
1000
0001
0010
0100
0010
0001
1000
0010
0100
0001
1000
,
0100
1000
0001
0100
0001
1000
0100
0010
0100
1000
0001
0100
0010
1000
0001
1000
,
0100
0010
0001
1000
0001
0100
0010
1000
0100
0010
0001
0100
0010
1000
0100
1000
,
0001
0100
0010
1000
0001
0010
0100
1000
0001
0100
0001
1000
0100
0010
0001
1000
,
0001
0100
0010
1000
0001
1000
0100
0010
0001
1000
0010
1000
0001
1000
0100
0010
,
0001
1000
0001
0100
0010
1000
0001
1000
0100
0010
0100
1000
0001
0100
0001
1000
,
0100
1000
0010
0100
0001
0010
0001
0100
0010
1000
0001
0010
0100
1000
0010
1000
,
0001
0010
0100
1000
0001
0100
0010
1000
0001
0010
0001
1000
0010
0100
0001
1000
,
0001
0010
0100
1000
0001
1000
0010
0100
0001
1000
0100
1000
0001
1000
0010
0100
,
0001
1000
0001
0010
0100
0010
0001
1000
0010
0100
0001
1000
0100
1000
0001
0100
,
0010
1000
0001
0010
0100
1000
0010
0100
0001
1000
0100
0010
0001
0010
0100
1000
,
0001
0100
0001
1000
0100
1000
0001
0100
0001
1000
0100
1000
0001
1000
0010
0100
,
0001
0010
0001
1000
0010
1000
0001
0010
0001
1000
0010
1000
0001
1000
0100
0010
,
0001
1000
0001
0100
0010
1000
0001
1000
0100
0010
0100
1000
0001
1000
0010
0100
,
0001
1000
0100
0010
0001
1000
0001
0100
0010
1000
0001
0010
0100
1000
0001
1000
,
0010
1000
0001
0010
0001
1000
0010
1000
0100
0010
0001
1000
0001
0100
0001
1000
,
0100
1000
0001
0100
0001
1000
0100
1000
0001
0100
0010
1000
0001
1000
0100
1000
,
0020
0000
0030
0000
0200
0000
0300
0002
,
0003
0000
0020
0030
0200
0300
2000
0000
3000
0000
0020
0000
0000
0000
0030
0000
,
1000
0100
0010
0001
0010
0100
1000
0001
0100
0010
1000
0010
0100
0001
1000
0100
,
0010
0001
1000
0010
1000
0001
0010
0001
1000
0010
0100
0001
1000
0100
1000
0001
,
1000
0010
0100
0001
1000
0100
1000
0001
0100
0001
1000
0100
0010
0001
1000
0001
,
0100
0010
1000
0001
1000
0100
0010
0001
1000
0001
0100
0010
1000
0001
0010
0001
,
1000
0010
1000
0100
1000
0001
0100
0001
1000
0100
1000
0010
1000
0001
0010
0100
,
1000
0001
1000
0010
0100
0001
0010
0001
1000
0010
0100
0001
1000
0001
0010
0001
,
1000
0010
0100
0001
1000
0001
0010
0100
1000
0001
1000
0010
0100
0001
1000
0001
,
0010
0001
1000
0010
0100
0001
1000
0001
0010
0100
1000
0001
0100
0010
1000
0001
,
0010
0100
1000
0100
0010
0001
1000
0010
0100
0001
0100
0010
1000
0001
0010
0100
,
1000
0010
1000
0001
0010
0001
1000
0010
0100
0010
1000
0001
0010
0001
1000
0001
,
0100
0010
1000
0001
0010
0001
1000
0010
0100
0001
1000
0001
0010
0100
1000
0001
,
1000
0010
0100
0001
1000
0100
0010
0001
0100
0010
1000
0001
0010
0100
1000
0001
,
0100
0001
0010
0001
1000
0010
1000
0001
0010
0001
0100
0001
1000
0100
0010
0001
,
1000
0010
1000
0001
1000
0100
0010
0100
1000
0001
0100
0001
0010
0001
1000
0010
,
1000
0100
0010
0001
1000
0010
0100
0001
1000
0100
1000
0001
0100
0010
1000
0001
,
1000
0100
0010
0001
1000
0001
0100
0010
1000
0100
0010
0001
1000
0010
0100
0001
,
0010
0001
1000
0010
1000
0001
0010
0001
1000
0010
0100
0001
1000
0001
0010
0001
,
1000
0010
1000
0001
0010
0001
1000
0010
0100
0001
1000
0100
1000
0001
1000
0010
,
0100
0001
1000
0100
1000
0001
0100
0001
1000
0100
0010
0001
1000
0001
0100
0001
,
1000
0100
1000
0001
0100
0001
0010
0100
1000
0010
0100
0001
1000
0100
0010
0001
,
0100
0001
1000
0100
1000
0001
0100
0001
1000
0100
0010
0001
1000
0001
0100
0001
,
1000
0100
1000
0001
0100
0001
1000
0100
0010
0001
1000
0010
1000
0001
1000
0100
,
0010
0001
1000
0010
1000
0001
0010
0001
1000
0010
0100
0001
1000
0001
0010
0001
,
1000
0010
1000
0100
1000
0001
0100
0001
1000
0100
0010
0001
1000
0010
0100
0001
,
1000
0100
1000
0001
0100
0001
1000
0100
0010
0100
1000
0001
0100
0001
0010
0001
,
1000
0010
1000
0001
0010
0001
1000
0010
0100
0010
1000
0001
0010
0100
1000
0001
,
0100
0001
1000
0100
1000
0001
0100
0010
0100
0001
1000
0100
1000
0010
1000
0001
,
0010
0001
1000
0010
1000
0001
0010
0100
1000
0001
0100
0001
1000
0100
0010
0001
,
1000
0010
1000
0001
0010
0001
1000
0010
0100
0010
1000
0001
0010
0001
0100
0001
,
1000
0100
1000
0001
0100
0001
1000
0100
0010
0100
1000
0001
0100
0010
1000
0001
,
0010
0001
1000
0010
1000
0001
0010
0100
0010
0001
1000
0010
0100
0001
1000
0001
,
0010
0100
0010
0001
1000
0010
0100
0001
0010
0100
1000
0010
0100
0001
0010
0001
,
2000
3010
0100
0001
1000
0001
0010
0100
,
0010
0000
0001
0000
1000
0000
0010
0000
0100
0001
1000
0001
0010
0001
1000
0010
,
0100
0000
0001
0000
1000
0000
0100
0000
1000
0000
0001
0000
0100
0000
0010
1000
,
0001
0010
0001
1000
0010
1000
0001
0010
0100
1000
0001
0100
0001
1000
0100
0010
,
0002
1003
0010
1000
0001
1000
0100
0010
,
0001
0100
0001
1000
0100
1000
0001
0100
,
0010
0000
1000
0000
0001
0000
0010
0100
1000
0001
0100
0001
1000
0100
0010
0001
,
0100
0010
1000
0001
0010
0100
1000
0001
1000
0010
0100
0001
1000
0100
0010
0001
,
2000
0000
0000
0000
3010
0000
0100
0001
1000
0100
1000
0001
0100
0001
1000
0100
,
0010
0000
0001
0100
0010
0000
1000
0001
0020
0000
0000
0030
0100
1000
0001
0100
,
0020
0000
0000
0030
1000
0100
0010
0001
1000
0010
1000
0010
0100
0001
1000
0000
,
0200
0000
0000
0300
0010
0000
0002
0000
0100
0000
0000
0000
1003
0000
0100
0000
,
1000
0000
0010
0100
0000
0001
1000
0000
0200
0000
0310
0000
0001
0100
0010
1000
,
0001
0000
0010
0100
0000
1000
0001
0000
0100
0010
1000
0001
0010
0100
1000
0001
,
0200
0000
0310
1000
0000
0001
0010
0000
0100
0000
1000
0001
0000
0100
0010
0000
,
0100
0001
1000
0100
0010
0001
0100
0010
2000
0000
0000
0000
3001
0000
0001
0000
,
1000
0000
0000
0100
0000
0000
0010
0000
0001
0000
0100
0000
0010
0000
1000
0000
,
0001
0000
0000
0010
0000
0000
0100
0000
1000
0000
0001
0000
0100
0000
0010
0000
,
1000
0000
0100
0000
0010
0001
0000
0100
,
0000
0000
0010
0000
0000
0000
1000
0000
0000
0000
0001
0000
1000
0100
0010
0001
,
0100
0001
1000
0100
1000
0001
0100
0001
0010
0100
1000
0001
1000
0010
1000
0001
,
0010
0001
1000
0010
1000
0001
0010
0001
1000
0010
0100
0001
1000
0001
0010
0001
,
0200
0000
0300
0000
0020
0000
0030
2000
,
3000
0000
0200
0300
0020
0030
0002
0000
0003
0000
0200
0000
0000
0000
0300
0000
,
0001
0010
0100
1000
0100
0010
0001
1000
0010
0100
0001
0100
0010
1000
0001
0010
,
0100
1000
0001
0100
0001
1000
0100
1000
0001
0100
0010
1000
0001
0010
0001
1000
,
0001
0100
0010
1000
0001
0010
0001
1000
0010
1000
0001
0010
0100
1000
0001
1000
,
0010
0100
0001
1000
0001
0010
0100
1000
0001
1000
0010
0100
0001
1000
0100
1000
,
0001
0100
0001
0010
0001
1000
0010
1000
0001
0010
0001
0100
0001
1000
0100
0010
,
0001
1000
0001
0100
0010
1000
0100
1000
0001
0100
0010
1000
0001
1000
0100
1000
,
0001
0100
0010
1000
0001
1000
0100
0010
0001
1000
0001
0100
0010
1000
0001
1000
,
0100
1000
0001
0100
0010
1000
0001
1000
0100
0010
0001
1000
0010
0100
0001
1000
,
0100
0010
0001
0010
0100
1000
0001
0100
0010
1000
0010
0100
0001
1000
0100
0010
,
0001
0100
0001
1000
0100
1000
0001
0100
0010
0100
0001
1000
0100
1000
0001
1000
,
0010
0100
0001
1000
0100
1000
0001
0100
0010
1000
0001
1000
0100
0010
0001
1000
,
0001
0100
0010
1000
0001
0010
0100
1000
0010
0100
0001
1000
0100
0010
0001
1000
,
0010
1000
0100
1000
0001
0100
0001
1000
0100
1000
0010
1000
0001
0010
0100
1000
,
0001
0100
0001
1000
0001
0010
0100
0010
0001
1000
0010
1000
0100
1000
0001
0100
,
0001
0010
0100
1000
0001
0100
0010
1000
0001
0010
0001
1000
0010
0100
0001
1000
,
0001
0010
0100
1000
0001
1000
0010
0100
0001
0010
0100
1000
0001
0100
0010
1000
,
0100
1000
0001
0100
0001
1000
0100
1000
0001
0100
0010
1000
0001
1000
0100
1000
,
0001
0100
0001
1000
0100
1000
0001
0100
0010
1000
0001
0010
0001
1000
0001
0100
,
0010
1000
0001
0010
0001
1000
0010
1000
0001
0010
0100
1000
0001
1000
0010
1000
,
0001
0010
0001
1000
0010
1000
0100
0010
0001
0100
0010
1000
0001
0010
0100
1000
,
0010
1000
0001
0010
0001
1000
0010
1000
0001
0010
0100
1000
0001
1000
0010
1000
,
0001
0010
0001
1000
0010
1000
0001
0010
0100
1000
0001
0100
0001
1000
0001
0010
,
0100
1000
0001
0100
0001
1000
0100
1000
0001
0100
0010
1000
0001
1000
0100
1000
,
0001
0100
0010
1000
0010
0100
0001
1000
0001
0010
0100
1000
0001
0100
0010
1000
,
0001
0010
0001
1000
0010
1000
0001
0010
0100
0010
0001
1000
0010
1000
0100
1000
,
0001
0100
0001
1000
0100
1000
0001
0100
0010
0100
0001
1000
0100
0010
0001
1000
,
0010
1000
0001
0010
0001
1000
0010
0100
0010
1000
0001
0010
0001
0100
0001
1000
,
0100
1000
0001
0100
0001
1000
0100
0010
0001
1000
0010
1000
0001
0010
0100
1000
,
0001
0100
0001
1000
0100
1000
0001
0100
0010
0100
0001
1000
0100
1000
0010
1000
,
0001
0010
0001
1000
0010
1000
0001
0010
0100
0010
0001
1000
0010
0100
0001
1000
,
0100
1000
0001
0100
0001
1000
0100
0010
0100
1000
0001
0100
0010
1000
0001
1000
,
0100
0010
0001
1000
0001
0100
0010
1000
0100
0010
0001
0100
0010
1000
0100
1000
,
0001
0100
0001
1000
0100
1000
0001
0100
0010
0100
0001
1000
0100
1000
0010
1000
,
0001
0010
0001
1000
0010
1000
0001
0010
0100
0010
0001
1000
0010
0100
0001
1000
,
0100
1000
0001
0100
0001
1000
0100
0010
0100
1000
0001
0100
0001
0010
0001
1000
,
0010
1000
0001
0010
0001
1000
0010
0100
0001
1000
0100
1000
0001
0100
0010
1000
,
0001
0010
0001
1000
0010
1000
0001
0010
0100
0010
0001
1000
0010
1000
0100
1000
,
0001
0100
0001
1000
0100
1000
0001
0100
0010
0100
0001
1000
0100
0010
0001
1000
,
0010
1000
0001
0010
0001
1000
0010
0100
0001
1000
0001
0010
0100
1000
0001
1000
,
0010
0100
0010
1000
0001
0010
0100
1000
0010
0100
0001
0010
0100
1000
0001
0100
,
0020
0000
0030
0000
;

//--------------- dance-single - 3-165* ----------------
#NOTEDATA:;
#STEPSTYPE:dance-single;
#DESCRIPTION:3-165*;
#DIFFICULTY:Challenge;
#METER:15;
#RADARVALUES:0,0,0,0,0;
#NOTES:
0000
0000
0000
0000
,
0000
0000
0000
0000
,
1000
0010
0100
0001
1000
0100
0010
0001
,
0100
0000
0010
0000
1000
0000
0001
0000
0010
0000
0100
0000
1000
0010
0100
0001
,
0010
0100
1000
0010
0100
0001
0010
0001
0100
0010
1000
0100
0010
0001
0100
0001
,
0010
0100
1000
0010
0100
0001
0010
0001
1000
0010
0100
0001
1000
0100
0010
0001
,
0100
0010
1000
0010
0100
0001
1000
0100
0010
0001
0100
0010
1000
0001
0020
0000
,
0000
0000
0000
0030
0200
0000
0300
0000
2000
0000
0000
3000
0002
0000
0000
0003
,
1000
0010
1000
0001
0010
0001
1000
0010
0100
0010
1000
0001
0010
0001
0100
0001
,
1000
0100
1000
0001
0100
0001
1000
0100
0010
0100
1000
0001
0100
0010
1000
0001
,
0010
0001
1000
0010
1000
0001
0010
0100
0010
0001
1000
0010
1000
0100
1000
0001
,
0100
0001
1000
0100
1000
0001
0100
0010
1000
0001
0010
0001
1000
0010
0100
0001
,
1000
0100
1000
0001
0100
0001
1000
0100
0010
0100
1000
0001
0100
0001
0010
0001
,
1000
0010
1000
0001
0010
0001
1000
0010
0100
0010
1000
0001
0010
0100
1000
0001
,
0100
0001
1000
0100
1000
0001
0100
0010
1000
0001
1000
0100
0010
0001
1000
0001
,
0100
0010
0100
0001
1000
0100
0010
0001
0100
0010
1000
0100
0010
0001
0100
0001
,
1000
0100
0010
0001
1000
0010
0100
0001
1000
0100
1000
0001
0100
0010
1000
0001
,
1000
0100
0010
0001
1000
0001
0100
0010
1000
0001
0010
0001
1000
0001
0100
0010
,
1000
0001
1000
0100
0010
0001
1000
0001
0100
0010
0100
0001
1000
0100
1000
0001
,
0100
0001
0010
0100
1000
0010
1000
0100
0010
0001
1000
0010
0100
0001
0010
0001
,
1000
0010
0100
0001
1000
0100
0010
0001
1000
0010
1000
0001
0010
0100
1000
0001
,
1000
0010
0100
0001
1000
0001
0010
0100
1000
0001
0100
0001
1000
0001
0010
0100
,
1000
0001
1000
0010
0100
0010
1000
0001
0010
0100
1000
0001
0100
0001
1000
0100
,
0010
0001
1000
0010
0100
0001
0010
0100
1000
0001
0100
0010
1000
0010
0100
0001
,
1000
0100
1000
0001
0100
0001
1000
0100
1000
0001
0100
0001
1000
0001
0010
0100
,
1000
0010
1000
0001
0010
0001
1000
0010
1000
0001
0010
0001
1000
0001
0100
0010
,
1000
0001
1000
0100
0010
0001
1000
0001
0100
0010
0100
0001
1000
0001
0010
0100
,
1000
0001
0100
0010
1000
0001
1000
0100
0010
0001
1000
0010
0100
0001
1000
0001
,
0010
0001
1000
0010
1000
0001
0010
0001
0100
0010
1000
0001
1000
0100
1000
0001
,
0100
0001
1000
0100
1000
0001
0100
0001
1000
0100
0010
0001
1000
0010
1000
0001
,
0010
0100
1000
0100
0010
0001
1000
0001
0100
0010
1000
0010
0100
0001
1000
0001
,
0010
0100
1000
0001
1000
0010
1000
0001
0010
0100
2000
0000
0000
0000
3000
0000
,
0001
0100
0010
1000
0010
0100
0001
1000
0100
0010
0001
0010
0100
1000
0001
0100
,
0010
1000
0001
0010
0001
1000
0010
1000
0001
0010
0100
1000
0001
0100
0001
1000
,
0001
0010
0100
1000
0001
0100
0001
1000
0100
1000
0001
0100
0010
1000
0001
1000
,
0100
0010
0001
1000
0010
0100
0001
1000
0001
0010
0100
1000
0001
0100
0010
1000
,
0001
0010
0001
0100
0001
1000
0100
1000
0001
0100
0001
0010
0001
1000
0010
0100
,
0001
1000
0001
0010
0100
1000
0010
1000
0001
0010
0100
1000
0001
1000
0010
1000
,
0001
0010
0100
1000
0001
1000
0010
0100
0001
1000
0001
0010
0100
1000
0001
1000
,
0010
1000
0001
0010
0100
1000
0001
1000
0010
0100
0001
1000
0100
0010
0001
1000
,
0010
0100
0001
0100
0010
1000
0001
0010
0100
1000
0100
0010
0001
1000
0010
0100
,
0001
0010
0001
1000
0010
1000
0001
0010
0100
0010
0001
1000
0010
1000
0001
1000
,
0100
0010
0001
1000
0010
1000
0001
0010
0100
1000
0001
1000
0010
0100
0001
1000
,
0001
0010
0100
1000
0001
0100
0010
1000
0100
0010
0001
1000
0010
0100
0001
1000
,
0100
1000
0010
1000
0001
0010
0001
1000
0010
1000
0100
1000
0001
0100
0010
1000
,
0001
0010
0001
1000
0001
0100
0010
0100
0001
1000
0100
1000
0010
1000
0001
0010
,
0001
0100
0010
1000
0001
0010
0100
1000
0001
0100
0001
1000
0100
0010
0001
1000
,
0001
0100
0010
1000
0001
0010
0001
1000
0010
0100
0001
1000
0100
0010
0001
1000
,
0010
1000
0001
0010
0001
1000
0010
1000
0001
0010
0100
1000
0001
1000
0010
1000
,
0001
0010
0001
1000
0010
1000
0001
0010
0100
1000
0001
0100
0001
1000
0001
0010
,
0100
1000
0001
0100
0001
1000
0100
1000
0001
0100
0010
1000
0001
1000
0100
1000
,
0001
0100
0001
1000
0100
1000
0010
1000
0001
0010
0100
1000
0001
0100
0010
1000
,
0100
1000
0001
0100
0001
1000
0100
1000
0001
0100
0010
1000
0001
1000
0100
1000
,
0001
0100
0001
1000
0100
1000
0001
0100
0010
1000
0001
0010
0001
1000
0001
0100
,
0010
1000
0001
0010
0001
1000
0010
1000
0001
0010
0100
1000
0001
1000
0010
1000
,
0001
0010
0001
1000
0010
0100
0001
1000
0001
0010
0100
1000
0001
0100
0010
1000
,
0001
0010
0001
1000
0010
1000
0001
0010
0100
0010
0001
1000
0010
1000
0100
1000
,
0001
0100
0001
1000
0100
1000
0001
0100
0010
0100
0001
1000
0100
0010
0001
1000
,
0010
1000
0001
0010
0001
1000
0010
0100
0010
1000
0001
0010
0001
0100
0001
1000
,
0100
1000
0001
0100
0001
1000
0100
0010
0001
1000
0010
1000
0001
0010
0100
1000
,
0001
0100
0001
1000
0100
1000
0001
0100
0010
0100
0001
1000
0100
1000
0010
1000
,
0001
0010
0001
1000
0010
1000
0001
0010
0100
0010
0001
1000
0010
0100
0001
1000
,
0100
1000
0001
0100
0001
1000
0100
0010
0100
1000
0001
0100
0010
1000
0001
1000
,
0100
0010
0001
1000
0001
0100
0010
1000
0100
0010
0001
0100
0010
1000
0100
1000
,
0001
0100
0010
1000
0001
0010
0100
1000
0001
0100
0001
1000
0100
0010
0001
1000
,
0001
0100
0010
1000
0001
1000
0100
0010
0001
1000
0010
1000
0001
1000
0100
0010
,
0001
1000
0001
0100
0010
1000
0001
1000
0100
0010
0100
1000
0001
0100
0001
1000
,
0100
1000
0010
0100
0001
0010
0001
0100
0010
1000
0001
0010
0100
1000
0010
1000
,
0001
0010
0100
1000
0001
0100
0010
1000
0001
0010
0001
1000
0010
0100
0001
1000
,
0001
0010
0100
1000
0001
1000
0010
0100
0001
1000
0100
1000
0001
1000
0010
0100
,
0001
1000
0001
0010
0100
0010
0001
1000
0010
0100
0001
1000
0100
1000
0001
0100
,
0010
1000
0001
0010
0100
1000
0010
0100
0001
1000
0100
0010
0001
0010
0100
1000
,
0001
0100
0001
1000
0100
1000
0001
0100
0001
1000
0100
1000
0001
1000
0010
0100
,
0001
0010
0001
1000
0010
1000
0001
0010
0001
1000
0010
1000
0001
1000
0100
0010
,
0001
1000
0001
0100
0010
1000
0001
1000
0100
0010
0100
1000
0001
1000
0010
0100
,
0001
1000
0100
0010
0001
1000
0001
0100
0010
1000
0001
0010
0100
1000
0001
1000
,
0010
1000
0001
0010
0001
1000
0010
1000
0100
0010
0001
1000
0001
0100
0001
1000
,
0100
1000
0001
0100
0001
1000
0100
1000
0001
0100
0010
1000
0001
0010
0001
1000
,
0010
0100
0001
0100
0010
1000
0001
1000
0100
0010
0001
0010
0100
1000
0001
1000
,
0010
0100
0001
1000
0001
0010
0001
1000
0010
0100
0002
0000
0000
0000
0003
0000
,
1000
0100
0010
0001
0010
0100
1000
0001
0100
0010
1000
0010
0100
0001
1000
0100
,
0010
0001
1000
0010
1000
0001
0010
0001
1000
0010
0100
0001
1000
0100
1000
0001
,
1000
0010
0100
0001
1000
0100
1000
0001
0100
0001
1000
0100
0010
0001
1000
0001
,
0100
0010
1000
0001
0010
0100
1000
0001
1000
0010
0100
0001
1000
0100
0010
0001
,
1000
0010
1000
0100
1000
0001
0100
0001
1000
0100
1000
0010
1000
0001
0010
0100
,
1000
0001
1000
0010
0100
0001
0010
0001
1000
0010
0100
0001
1000
0001
0010
0001
,
1000
0010
0100
0001
1000
0001
0010
0100
1000
0001
1000
0010
0100
0001
1000
0001
,
0010
0001
1000
0010
0100
0001
1000
0001
0010
0100
1000
0001
0100
0010
1000
0001
,
0010
0100
1000
0100
0010
0001
1000
0010
0100
0001
0100
0010
1000
0001
0010
0100
,
1000
0010
1000
0001
0010
0001
1000
0010
0100
0010
1000
0001
0010
0001
1000
0001
,
0100
0010
1000
0001
0010
0001
1000
0010
0100
0001
1000
0001
0010
0100
1000
0001
,
1000
0010
0100
0001
1000
0100
0010
0001
0100
0010
1000
0001
0010
0100
1000
0001
,
0100
0001
0010
0001
1000
0010
1000
0001
0010
0001
0100
0001
1000
0100
0010
0001
,
1000
0010
1000
0001
1000
0100
0010
0100
1000
0001
0100
0001
0010
0001
1000
0010
,
1000
0100
0010
0001
1000
0010
0100
0001
1000
0100
1000
0001
0100
0010
1000
0001
,
1000
0100
0010
0001
1000
0010
1000
0001
0010
0100
1000
0001
0100
0010
1000
0001
,
0010
0001
1000
0010
1000
0001
0010
0001
1000
0010
0100
0001
1000
0001
0010
0001
,
1000
0010
1000
0001
0010
0001
1000
0010
0100
0001
1000
0100
1000
0001
1000
0010
,
0100
0001
1000
0100
1000
0001
0100
0001
1000
0100
0010
0001
1000
0001
0100
0001
,
1000
0100
1000
0001
0100
0001
0010
0100
1000
0010
0100
0001
1000
0100
0010
0001
,
0100
0001
1000
0100
1000
0001
0100
0001
1000
0100
0010
0001
1000
0001
0100
0001
,
1000
0100
1000
0001
0100
0001
1000
0100
0010
0001
1000
0010
1000
0001
1000
0100
,
0010
0001
1000
0010
1000
0001
0010
0001
1000
0010
0100
0001
1000
0001
0010
0001
,
1000
0010
1000
0100
1000
0001
0100
0001
1000
0100
0010
0001
1000
0010
0100
0001
,
1000
0100
1000
0001
0100
0001
1000
0100
0010
0100
1000
0001
0100
0001
0010
0001
,
1000
0010
1000
0001
0010
0001
1000
0010
0100
0010
1000
0001
0010
0100
1000
0001
,
0100
0001
1000
0100
1000
0001
0100
0010
0100
0001
1000
0100
1000
0010
1000
0001
,
0010
0001
1000
0010
1000
0001
0010
0100
1000
0001
0100
0001
1000
0100
0010
0001
,
1000
0010
1000
0001
0010
0001
1000
0010
0100
0010
1000
0001
0010
0001
0100
0001
,
1000
0100
1000
0001
0100
0001
1000
0100
0010
0100
1000
0001
0100
0010
1000
0001
,
0010
0001
1000
0010
1000
0001
0010
0100
0010
0001
1000
0010
0100
0001
1000
0001
,
0010
0100
0010
0001
1000
0010
0100
0001
0010
0100
1000
0010
0100
0001
0010
0001
,
1000
0010
1000
0001
1000
0100
0010
0001
1000
0010
0100
0001
1000
0100
1000
0001
,
0100
0010
1000
0001
0010
0100
1000
0001
0100
0001
1000
0100
0010
0001
0010
0100
,
1000
0001
0100
0010
1000
0001
1000
0100
0010
0001
1000
0010
1000
0001
0010
0100
,
1000
0010
0100
0001
1000
0100
0010
0001
1000
0010
1000
0001
0010
0100
1000
0001
,
0100
0010
1000
0010
0100
0001
1000
0100
1000
0001
0100
0010
1000
0001
0010
0001
,
1000
0010
1000
0001
0010
0100
1000
0001
1000
0010
0100
0001
1000
0100
1000
0001
,
0100
0010
1000
0001
0010
0100
1000
0001
1000
0010
0100
0001
1000
0100
0010
0001
,
0100
0010
1000
0001
0010
0100
1000
0001
1000
0010
0100
0001
1000
0100
0010
0001
,
1000
0010
0100
0001
0100
0010
1000
0001
0010
0001
1000
0010
0100
0001
1000
0100
,
0010
0001
1000
0001
0100
0010
1000
0001
0010
0100
1000
0001
1000
0010
0100
0001
,
0010
0001
1000
0001
0100
0010
1000
0001
0010
0100
1000
0001
1000
0010
0100
0001
,
1000
0001
0010
0100
1000
0001
0100
0010
1000
0010
0100
0001
1000
0100
1000
0001
,
0100
0001
1000
0100
1000
0010
1000
0001
0010
0100
1000
0100
0010
0001
0100
0010
,
1000
0100
1000
0001
0100
0001
0010
0001
1000
0010
0100
0001
0010
0100
1000
0001
,
0100
0001
1000
0100
1000
0001
0100
0001
0010
0001
1000
0010
1000
0001
0010
0001
,
0100
0010
1000
0100
0010
0001
0100
0010
1000
0001
1000
0100
1000
0001
0100
0001
,
1000
0010
1000
0001
0010
0001
1000
0010
1000
0001
0010
0001
1000
0001
0100
0010
,
1000
0100
1000
0001
0100
0001
1000
0100
1000
0001
0100
0001
1000
0001
0010
0100
,
1000
0001
1000
0010
0100
0001
1000
0001
0010
0100
0010
0001
1000
0001
0100
0010
,
1000
0001
0010
0100
1000
0001
1000
0010
0100
0001
1000
0100
0010
0001
1000
0001
,
0100
0001
1000
0100
1000
0001
0100
0001
0010
0100
1000
0001
1000
0010
1000
0001
,
0010
0001
1000
0010
1000
0001
0010
0001
1000
0010
0100
0001
1000
0100
1000
0001
,
0100
0010
1000
0010
0100
0001
1000
0001
0010
0100
1000
0100
0010
0001
1000
0001
,
0100
0010
1000
0001
1000
0100
1000
0001
0100
0010
2000
0000
0000
0000
3000
0000
,
0001
0010
0100
1000
0100
0010
0001
1000
0010
0100
0001
0100
0010
1000
0001
0010
,
0100
1000
0001
0100
0001
1000
0100
1000
0001
0100
0010
1000
0001
0010
0001
1000
,
0001
0100
0010
1000
0001
0010
0001
1000
0010
1000
0001
0010
0100
1000
0001
1000
,
0010
0100
0001
1000
0100
0010
0001
1000
0001
0100
0010
1000
0001
0010
0100
1000
,
0001
0100
0001
0010
0001
1000
0010
1000
0001
0010
0001
0100
0001
1000
0100
0010
,
0001
1000
0001
0100
0010
1000
0100
1000
0001
0100
0010
1000
0001
1000
0100
1000
,
0001
0100
0010
1000
0001
1000
0100
0010
0001
1000
0001
0100
0010
1000
0001
1000
,
0100
1000
0001
0100
0010
1000
0001
1000
0100
0010
0001
1000
0010
0100
0001
1000
,
0100
0010
0001
0010
0100
1000
0001
0100
0010
1000
0010
0100
0001
1000
0100
0010
,
0001
0100
0001
1000
0100
1000
0001
0100
0010
0100
0001
1000
0100
1000
0001
1000
,
0010
0100
0001
1000
0100
1000
0001
0100
0010
1000
0001
1000
0100
0010
0001
1000
,
0001
0100
0010
1000
0001
0010
0100
1000
0010
0100
0001
1000
0100
0010
0001
1000
,
0010
1000
0100
1000
0001
0100
0001
1000
0100
1000
0010
1000
0001
0010
0100
1000
,
0001
0100
0001
1000
0001
0010
0100
0010
0001
1000
0010
1000
0100
1000
0001
0100
,
0001
0010
0100
1000
0001
0100
0010
1000
0001
0010
0001
1000
0010
0100
0001
1000
,
0001
0010
0100
1000
0001
1000
0010
0100
0001
0010
0100
1000
0001
0100
0010
1000
,
0100
1000
0001
0100
0001
1000
0100
1000
0001
0100
0010
1000
0001
1000
0100
1000
,
0001
0100
0001
1000
0100
1000
0001
0100
0010
1000
0001
0010
0001
1000
0001
0100
,
0010
1000
0001
0010
0001
1000
0010
1000
0001
0010
0100
1000
0001
1000
0010
1000
,
0001
0010
0001
1000
0010
1000
0100
0010
0001
0100
0010
1000
0001
0010
0100
1000
,
0010
1000
0001
0010
0001
1000
0010
1000
0001
0010
0100
1000
0001
1000
0010
1000
,
0001
0010
0001
1000
0010
1000
0001
0010
0100
1000
0001
0100
0001
1000
0001
0010
,
0100
1000
0001
0100
0001
1000
0100
1000
0001
0100
0010
1000
0001
1000
0100
1000
,
0001
0100
0010
1000
0010
0100
0001
1000
0001
0010
0100
1000
0001
0100
0010
1000
,
0001
0010
0001
1000
0010
1000
0001
0010
0100
0010
0001
1000
0010
1000
0100
1000
,
0001
0100
0001
1000
0100
1000
0001
0100
0010
0100
0001
1000
0100
0010
0001
1000
,
0010
1000
0001
0010
0001
1000
0010
0100
0010
1000
0001
0010
0001
0100
0001
1000
,
0100
1000
0001
0100
0001
1000
0100
0010
0001
1000
0010
1000
0001
0010
0100
1000
,
0001
0100
0001
1000
0100
1000
0001
0100
0010
0100
0001
1000
0100
1000
0010
1000
,
0001
0010
0001
1000
0010
1000
0001
0010
0100
0010
0001
1000
0010
0100
0001
1000
,
0100
1000
0001
0100
0001
1000
0100
0010
0100
1000
0001
0100
0010
1000
0001
1000
,
0100
0010
0001
1000
0001
0100
0010
1000
0100
0010
0001
0100
0010
1000
0100
1000
,
0001
0100
0001
1000
0100
1000
0001
0100
0010
0100
0001
1000
0100
1000
0010
1000
,
0001
0010
0001
1000
0010
1000
0001
0010
0100
0010
0001
1000
0010
0100
0001
1000
,
0100
1000
0001
0100
0001
1000
0100
0010
0100
1000
0001
0100
0001
0010
0001
1000
,
0010
1000
0001
0010
0001
1000
0010
0100
0001
1000
0100
1000
0001
0100
0010
1000
,
0001
0010
0001
1000
0010
1000
0001
0010
0100
0010
0001
1000
0010
1000
0100
1000
,
0001
0100
0001
1000
0100
1000
0001
0100
0010
0100
0001
1000
0100
0010
0001
1000
,
0010
1000
0001
0010
0001
1000
0010
0100
0001
1000
0001
0010
0100
1000
0001
1000
,
0010
0100
0010
1000
0001
0010
0100
1000
0010
0100
0001
0010
0100
1000
0001
0100
,
0020
0000
0030
0000
;
